osu file format v14

[General]
AudioFilename: audio.mp3
AudioLeadIn: 0
PreviewTime:1881
Countdown: 0
SampleSet: Soft
StackLeniency: 0.7
Mode: 0
LetterboxInBreaks: 0
WidescreenStoryboard: 1

[Editor]
DistanceSpacing: 1
BeatDivisor: 4
GridSize: 16
TimelineZoom: 1.1

[Metadata]
Title:Moonlike Smile
TitleUnicode:皎洁的笑颜
Artist:Yu-Peng Chen @HOYO-MiX
ArtistUnicode:陈致逸 @HOYO-MiX
Creator:Present
Version:Kobayakawa Sae's Normal
Source:Genshin Impact
Tags:YuanShen 原神 miHoYo 漩涡、落星与冰山 Vortex of Legends ost original SoundTrack 无垠之白 Frost theme BGM Instrumental Video Game Classic Piano Kobayakawa Sae CoLouRed GlaZeE AngelSnow Muziyami 龙脊雪山 Mountain Soundtrack VGM Music Dragonspine
BeatmapID:3171784
BeatmapSetID:1552230

[Difficulty]
HPDrainRate:3
CircleSize:3
OverallDifficulty:4
ApproachRate:5.2
SliderMultiplier:1
SliderTickRate:1

[Events]
//Background and Video events
0,0,"bg.jpg",0,0
//Break Periods
//Storyboard Layer 0 (Background)
//Storyboard Layer 1 (Fail)
//Storyboard Layer 2 (Pass)
//Storyboard Layer 3 (Foreground)
//Storyboard Layer 4 (Overlay)
//Storyboard Sound Samples

[TimingPoints]
2050,674.157303370787,4,2,1,35,1,0
2050,-100,4,2,1,35,0,0
6094,666.666666666667,4,2,1,35,1,0
6760,645.161290322581,4,2,1,35,1,0
7082,722.891566265061,4,2,1,35,1,0
7443,666.666666666667,4,2,1,35,1,0
7443,-100,4,2,1,35,0,0
10109,681.818181818182,4,2,1,35,1,0
10109,-100,4,2,1,35,0,0
12836,674.157303370787,4,2,1,35,1,0
12836,-100,4,2,1,35,0,0
15532,666.666666666667,4,2,1,35,1,0
15532,-100,4,2,1,35,0,0
18198,681.818181818182,4,2,1,35,1,0
18198,-100,4,2,1,35,0,0
19561,674.157303370787,4,2,1,35,1,0
19561,-100,4,2,1,35,0,0
20909,674.157303370787,4,2,1,35,1,0
20909,-100,4,2,1,35,0,0
23605,-100,4,2,1,35,0,0
31695,681.818181818182,4,2,1,35,1,0
32376,666.666666666667,4,2,1,35,1,0
33042,681.818181818182,4,2,1,35,1,0
34406,674.157303370787,4,2,1,35,1,0
38450,666.666666666667,4,2,1,35,1,0
39783,674.157303370787,4,2,1,35,1,0
42479,666.666666666667,4,2,1,35,1,0
43812,674.157303370787,4,2,1,35,1,0
45160,681.818181818182,4,2,1,35,1,0
45160,-100,4,2,1,35,0,1
47887,666.666666666667,4,2,1,35,1,1
47887,-100,4,2,1,35,0,1
49887,670.391061452514,4,2,1,35,1,1
50557,681.818181818183,4,2,1,35,1,1
52602,666.666666666667,4,2,1,35,1,1
53267,666.666666666667,4,2,1,35,1,1
53280,-100,4,2,1,35,0,1
54600,674.157303370787,4,2,1,35,1,1
55946,674.157303370787,4,2,1,35,1,0
58642,-100,4,2,1,35,0,0
59990,666.666666666667,4,2,1,35,1,0
60656,681.818181818182,4,2,1,35,1,0
61337,674.157303370787,4,2,1,35,1,0
62685,689.655172413794,4,2,1,35,1,0
63374,674.157303370787,4,2,1,35,1,0
64048,674.157303370787,4,2,1,35,1,0
65396,705.882352941177,4,2,1,35,1,0
66101,1000,4,2,1,35,1,0
66101,-100,4,2,1,35,0,0
66601,1016.94915254237,4,2,1,45,1,0
67109,750,4,2,1,45,1,0
67484,705.882352941176,4,2,1,45,1,0
67836,779.220779220778,4,2,1,45,1,0
68225,909.090909090908,4,2,1,45,1,0
68679,1132.07547169811,4,2,1,45,1,0
69245,1764.70588235294,4,2,1,45,1,0
70127,-100,4,2,1,25,0,0

[Colours]
Combo1 : 167,184,123
Combo2 : 237,171,159
Combo3 : 147,191,189
Combo4 : 217,185,145
Combo5 : 126,134,171

[HitObjects]
95,94,2050,6,0,L|194:100,1,100,2|2,0:0|0:0,0:0:0:0:
255,192,3398,2,0,L|155:198,1,100,2|2,0:0|0:0,0:0:0:0:
58,251,4746,2,0,P|45:298|54:347,1,100,2|2,0:0|0:0,0:0:0:0:
155,304,6094,1,2,0:0:0:0:
252,354,6760,2,0,L|313:359,1,50,2|2,0:0|0:0,0:0:0:0:
349,333,7443,6,0,P|364:285|361:235,1,100,2|2,0:0|0:0,0:0:0:0:
268,176,8776,2,0,P|253:223|256:273,1,100,2|2,0:0|0:0,0:0:0:0:
179,350,10109,1,6,0:0:0:0:
101,272,10790,1,2,0:0:0:0:
178,194,11472,1,2,0:0:0:0:
255,271,12154,1,2,0:0:0:0:
332,193,12836,6,0,L|431:183,1,100,2|2,0:0|0:0,0:0:0:0:
456,76,14184,2,0,L|356:85,1,100,2|2,0:0|0:0,0:0:0:0:
256,130,15532,2,0,P|245:81|259:33,1,100,2|2,0:0|0:0,0:0:0:0:
357,85,16865,2,0,P|370:132|360:181,1,100,2|6,0:0|0:0,0:0:0:0:
291,266,18198,5,2,0:0:0:0:
199,204,18879,1,2,0:0:0:0:
108,266,19561,1,2,0:0:0:0:
96,319,19898,2,0,L|86:367,1,50,2|2,0:0|0:0,0:0:0:0:
195,356,20909,5,2,0:0:0:0:
304,346,21583,1,2,0:0:0:0:
413,335,22257,1,2,0:0:0:0:
426,281,22594,2,0,L|436:233,1,50,2|2,0:0|0:0,0:0:0:0:
503,143,23605,6,0,L|381:122,1,100,6|2,0:0|0:0,0:0:0:0:
352,29,24953,2,0,L|230:50,1,100,2|2,0:0|0:0,0:0:0:0:
143,47,26302,2,0,P|166:90|169:140,1,100,2|2,0:0|0:0,0:0:0:0:
60,120,27650,1,2,0:0:0:0:
37,227,28324,2,0,L|51:287,1,50,2|2,0:0|0:0,0:0:0:0:
61,329,28998,6,0,P|104:305|154:303,1,100,2|2,0:0|0:0,0:0:0:0:
256,344,30347,2,0,P|299:367|349:369,1,100,2|2,0:0|0:0,0:0:0:0:
400,349,31358,1,2,0:0:0:0:
443,315,31695,2,0,L|450:204,1,100,6|2,0:0|0:0,0:0:0:0:
459,105,33042,2,0,L|403:85,1,50,2|2,0:0|0:0,0:0:0:0:
359,71,33723,2,0,L|303:91,1,50,2|0,0:0|0:0,0:0:0:0:
262,111,34406,6,0,L|255:210,1,100,2|2,0:0|0:0,0:0:0:0:
182,293,35754,2,0,P|134:305|86:290,1,100,2|2,0:0|0:0,0:0:0:0:
136,191,37102,1,6,0:0:0:0:
71,101,37776,2,0,L|117:82,1,50,2|2,0:0|0:0,0:0:0:0:
168,62,38450,2,0,L|214:80,1,50,2|2,0:0|0:0,0:0:0:0:
263,105,39116,1,2,0:0:0:0:
357,48,39783,5,2,0:0:0:0:
455,97,40457,2,0,L|459:146,1,50,2|2,0:0|0:0,0:0:0:0:
418,183,41131,2,0,L|413:232,1,50,2|2,0:0|0:0,0:0:0:0:
407,287,41805,1,2,0:0:0:0:
298,270,42479,5,2,0:0:0:0:
219,346,43145,2,0,L|157:333,1,50,2|2,0:0|0:0,0:0:0:0:
140,289,43812,2,0,L|78:302,1,50,2|2,0:0|0:0,0:0:0:0:
37,313,44486,1,2,0:0:0:0:
3,206,45160,6,0,P|2:182|8:157,1,50,2|0,0:0|0:0,0:0:0:0:
60,142,45841,2,0,P|71:119|88:101,1,50,2|0,0:0|0:0,0:0:0:0:
139,119,46523,2,0,P|159:105|183:97,1,50,2|0,0:0|0:0,0:0:0:0:
238,96,47205,1,2,0:0:0:0:
221,204,47887,6,0,L|212:253,1,50,2|0,0:0|0:0,0:0:0:0:
159,264,48553,2,0,L|176:310,1,50,2|0,0:0|0:0,0:0:0:0:
197,362,49220,1,2,0:0:0:0:
306,355,49887,2,0,L|355:351,1,50,2|2,0:0|0:0,0:0:0:0:
408,339,50557,6,0,P|414:314|414:289,1,50,2|0,0:0|0:0,0:0:0:0:
459,243,51238,2,0,P|452:219|439:198,1,50,2|0,0:0|0:0,0:0:0:0:
401,158,51920,2,0,B|366:149|366:149|307:175,1,100,2|2,0:0|0:0,0:0:0:0:
230,253,53268,1,6,0:0:0:0:
152,175,53933,1,2,0:0:0:0:
229,97,54600,2,0,L|278:86,1,50,2|2,0:0|0:0,0:0:0:0:
317,47,55274,2,0,L|366:58,1,50,2|0,0:0|0:0,0:0:0:0:
418,75,55946,6,0,L|426:174,1,100,2|2,0:0|0:0,0:0:0:0:
505,251,57294,2,0,L|498:350,1,100,2|2,0:0|0:0,0:0:0:0:
390,372,58642,1,6,0:0:0:0:
297,314,59316,2,0,L|240:303,1,50,2|2,0:0|0:0,0:0:0:0:
209,342,59990,2,0,L|152:353,1,50,2|2,0:0|0:0,0:0:0:0:
107,363,60656,1,2,0:0:0:0:
13,305,61337,6,0,P|2:257|13:209,1,100,2|2,0:0|0:0,0:0:0:0:
38,160,62348,1,2,0:0:0:0:
80,123,62685,2,0,L|147:105,2,50,2|2|2,0:0|0:0|0:0,0:0:0:0:
135,218,64048,6,0,P|184:229|232:218,1,100,2|2,0:0|0:0,0:0:0:0:
282,193,65059,1,2,0:0:0:0:
308,144,65396,2,0,L|300:94,1,50,2|2,0:0|0:0,0:0:0:0:
288,44,66101,2,0,P|267:32|243:25,1,50,2|2,0:0|0:0,0:0:0:0:
158,41,67109,1,2,0:0:0:0:
256,192,67296,12,0,70127,0:0:0:0:
