osu file format v14

[General]
AudioFilename: audio.mp3
AudioLeadIn: 0
PreviewTime:1881
Countdown: 0
SampleSet: Soft
StackLeniency: 0.7
Mode: 0
LetterboxInBreaks: 0
WidescreenStoryboard: 1

[Editor]
DistanceSpacing: 0.4
BeatDivisor: 4
GridSize: 16
TimelineZoom: 1.1

[Metadata]
Title:Moonlike Smile
TitleUnicode:皎洁的笑颜
Artist:Yu-Peng Chen @HOYO-MiX
ArtistUnicode:陈致逸 @HOYO-MiX
Creator:Present
Version:GlazeE's Insane
Source:Genshin Impact
Tags:YuanShen 原神 miHoYo 漩涡、落星与冰山 Vortex of Legends ost original SoundTrack 无垠之白 Frost theme BGM Instrumental Video Game Classic Piano Kobayakawa Sae CoLouRed GlaZeE AngelSnow Muziyami 龙脊雪山 Mountain Soundtrack VGM Music Dragonspine
BeatmapID:3171781
BeatmapSetID:1552230

[Difficulty]
HPDrainRate:5.5
CircleSize:5
OverallDifficulty:7
ApproachRate:8
SliderMultiplier:1.6
SliderTickRate:1

[Events]
//Background and Video events
0,0,"bg.jpg",0,0
//Break Periods
//Storyboard Layer 0 (Background)
//Storyboard Layer 1 (Fail)
//Storyboard Layer 2 (Pass)
//Storyboard Layer 3 (Foreground)
//Storyboard Layer 4 (Overlay)
//Storyboard Sound Samples

[TimingPoints]
2050,674.157303370787,4,2,1,35,1,0
2050,-125,4,2,1,35,0,0
6094,666.666666666667,4,2,1,35,1,0
6760,645.161290322581,4,2,1,35,1,0
7082,722.891566265061,4,2,1,35,1,0
7443,666.666666666667,4,2,1,35,1,0
7443,-125,4,2,1,35,0,0
10109,681.818181818182,4,2,1,35,1,0
10109,-125,4,2,1,35,0,0
12836,674.157303370787,4,2,1,35,1,0
12836,-125,4,2,1,35,0,0
15532,666.666666666667,4,2,1,35,1,0
15532,-125,4,2,1,35,0,0
18198,681.818181818182,4,2,1,35,1,0
18198,-125,4,2,1,35,0,0
19561,674.157303370787,4,2,1,35,1,0
19561,-125,4,2,1,35,0,0
20909,674.157303370787,4,2,1,35,1,0
20909,-125,4,2,1,35,0,0
23605,-100,4,2,1,35,0,0
31695,681.818181818182,4,2,1,35,1,0
32376,666.666666666667,4,2,1,35,1,0
33042,681.818181818182,4,2,1,35,1,0
34406,674.157303370787,4,2,1,35,1,0
38450,666.666666666667,4,2,1,35,1,0
39783,674.157303370787,4,2,1,35,1,0
42479,666.666666666667,4,2,1,35,1,0
43812,674.157303370787,4,2,1,35,1,0
45160,681.818181818182,4,2,1,35,1,0
45160,-83.3333333333333,4,2,1,35,0,1
47720,-83.3333333333333,4,2,1,5,0,1
47887,666.666666666667,4,2,1,35,1,1
47887,-83.3333333333333,4,2,1,35,0,1
49887,670.391061452514,4,2,1,35,1,1
49887,-83.3333333333333,4,2,1,35,0,1
50557,681.818181818183,4,2,1,35,1,1
50557,-83.3333333333333,4,2,1,35,0,1
52602,666.666666666667,4,2,1,35,1,1
52602,-83.3333333333333,4,2,1,35,0,1
53102,-83.3333333333333,4,2,1,35,0,1
53267,666.666666666667,4,2,1,35,1,1
53267,-83.3333333333333,4,2,1,35,0,1
54600,674.157303370787,4,2,1,35,1,1
54600,-83.3333333333333,4,2,1,35,0,1
55946,674.157303370787,4,2,1,35,1,0
58474,-100,4,2,1,5,0,0
58642,-100,4,2,1,35,0,0
59990,666.666666666667,4,2,1,35,1,0
60656,681.818181818182,4,2,1,35,1,0
61337,674.157303370787,4,2,1,35,1,0
62685,689.655172413794,4,2,1,35,1,0
63374,674.157303370787,4,2,1,35,1,0
64048,674.157303370787,4,2,1,35,1,0
65396,705.882352941177,4,2,1,35,1,0
66101,1000,4,2,1,35,1,0
66101,-83.3333333333333,4,2,1,35,0,0
66601,1016.94915254237,4,2,1,45,1,0
67109,750,4,2,1,45,1,0
67484,705.882352941176,4,2,1,45,1,0
67836,779.220779220778,4,2,1,45,1,0
68225,909.090909090908,4,2,1,45,1,0
68679,1132.07547169811,4,2,1,45,1,0
69245,1764.70588235294,4,2,1,45,1,0
70127,-100,4,2,1,25,0,0

[Colours]
Combo1 : 167,184,123
Combo2 : 237,171,159
Combo3 : 147,191,189
Combo4 : 217,185,145
Combo5 : 126,134,171

[HitObjects]
235,226,2050,6,0,L|175:258,1,64,2|0,0:0|0:0,0:0:0:0:
106,291,2724,2,0,L|89:359,1,64,2|0,0:0|0:0,0:0:0:0:
131,197,3398,2,0,L|146:134,1,64,2|0,0:0|0:0,0:0:0:0:
165,58,4072,1,2,0:0:0:0:
371,257,4746,6,0,P|331:265|299:269,1,64,2|0,0:0|0:0,0:0:0:0:
320,177,5420,2,0,P|360:169|392:165,1,64,2|0,0:0|0:0,0:0:0:0:
466,178,6094,1,2,0:0:0:0:
221,236,6760,5,2,0:0:0:0:
260,163,7082,1,2,0:0:0:0:
188,118,7443,2,0,L|197:50,1,64,2|0,0:0|0:0,0:0:0:0:
221,236,8109,2,0,L|212:304,1,64,2|0,0:0|0:0,0:0:0:0:
368,226,8776,2,0,P|329:235|300:239,1,64,2|0,0:0|0:0,0:0:0:0:
142,228,9443,1,2,0:0:0:0:
352,146,10109,6,0,P|359:107|361:67,1,64,6|0,0:0|0:0,0:0:0:0:
232,198,10790,2,0,P|225:237|223:277,1,64,2|0,0:0|0:0,0:0:0:0:
286,321,11472,2,0,P|325:328|365:330,1,64,2|0,0:0|0:0,0:0:0:0:
431,317,12154,1,2,0:0:0:0:
205,349,12836,6,0,P|166:342|126:340,1,64,2|0,0:0|0:0,0:0:0:0:
69,302,13510,2,0,L|29:242,1,64,2|0,0:0|0:0,0:0:0:0:
103,203,14184,2,0,L|79:132,1,64,2|0,0:0|0:0,0:0:0:0:
167,132,14858,2,0,L|153:42,1,64,2|0,0:0|0:0,0:0:0:0:
315,191,15532,5,2,0:0:0:0:
315,191,16198,1,2,0:0:0:0:
388,151,16532,1,0,0:0:0:0:
384,241,16865,1,2,0:0:0:0:
294,237,17198,1,0,0:0:0:0:
298,147,17532,1,6,0:0:0:0:
50,173,18198,6,0,P|95:171|120:166,1,64,2|0,0:0|0:0,0:0:0:0:
183,62,18879,2,0,P|185:107|190:132,1,64,2|2,0:0|0:0,0:0:0:0:
230,201,19561,1,2,0:0:0:0:
181,273,19898,2,0,L|144:279,3,21.3333333333333,2|2|2|2,0:0|0:0|0:0|0:0,0:0:0:0:
241,336,20572,1,0,0:0:0:0:
317,268,20909,6,0,P|352:272|384:272,1,64,2|0,0:0|0:0,0:0:0:0:
357,178,21583,2,0,P|322:174|290:174,1,64,2|2,0:0|0:0,0:0:0:0:
209,206,22257,1,2,0:0:0:0:
129,161,22594,2,0,L|96:156,3,21.3333333333333,2|2|2|2,0:0|0:0|0:0|0:0,0:0:0:0:
202,97,23268,1,0,0:0:0:0:
347,135,23605,6,0,P|378:106|400:68,1,80,2|0,0:0|0:0,0:0:0:0:
482,172,24279,2,0,P|475:220|450:267,1,80,2|0,0:0|0:0,0:0:0:0:
354,291,24953,1,2,0:0:0:0:
263,216,25291,1,0,0:0:0:0:
347,135,25628,2,0,P|365:172|373:212,1,80,2|0,0:0|0:0,0:0:0:0:
211,151,26302,6,0,P|169:145|108:153,1,80,2|0,0:0|0:0,0:0:0:0:
29,173,26976,1,2,0:0:0:0:
180,293,27313,1,0,0:0:0:0:
90,334,27650,2,0,P|85:287|89:246,1,80,2|0,0:0|0:0,0:0:0:0:
192,194,28324,1,2,0:0:0:0:
85,132,28661,1,2,0:0:0:0:
214,44,28998,6,0,P|270:48|312:46,1,80,2|0,0:0|0:0,0:0:0:0:
462,45,29673,2,0,P|406:41|364:43,1,80,2|0,0:0|0:0,0:0:0:0:
275,122,30347,1,2,0:0:0:0:
391,171,30684,1,0,0:0:0:0:
252,247,31021,1,2,0:0:0:0:
412,291,31358,1,2,0:0:0:0:
206,348,31695,5,6,0:0:0:0:
77,267,32035,1,0,0:0:0:0:
217,194,32376,2,0,P|222:138|221:93,1,80,2|0,0:0|0:0,0:0:0:0:
58,82,33042,2,0,P|53:138|54:183,1,80,2|2,0:0|0:0,0:0:0:0:
55,172,33496,1,2,0:0:0:0:
57,182,33610,1,2,0:0:0:0:
59,192,33723,1,2,0:0:0:0:
77,267,34064,1,0,0:0:0:0:
217,295,34406,6,0,P|271:289|324:289,1,80,2|0,0:0|0:0,0:0:0:0:
420,303,35080,1,2,0:0:0:0:
371,187,35417,1,0,0:0:0:0:
354,330,35754,1,2,0:0:0:0:
430,230,36091,1,0,0:0:0:0:
305,218,36428,2,0,P|292:172|274:135,1,80,2|0,0:0|0:0,0:0:0:0:
91,49,37102,6,0,P|135:67|177:77,1,80,6|0,0:0|0:0,0:0:0:0:
272,30,37776,1,2,0:0:0:0:
167,174,38113,1,2,0:0:0:0:
282,158,38450,2,0,L|297:241,1,80,2|2,0:0|0:0,0:0:0:0:
294,247,38894,1,2,0:0:0:0:
291,257,39005,1,2,0:0:0:0:
288,267,39116,1,2,0:0:0:0:
373,283,39450,1,0,0:0:0:0:
251,356,39783,6,0,P|205:354|166:358,1,80,2|0,0:0|0:0,0:0:0:0:
65,272,40457,2,0,P|63:318|67:357,1,80,2|2,0:0|0:0,0:0:0:0:
189,251,41131,2,0,P|191:205|187:166,1,80,2|2,0:0|0:0,0:0:0:0:
187,171,41552,1,2,0:0:0:0:
187,171,41636,1,2,0:0:0:0:
105,189,41805,1,2,0:0:0:0:
85,108,42142,1,0,0:0:0:0:
262,53,42479,6,0,P|218:42|163:40,1,80,2|0,0:0|0:0,0:0:0:0:
351,212,43145,1,2,0:0:0:0:
267,134,43479,1,2,0:0:0:0:
466,58,43812,2,0,P|413:50|370:49,1,80,2|2,0:0|0:0,0:0:0:0:
386,48,44233,1,2,0:0:0:0:
386,48,44317,1,2,0:0:0:0:
308,76,44486,1,2,0:0:0:0:
159,299,45160,5,2,0:0:0:0:
216,191,45500,1,0,0:0:0:0:
427,282,45841,5,2,0:0:0:0:
332,355,46182,1,0,0:0:0:0:
186,119,46523,5,2,0:0:0:0:
308,76,46864,1,0,0:0:0:0:
414,148,47205,2,0,B|400:197|400:197|440:236|423:310,1,143.999995605469,2|0,0:0|0:0,0:0:0:0:
171,355,47887,5,2,0:0:0:0:
293,337,48220,1,0,0:0:0:0:
218,188,48553,1,2,0:0:0:0:
104,252,48887,1,0,0:0:0:0:
134,64,49220,2,0,P|189:56|238:43,1,95.9999970703126,2|0,0:0|0:0,0:0:0:0:
462,240,49887,5,2,0:0:0:0:
411,129,50222,1,2,0:0:0:0:
117,325,50557,5,2,0:0:0:0:
216,349,50897,1,0,0:0:0:0:
125,106,51238,1,2,0:0:0:0:
228,46,51579,1,0,0:0:0:0:
163,197,51920,1,2,0:0:0:0:
475,239,52261,5,0,0:0:0:0:
263,127,52602,2,0,B|235:119|206:129|206:129|160:95|100:110,1,143.999995605469,2|0,0:0|0:0,0:0:0:0:
67,244,53267,5,6,0:0:0:0:
244,314,53600,1,0,0:0:0:0:
482,50,53933,5,2,0:0:0:0:
357,351,54267,1,0,0:0:0:0:
143,138,54600,5,2,0:0:0:0:
251,225,54938,1,2,0:0:0:0:
251,225,55049,1,2,0:0:0:0:
251,225,55160,1,2,0:0:0:0:
251,225,55274,1,2,0:0:0:0:
354,142,55611,1,0,0:0:0:0:
476,306,55946,6,0,P|485:263|478:221,1,80,2|0,0:0|0:0,0:0:0:0:
384,281,56620,2,0,P|330:285|291:292,1,80,2|0,0:0|0:0,0:0:0:0:
208,298,57294,2,0,P|156:288|128:273,1,80,2|0,0:0|0:0,0:0:0:0:
168,85,57968,2,0,P|188:140|182:208,1,120,2|0,0:0|0:0,0:0:0:0:
118,210,58642,6,0,P|108:167|115:119,1,80,6|0,0:0|0:0,0:0:0:0:
318,256,59316,1,2,0:0:0:0:
239,309,59653,1,2,0:0:0:0:
259,183,59990,2,0,P|305:188|350:186,1,80,2|2,0:0|0:0,0:0:0:0:
350,185,60434,1,2,0:0:0:0:
361,183,60545,1,2,0:0:0:0:
372,181,60656,1,2,0:0:0:0:
456,206,60996,1,0,0:0:0:0:
347,317,61337,5,2,0:0:0:0:
260,279,61674,1,0,0:0:0:0:
177,314,62011,2,0,P|138:320|95:315,1,80,2|2,0:0|0:0,0:0:0:0:
58,199,62685,2,0,P|97:193|140:198,1,80,2|2,0:0|0:0,0:0:0:0:
147,200,63144,1,2,0:0:0:0:
157,203,63259,1,2,0:0:0:0:
167,206,63374,1,2,0:0:0:0:
246,177,63711,1,0,0:0:0:0:
379,124,64048,6,0,P|381:161|397:207,1,80,2|0,0:0|0:0,0:0:0:0:
453,267,64722,2,0,P|413:284|361:288,1,80,2|2,0:0|0:0,0:0:0:0:
288,268,65396,2,0,L|193:248,1,80,2|2,0:0|0:0,0:0:0:0:
209,251,65837,1,2,0:0:0:0:
209,251,65925,1,2,0:0:0:0:
151,199,66101,2,0,L|138:102,1,95.9999970703126,2|2,0:0|0:0,0:0:0:0:
346,29,67109,6,0,L|313:106,1,80,2|0,0:0|0:0,0:0:0:0:
400,121,67836,6,0,L|386:203,1,80,2|0,0:0|0:0,0:0:0:0:
471,200,68679,6,0,L|486:279,1,80,2|0,0:0|0:0,0:0:0:0:
486,279,70127,5,0,0:0:0:0:
