osu file format v14

[General]
AudioFilename: audio.mp3
AudioLeadIn: 0
PreviewTime:1881
Countdown: 0
SampleSet: Soft
StackLeniency: 0.7
Mode: 0
LetterboxInBreaks: 0
WidescreenStoryboard: 1

[Editor]
DistanceSpacing: 1
BeatDivisor: 4
GridSize: 16
TimelineZoom: 0.4999999

[Metadata]
Title:Moonlike Smile
TitleUnicode:皎洁的笑颜
Artist:Yu-Peng Chen @HOYO-MiX
ArtistUnicode:陈致逸 @HOYO-MiX
Creator:Present
Version:Easy
Source:Genshin Impact
Tags:YuanShen 原神 miHoYo 漩涡、落星与冰山 Vortex of Legends ost original SoundTrack 无垠之白 Frost theme BGM Instrumental Video Game Classic Piano Kobayakawa Sae CoLouRed GlaZeE AngelSnow Muziyami 龙脊雪山 Mountain Soundtrack VGM Music Dragonspine
BeatmapID:3171863
BeatmapSetID:1552230

[Difficulty]
HPDrainRate:1.5
CircleSize:2.5
OverallDifficulty:3
ApproachRate:4
SliderMultiplier:0.9
SliderTickRate:1

[Events]
//Background and Video events
0,0,"90413882_p0.jpg",0,0
//Break Periods
//Storyboard Layer 0 (Background)
//Storyboard Layer 1 (Fail)
//Storyboard Layer 2 (Pass)
//Storyboard Layer 3 (Foreground)
//Storyboard Layer 4 (Overlay)
//Storyboard Sound Samples

[TimingPoints]
2050,674.157303370787,4,2,1,35,1,0
2050,-100,4,2,1,35,0,0
6094,666.666666666667,4,2,1,35,1,0
6760,645.161290322581,4,2,1,35,1,0
7082,722.891566265061,4,2,1,35,1,0
7443,666.666666666667,4,2,1,35,1,0
7443,-100,4,2,1,35,0,0
10109,681.818181818182,4,2,1,35,1,0
10109,-100,4,2,1,35,0,0
12836,674.157303370787,4,2,1,35,1,0
12836,-100,4,2,1,35,0,0
15532,666.666666666667,4,2,1,35,1,0
15532,-100,4,2,1,35,0,0
18198,681.818181818182,4,2,1,35,1,0
18198,-100,4,2,1,35,0,0
19561,674.157303370787,4,2,1,35,1,0
19561,-100,4,2,1,35,0,0
20909,674.157303370787,4,2,1,35,1,0
20909,-100,4,2,1,35,0,0
23605,-100,4,2,1,35,0,0
31695,681.818181818182,4,2,1,35,1,0
32376,666.666666666667,4,2,1,35,1,0
33042,681.818181818182,4,2,1,35,1,0
34406,674.157303370787,4,2,1,35,1,0
38450,666.666666666667,4,2,1,35,1,0
39783,674.157303370787,4,2,1,35,1,0
42479,666.666666666667,4,2,1,35,1,0
43812,674.157303370787,4,2,1,35,1,0
45160,681.818181818182,4,2,1,35,1,0
45160,-100,4,2,1,35,0,1
47887,666.666666666667,4,2,1,35,1,1
47887,-100,4,2,1,35,0,1
49887,670.391061452514,4,2,1,35,1,1
50557,681.818181818183,4,2,1,35,1,1
52602,666.666666666667,4,2,1,35,1,1
53267,666.666666666667,4,2,1,35,1,1
53280,-100,4,2,1,35,0,1
54600,674.157303370787,4,2,1,35,1,1
55946,674.157303370787,4,2,1,35,1,0
58642,-100,4,2,1,35,0,0
59990,666.666666666667,4,2,1,35,1,0
60656,681.818181818182,4,2,1,35,1,0
61337,674.157303370787,4,2,1,35,1,0
62685,689.655172413794,4,2,1,35,1,0
63374,674.157303370787,4,2,1,35,1,0
64048,674.157303370787,4,2,1,35,1,0
65396,705.882352941177,4,2,1,35,1,0
66101,1000,4,2,1,35,1,0
66101,-100,4,2,1,35,0,0
66601,1016.94915254237,4,2,1,45,1,0
67109,750,4,2,1,45,1,0
67484,705.882352941176,4,2,1,45,1,0
67836,779.220779220778,4,2,1,45,1,0
68225,909.090909090908,4,2,1,45,1,0
68679,1132.07547169811,4,2,1,45,1,0
69245,1764.70588235294,4,2,1,45,1,0
70127,-100,4,2,1,25,0,0

[Colours]
Combo1 : 167,184,123
Combo2 : 237,171,159
Combo3 : 147,191,189
Combo4 : 217,185,145
Combo5 : 126,134,171

[HitObjects]
64,55,2050,6,0,L|56:147,1,90,2|2,0:0|0:0,0:0:0:0:
115,212,3398,2,0,L|107:304,1,90,2|2,0:0|0:0,0:0:0:0:
179,355,4746,2,0,P|221:366|278:354,2,90,2|2|2,0:0|0:0|0:0,0:0:0:0:
228,279,6760,2,0,P|254:264|270:261,1,45,2|2,0:0|0:0,0:0:0:0:
314,271,7443,6,0,L|406:284,1,90,2|2,0:0|0:0,0:0:0:0:
442,202,8776,2,0,L|350:189,1,90,2|2,0:0|0:0,0:0:0:0:
278,141,10109,2,0,P|267:99|279:42,2,90,6|2|2,0:0|0:0|0:0,0:0:0:0:
356,96,12154,1,2,0:0:0:0:
352,189,12836,6,0,L|339:281,1,90,2|2,0:0|0:0,0:0:0:0:
255,310,14184,2,0,L|242:218,1,90,2|2,0:0|0:0,0:0:0:0:
175,158,15532,2,0,P|128:165|87:148,1,90,2|2,0:0|0:0,0:0:0:0:
138,74,16865,1,2,0:0:0:0:
225,51,17532,1,6,0:0:0:0:
277,121,18198,6,0,L|372:111,2,90,2|2|2,0:0|0:0|0:0,0:0:0:0:
208,179,20235,1,2,0:0:0:0:
285,223,20909,2,0,L|295:318,2,90,2|2|2,0:0|0:0|0:0,0:0:0:0:
208,179,22931,1,2,0:0:0:0:
152,249,23605,6,0,P|105:250|63:229,1,90,6|2,0:0|0:0,0:0:0:0:
34,148,24953,2,0,P|55:106|94:81,1,90,2|2,0:0|0:0,0:0:0:0:
180,97,26302,2,0,P|204:136|207:182,2,90,2|2|2,0:0|0:0|0:0,0:0:0:0:
91,79,28324,2,0,P|96:55|111:33,1,45,2|2,0:0|0:0,0:0:0:0:
141,8,28998,6,0,L|235:20,1,90,2|2,0:0|0:0,0:0:0:0:
286,89,30347,1,2,0:0:0:0:
361,40,31021,1,2,0:0:0:0:
421,107,31695,2,0,P|438:147|437:204,1,90,6|2,0:0|0:0,0:0:0:0:
367,243,33042,2,0,L|303:240,2,45,2|2|2,0:0|0:0|0:0,0:0:0:0:
439,298,34406,5,2,0:0:0:0:
373,359,35080,1,2,0:0:0:0:
289,324,35754,2,0,L|178:320,1,90,2|2,0:0|0:0,0:0:0:0:
120,364,37102,2,0,P|110:321|120:277,1,90,6|2,0:0|0:0,0:0:0:0:
85,192,38450,2,0,L|35:203,2,45,2|2|2,0:0|0:0|0:0,0:0:0:0:
166,156,39783,5,2,0:0:0:0:
149,67,40457,1,2,0:0:0:0:
66,31,41131,2,0,P|36:72|37:118,1,90,2|2,0:0|0:0,0:0:0:0:
117,145,42479,2,0,P|147:104|146:58,1,90,2|2,0:0|0:0,0:0:0:0:
233,39,43812,2,0,L|279:47,2,45,2|2|2,0:0|0:0|0:0,0:0:0:0:
148,66,45160,6,0,P|144:110|117:145,1,90,2|2,0:0|0:0,0:0:0:0:
166,220,46523,2,0,L|254:205,1,90,2|2,0:0|0:0,0:0:0:0:
328,257,47887,2,0,P|331:301|359:335,2,90,2|2|2,0:0|0:0|0:0,0:0:0:0:
391,193,49887,2,0,P|416:186|444:189,1,45,2|2,0:0|0:0,0:0:0:0:
451,145,50557,6,0,L|437:57,1,90,2|2,0:0|0:0,0:0:0:0:
354,20,51920,2,0,P|311:38|266:34,1,90,2|2,0:0|0:0,0:0:0:0:
182,63,53268,2,0,B|183:98|183:98|190:118|190:118|193:157,1,90,6|2,0:0|0:0,0:0:0:0:
122,206,54600,2,0,L|74:211,2,45,2|2|2,0:0|0:0|0:0,0:0:0:0:
202,243,55946,6,0,P|262:275|372:250,1,180,2|2,0:0|0:0,0:0:0:0:
420,180,57968,1,2,0:0:0:0:
385,96,58642,2,0,L|296:113,1,90,6|2,0:0|0:0,0:0:0:0:
216,69,59990,2,0,L|212:17,2,45,2|2|2,0:0|0:0|0:0,0:0:0:0:
151,133,61337,6,0,L|142:234,1,90,2|2,0:0|0:0,0:0:0:0:
133,310,62685,1,2,0:0:0:0:
212,356,63374,1,2,0:0:0:0:
270,287,64048,2,0,P|327:269|360:276,1,90,2|2,0:0|0:0,0:0:0:0:
416,335,65396,2,0,P|473:353|506:346,1,90,2|2,0:0|0:0,0:0:0:0:
476,229,67109,5,2,0:0:0:0:
256,192,67484,12,0,70127,0:0:0:0:
