osu file format v14

[General]
AudioFilename: audio.mp3
AudioLeadIn: 0
PreviewTime: 49758
Countdown: 0
SampleSet: Normal
StackLeniency: 0.7
Mode: 1
LetterboxInBreaks: 0
WidescreenStoryboard: 0

[Editor]
Bookmarks: 23268,42417,50077,69226
DistanceSpacing: 0.7
BeatDivisor: 4
GridSize: 32
TimelineZoom: 2.499999

[Metadata]
Title:Letter From Ajax
TitleUnicode:埃阿斯的回信
Artist:Yu-Peng Chen @HOYO-MiX
ArtistUnicode:陈致逸 @HOYO-MiX
Creator:Minion24
Version:Oni
Source:Genshin Impact
Tags:mihoyo hoyoverse rock instrumental tartaglia childe the stellar moments アヤックスからの返信 タルタリヤ Ayakkusu kara no henshin 原神 yuanshen 达达利亚 原神-闪耀的群星 character ost video game soundtrack theme ai a si de huixin
BeatmapID:2933933
BeatmapSetID:1424705

[Difficulty]
HPDrainRate:5
CircleSize:5
OverallDifficulty:6
ApproachRate:5
SliderMultiplier:1.4
SliderTickRate:1

[Events]
//Background and Video events
0,0,"tartaglia the archon of reruns.jpg",0,-20
//Break Periods
//Storyboard Layer 0 (Background)
//Storyboard Layer 1 (Fail)
//Storyboard Layer 2 (Pass)
//Storyboard Layer 3 (Foreground)
//Storyboard Layer 4 (Overlay)
//Storyboard Sound Samples

[TimingPoints]
348,319.148936170213,3,1,0,40,1,0
15587,-100,3,1,0,50,0,0
15667,-100,3,1,0,50,0,0
15986,-99.352026085868,3,1,0,50,0,0
16145,-99.0311779857653,3,1,0,50,0,0
16305,-98.7124929543958,3,1,0,50,0,0
16465,-98.3957556006864,3,1,0,50,0,0
16624,-98.0810443669604,3,1,0,50,0,0
16943,-97.4576229890838,3,1,0,50,0,0
17103,-97.1488748217318,3,1,0,50,0,0
17422,-96.5372102676977,3,1,0,50,0,0
17502,-96.3855421686747,3,1,0,50,0,0
17582,-96.2343498888493,3,1,0,50,0,0
17741,-95.9332918261957,3,1,0,50,0,0
17901,-95.634111539977,3,1,0,50,0,0
18060,-95.3367915165509,3,1,0,50,0,0
18220,-95.0413144593955,3,1,0,50,0,0
18539,-94.4558211233442,3,1,0,50,0,0
18699,-94.1657713071245,3,1,0,50,0,0
18858,-93.8775855060518,3,1,0,50,0,0
19018,-93.5910706631302,3,1,0,50,0,0
19177,-93.3062993881906,3,1,0,50,0,0
19496,-92.7419242650898,3,1,0,50,0,0
19656,-92.4622892553272,3,1,0,50,0,0
19816,-92.1843354846084,3,1,0,50,0,0
19975,-91.9081323072709,3,1,0,50,0,0
20135,-91.6334953413531,3,1,0,50,0,0
20454,-91.0891161258706,3,1,0,50,0,0
20534,-90.9539891055312,3,1,0,50,0,0
20613,-90.8193448837376,3,1,0,50,0,0
20773,-90.5511668423359,3,1,0,50,0,0
21092,-90.0195342389299,3,1,0,50,0,0
21172,-89.8876404494382,3,1,0,50,0,0
21252,-89.7561325877591,3,1,0,50,0,0
21411,-89.4941877999733,3,1,0,50,0,0
21571,-89.2337674853567,3,1,0,50,0,0
21730,-88.9748583742692,3,1,0,50,0,0
21890,-88.7174473506309,3,1,0,50,0,0
22050,-88.4615214497074,3,1,0,50,0,0
22369,-87.954073900772,3,1,0,50,0,0
22449,-87.8281589373495,3,1,0,50,0,0
22528,-87.7026039780147,3,1,0,50,0,0
22688,-87.4524914340285,3,1,0,50,0,0
22848,-87.2038013881101,3,1,0,50,0,0
23007,-86.9565217391304,3,1,0,50,0,0
23246,-100,3,1,0,85,0,0
26189,-97.0873786407767,3,1,0,85,0,0
26268,-94.3396226415094,3,1,0,85,0,0
26348,-91.743119266055,3,1,0,85,0,0
26428,-89.2857142857143,3,1,0,85,0,0
26508,-86.9565217391304,3,1,0,85,0,0
27146,-74.0740740740741,3,1,0,85,0,0
27465,-100,3,1,0,85,0,0
34806,-95.2380952380952,3,1,0,85,0,0
34885,-100,3,1,0,85,0,0
35763,-92.5925925925926,3,1,0,85,0,0
35843,-100,3,1,0,85,0,0
36720,-90.0900900900901,3,1,0,85,0,0
36800,-100,3,1,0,85,0,0
37678,-87.719298245614,3,1,0,85,0,0
37758,-100,3,1,0,85,0,0
38635,-85.4700854700855,3,1,0,85,0,0
38715,-100,3,1,0,85,0,0
39593,-83.3333333333333,3,1,0,85,0,0
39673,-100,3,1,0,85,0,0
40550,-81.3008130081301,3,1,0,85,0,0
40630,-100,3,1,0,85,0,0
42395,-100,3,1,0,70,0,0
48210,-98.0392156862745,3,1,0,70,0,0
48369,-96.1538461538461,3,1,0,70,0,0
48449,-94.3396226415094,3,1,0,70,0,0
48529,-92.5925925925926,3,1,0,70,0,0
48689,-90.9090909090909,3,1,0,70,0,0
48768,-89.2857142857143,3,1,0,70,0,0
48848,-87.719298245614,3,1,0,70,0,0
49008,-86.2068965517241,3,1,0,70,0,0
49088,-84.7457627118644,3,1,0,70,0,0
49167,-83.3333333333333,3,1,0,70,0,0
49247,-81.9672131147541,3,1,0,70,0,0
49327,-80.6451612903226,3,1,0,70,0,0
49736,-90.9090909090909,3,1,0,85,0,0
49885,-86.9565217391304,3,1,0,85,0,0
49965,-83.3333333333333,3,1,0,85,0,0
50045,-80,3,1,0,85,0,0
50135,-76.9230769230769,3,1,0,85,0,1
50444,-90.9090909090909,3,1,0,85,0,1
50933,-85.4700854700855,3,1,0,85,0,1
51012,-80.6451612903226,3,1,0,85,0,1
51092,-76.9230769230769,3,1,0,85,0,1
51172,-90.9090909090909,3,1,0,85,0,1
52040,-76.9230769230769,3,1,0,85,0,1
52119,-90.9090909090909,3,1,0,85,0,1
52848,-85.4700854700855,3,1,0,85,0,1
52927,-80.6451612903226,3,1,0,85,0,1
53007,-76.9230769230769,3,1,0,85,0,1
53087,-90.9090909090909,3,1,0,85,0,1
53955,-76.9230769230769,3,1,0,85,0,1
54044,-92.5925925925926,3,1,0,85,0,1
54124,-94.3396226415094,3,1,0,85,0,1
54204,-96.1538461538461,3,1,0,85,0,1
54274,-98.0392156862745,3,1,0,85,0,1
54433,-100,3,1,0,85,0,1
57465,-96.8054211035818,3,1,0,85,0,1
57625,-93.8086303939962,3,1,0,85,0,1
57784,-76.9230769230769,3,1,0,85,0,1
58103,-90.9090909090909,3,1,0,85,0,1
58742,-76.9230769230769,3,1,0,85,0,1
58822,-90.9090909090909,3,1,0,85,0,1
59540,-85.4700854700855,3,1,0,85,0,1
59619,-80.6451612903226,3,1,0,85,0,1
59699,-76.9230769230769,3,1,0,85,0,1
59780,-90.9090909090909,3,1,0,85,0,1
60507,-85.4700854700855,3,1,0,85,0,1
60587,-80.6451612903226,3,1,0,85,0,1
60667,-76.9230769230769,3,1,0,85,0,1
60746,-90.9090909090909,3,1,0,85,0,1
61624,-76.9230769230769,3,1,0,85,0,1
61704,-90.9090909090909,3,1,0,85,0,1
63210,-93.0232558139535,3,1,0,85,0,1
63369,-95.2380952380952,3,1,0,85,0,1
63449,-97.5609756097561,3,1,0,85,0,1
63529,-100,3,1,0,85,0,1
65284,-98.0392156862745,3,1,0,85,0,1
65364,-96.1538461538461,3,1,0,85,0,1
65444,-94.3396226415094,3,1,0,85,0,1
65603,-92.5925925925926,3,1,0,85,0,1
65683,-90.9090909090909,3,1,0,85,0,1
65763,-89.2857142857143,3,1,0,85,0,1
65923,-87.719298245614,3,1,0,85,0,1
66082,-86.2068965517241,3,1,0,85,0,1
66162,-84.7457627118644,3,1,0,85,0,1
66242,-83.3333333333333,3,1,0,85,0,1
66401,-81.9672131147541,3,1,0,85,0,1
66481,-80.6451612903226,3,1,0,85,0,1
66561,-79.3650793650794,3,1,0,85,0,1
66641,-78.125,3,1,0,85,0,1
66720,-76.9230769230769,3,1,0,85,0,1
66880,-75.7575757575758,3,1,0,85,0,1
67040,-74.6268656716418,3,1,0,85,0,1
67119,-73.5294117647059,3,1,0,85,0,1
67199,-72.463768115942,3,1,0,85,0,1
67289,-71.4285714285714,3,1,0,85,0,1
67369,-68.9655172413793,3,1,0,85,0,0
68316,-83.3333333333333,3,1,0,85,0,0
69204,-100,3,1,0,50,0,0
84523,-100,3,1,0,40,0,0
87804,357.142857142857,3,1,0,40,1,8
87804,-89.3617021276596,3,1,0,40,0,8
87971,394.736842105263,3,1,0,40,1,8
87971,-80.8510638297873,3,1,0,40,0,8
88167,461.538461538462,3,1,0,40,1,8
88167,-69.1489361702127,3,1,0,40,0,8

[HitObjects]
480,224,348,5,8,0:0:0:0:
480,224,667,1,8,0:0:0:0:
480,224,826,1,8,0:0:0:0:
480,224,986,1,0,0:0:0:0:
480,224,1145,1,8,0:0:0:0:
480,224,1305,1,8,0:0:0:0:
480,224,1624,1,8,0:0:0:0:
480,224,1784,1,0,0:0:0:0:
480,224,2103,1,0,0:0:0:0:
480,224,2262,1,8,0:0:0:0:
480,224,2582,1,8,0:0:0:0:
480,224,2741,1,8,0:0:0:0:
480,224,2901,1,0,0:0:0:0:
480,224,3220,1,8,0:0:0:0:
480,224,3379,1,0,0:0:0:0:
480,224,3539,1,0,0:0:0:0:
480,224,3699,1,8,0:0:0:0:
480,224,3858,1,8,0:0:0:0:
480,224,4177,1,8,0:0:0:0:
480,224,4496,1,8,0:0:0:0:
480,224,4656,1,8,0:0:0:0:
480,224,4816,1,0,0:0:0:0:
480,224,4975,1,0,0:0:0:0:
480,224,5135,1,8,0:0:0:0:
480,224,5454,1,8,0:0:0:0:
480,224,5613,1,0,0:0:0:0:
480,224,5933,1,0,0:0:0:0:
480,224,6092,1,8,0:0:0:0:
480,224,6411,1,8,0:0:0:0:
480,224,6571,1,0,0:0:0:0:
480,224,6730,1,0,0:0:0:0:
480,224,7050,1,8,0:0:0:0:
480,224,7209,1,8,0:0:0:0:
480,224,7369,1,0,0:0:0:0:
480,224,7528,1,8,0:0:0:0:
480,224,7688,1,8,0:0:0:0:
480,224,8007,1,8,0:0:0:0:
480,224,8326,1,8,0:0:0:0:
480,224,8486,1,0,0:0:0:0:
480,224,8645,1,0,0:0:0:0:
480,224,8805,1,8,0:0:0:0:
480,224,8965,1,8,0:0:0:0:
480,224,9284,1,8,0:0:0:0:
480,224,9443,1,0,0:0:0:0:
480,224,9762,1,0,0:0:0:0:
480,224,9922,1,8,0:0:0:0:
480,224,10241,1,8,0:0:0:0:
480,224,10401,1,8,0:0:0:0:
480,224,10560,1,0,0:0:0:0:
480,224,10879,1,8,0:0:0:0:
480,224,11039,1,0,0:0:0:0:
480,224,11199,1,8,0:0:0:0:
480,224,11358,1,0,0:0:0:0:
480,224,11518,1,8,0:0:0:0:
480,224,11837,1,8,0:0:0:0:
480,224,12156,1,8,0:0:0:0:
480,224,12316,1,8,0:0:0:0:
480,224,12475,1,0,0:0:0:0:
480,224,12635,1,0,0:0:0:0:
480,224,12794,1,8,0:0:0:0:
480,224,13113,1,8,0:0:0:0:
480,224,13273,1,0,0:0:0:0:
480,224,13592,1,0,0:0:0:0:
480,224,13752,1,8,0:0:0:0:
480,224,14071,1,8,0:0:0:0:
480,224,14230,1,8,0:0:0:0:
480,224,14390,1,0,0:0:0:0:
480,224,14709,1,8,0:0:0:0:
480,224,14869,1,0,0:0:0:0:
480,224,15028,1,0,0:0:0:0:
480,224,15188,1,0,0:0:0:0:
480,224,15348,1,8,0:0:0:0:
480,224,15667,1,8,0:0:0:0:
480,224,15986,1,8,0:0:0:0:
480,224,16145,1,8,0:0:0:0:
480,224,16305,1,0,0:0:0:0:
480,224,16465,1,8,0:0:0:0:
480,224,16624,1,8,0:0:0:0:
480,224,16943,1,8,0:0:0:0:
480,224,17103,1,0,0:0:0:0:
480,224,17422,1,8,0:0:0:0:
480,224,17502,1,8,0:0:0:0:
480,224,17582,1,8,0:0:0:0:
480,224,17741,1,0,0:0:0:0:
480,224,17901,1,8,0:0:0:0:
480,224,18060,1,8,0:0:0:0:
480,224,18220,1,0,0:0:0:0:
480,224,18539,1,8,0:0:0:0:
480,224,18699,1,0,0:0:0:0:
480,224,18858,1,8,0:0:0:0:
480,224,19018,1,0,0:0:0:0:
480,224,19177,1,8,0:0:0:0:
480,224,19496,1,0,0:0:0:0:
480,224,19656,1,0,0:0:0:0:
480,224,19816,1,8,0:0:0:0:
480,224,19975,1,0,0:0:0:0:
480,224,20135,1,8,0:0:0:0:
480,224,20454,1,0,0:0:0:0:
480,224,20534,1,0,0:0:0:0:
480,224,20613,1,8,0:0:0:0:
480,224,20773,1,8,0:0:0:0:
480,224,21092,1,0,0:0:0:0:
480,224,21172,1,0,0:0:0:0:
480,224,21252,1,8,0:0:0:0:
480,224,21411,1,0,0:0:0:0:
480,224,21571,1,0,0:0:0:0:
480,224,21730,1,8,0:0:0:0:
480,224,21890,1,0,0:0:0:0:
480,224,22050,1,0,0:0:0:0:
480,224,22369,1,8,0:0:0:0:
480,224,22449,1,0,0:0:0:0:
480,224,22528,1,0,0:0:0:0:
480,224,22688,1,0,0:0:0:0:
480,224,22848,1,8,0:0:0:0:
480,224,23007,1,8,0:0:0:0:
480,224,23326,1,0,0:0:0:0:
480,224,23486,1,0,0:0:0:0:
480,224,23566,1,0,0:0:0:0:
480,224,23645,1,8,0:0:0:0:
480,224,23805,1,0,0:0:0:0:
480,224,23965,1,8,0:0:0:0:
480,224,24124,1,0,0:0:0:0:
480,224,24284,1,0,0:0:0:0:
480,224,24443,1,8,0:0:0:0:
480,224,24523,1,8,0:0:0:0:
480,224,24603,1,8,0:0:0:0:
480,224,24762,1,0,0:0:0:0:
480,224,24922,1,8,0:0:0:0:
480,224,25082,1,0,0:0:0:0:
480,224,25241,1,0,0:0:0:0:
480,224,25401,1,0,0:0:0:0:
480,224,25480,1,0,0:0:0:0:
480,224,25560,1,8,0:0:0:0:
480,224,25720,1,0,0:0:0:0:
480,224,25879,1,8,0:0:0:0:
480,224,25959,1,0,0:0:0:0:
480,224,26039,1,8,0:0:0:0:
480,224,26199,1,0,0:0:0:0:
480,224,26278,1,0,0:0:0:0:
480,224,26358,1,0,0:0:0:0:
480,224,26438,1,0,0:0:0:0:
480,224,26518,1,8,0:0:0:0:
480,160,27156,1,4,0:0:0:0:
480,224,27475,1,0,0:0:0:0:
480,224,27635,1,8,0:0:0:0:
480,224,27794,1,8,0:0:0:0:
480,224,27874,1,8,0:0:0:0:
480,224,27954,1,0,0:0:0:0:
480,224,28113,1,8,0:0:0:0:
480,224,28273,1,0,0:0:0:0:
480,224,28353,1,0,0:0:0:0:
480,224,28433,1,8,0:0:0:0:
480,224,28592,1,0,0:0:0:0:
480,224,28752,1,8,0:0:0:0:
480,224,28911,1,0,0:0:0:0:
480,224,28991,1,0,0:0:0:0:
480,224,29071,1,8,0:0:0:0:
480,224,29390,1,8,0:0:0:0:
480,224,29470,1,0,0:0:0:0:
480,224,29550,1,8,0:0:0:0:
480,224,29709,1,8,0:0:0:0:
480,224,29789,1,8,0:0:0:0:
480,224,29869,1,0,0:0:0:0:
480,224,30028,1,8,0:0:0:0:
480,224,30188,1,0,0:0:0:0:
480,224,30348,1,8,0:0:0:0:
480,224,30507,1,0,0:0:0:0:
480,224,30587,1,0,0:0:0:0:
480,224,30667,1,8,0:0:0:0:
480,224,30986,1,8,0:0:0:0:
480,224,31145,1,0,0:0:0:0:
480,224,31305,1,8,0:0:0:0:
480,224,31465,1,8,0:0:0:0:
480,224,31624,1,0,0:0:0:0:
480,224,31784,1,0,0:0:0:0:
480,224,31863,1,0,0:0:0:0:
480,224,31943,1,8,0:0:0:0:
480,224,32103,1,0,0:0:0:0:
480,224,32262,1,8,0:0:0:0:
480,224,32342,1,0,0:0:0:0:
480,224,32422,1,8,0:0:0:0:
480,224,32582,1,0,0:0:0:0:
480,224,32741,1,0,0:0:0:0:
480,224,32821,1,0,0:0:0:0:
480,224,32901,1,8,0:0:0:0:
480,224,33220,1,8,0:0:0:0:
480,224,33379,1,8,0:0:0:0:
480,224,33539,1,0,0:0:0:0:
480,224,33699,1,0,0:0:0:0:
480,224,33778,1,0,0:0:0:0:
480,224,33858,1,8,0:0:0:0:
480,224,34018,1,8,0:0:0:0:
480,224,34098,1,0,0:0:0:0:
480,224,34177,1,8,0:0:0:0:
480,224,34337,1,0,0:0:0:0:
480,224,34417,1,0,0:0:0:0:
480,224,34496,1,8,0:0:0:0:
480,224,34576,1,0,0:0:0:0:
480,224,34656,1,8,0:0:0:0:
480,160,34816,1,4,0:0:0:0:
480,224,35135,1,0,0:0:0:0:
480,224,35294,1,8,0:0:0:0:
480,224,35454,1,0,0:0:0:0:
480,224,35534,1,0,0:0:0:0:
480,224,35613,1,8,0:0:0:0:
480,160,35773,1,4,0:0:0:0:
480,224,36092,1,8,0:0:0:0:
480,224,36172,1,8,0:0:0:0:
480,224,36252,1,0,0:0:0:0:
480,224,36411,1,8,0:0:0:0:
480,224,36571,1,0,0:0:0:0:
480,160,36730,1,12,0:0:0:0:
480,224,37050,1,8,0:0:0:0:
480,224,37129,1,0,0:0:0:0:
480,224,37209,1,0,0:0:0:0:
480,224,37289,1,0,0:0:0:0:
480,224,37369,1,8,0:0:0:0:
480,224,37528,1,0,0:0:0:0:
480,160,37688,1,12,0:0:0:0:
480,224,38007,1,8,0:0:0:0:
480,224,38087,1,8,0:0:0:0:
480,224,38167,1,0,0:0:0:0:
480,224,38326,1,8,0:0:0:0:
480,224,38406,1,0,0:0:0:0:
480,224,38486,1,0,0:0:0:0:
480,160,38645,1,12,0:0:0:0:
480,224,38965,1,0,0:0:0:0:
480,224,39124,1,8,0:0:0:0:
480,224,39284,1,0,0:0:0:0:
480,224,39363,1,0,0:0:0:0:
480,224,39443,1,0,0:0:0:0:
480,160,39603,1,12,0:0:0:0:
480,224,39762,1,0,0:0:0:0:
480,224,39922,1,8,0:0:0:0:
480,224,40002,1,0,0:0:0:0:
480,224,40082,1,8,0:0:0:0:
480,224,40241,1,0,0:0:0:0:
480,224,40401,1,0,0:0:0:0:
480,160,40560,1,12,0:0:0:0:
480,224,40720,1,8,0:0:0:0:
480,224,40800,1,0,0:0:0:0:
480,224,40879,1,8,0:0:0:0:
480,224,41039,1,8,0:0:0:0:
480,224,41119,1,8,0:0:0:0:
480,224,41199,1,0,0:0:0:0:
480,224,41278,1,0,0:0:0:0:
480,224,41358,1,8,0:0:0:0:
480,224,41518,1,0,0:0:0:0:
480,224,41677,1,8,0:0:0:0:
480,224,41757,1,0,0:0:0:0:
480,224,41837,1,8,0:0:0:0:
480,224,41917,1,0,0:0:0:0:
480,224,41996,1,0,0:0:0:0:
480,224,42156,1,8,0:0:0:0:
480,224,42236,1,8,0:0:0:0:
480,224,42316,1,0,0:0:0:0:
480,224,42475,1,0,0:0:0:0:
480,224,42794,1,0,0:0:0:0:
480,224,42954,1,8,0:0:0:0:
480,224,43113,1,0,0:0:0:0:
480,224,43193,1,0,0:0:0:0:
480,224,43273,1,8,0:0:0:0:
480,224,43433,1,0,0:0:0:0:
480,224,43752,1,0,0:0:0:0:
480,224,43911,1,8,0:0:0:0:
480,224,43991,1,0,0:0:0:0:
480,224,44071,1,8,0:0:0:0:
480,224,44230,1,8,0:0:0:0:
480,224,44390,1,0,0:0:0:0:
480,224,44709,1,0,0:0:0:0:
480,224,44869,1,8,0:0:0:0:
480,224,44949,1,0,0:0:0:0:
480,224,45028,1,0,0:0:0:0:
480,224,45188,1,8,0:0:0:0:
480,224,45348,1,0,0:0:0:0:
480,224,45507,1,0,0:0:0:0:
480,224,45587,1,0,0:0:0:0:
480,224,45667,1,8,0:0:0:0:
480,224,45826,1,8,0:0:0:0:
480,224,45906,1,0,0:0:0:0:
480,224,45986,1,8,0:0:0:0:
480,224,46145,1,8,0:0:0:0:
480,224,46305,1,0,0:0:0:0:
480,224,46624,1,0,0:0:0:0:
480,224,46784,1,8,0:0:0:0:
480,224,46863,1,0,0:0:0:0:
480,224,46943,1,0,0:0:0:0:
480,224,47103,1,8,0:0:0:0:
480,224,47262,1,8,0:0:0:0:
480,224,47342,1,0,0:0:0:0:
480,224,47422,1,0,0:0:0:0:
480,224,47582,1,0,0:0:0:0:
480,224,47661,1,0,0:0:0:0:
480,224,47741,1,0,0:0:0:0:
480,224,47821,1,0,0:0:0:0:
480,224,47901,1,8,0:0:0:0:
480,224,48220,1,8,0:0:0:0:
480,224,48379,1,0,0:0:0:0:
480,224,48459,1,0,0:0:0:0:
480,224,48539,1,8,0:0:0:0:
480,224,48699,1,8,0:0:0:0:
480,224,48778,1,0,0:0:0:0:
480,224,48858,1,8,0:0:0:0:
480,224,49018,1,8,0:0:0:0:
480,224,49098,1,8,0:0:0:0:
480,224,49177,1,0,0:0:0:0:
480,224,49257,1,0,0:0:0:0:
480,224,49337,1,8,0:0:0:0:
480,224,49816,1,0,0:0:0:0:
480,224,49895,1,0,0:0:0:0:
480,224,49975,1,8,0:0:0:0:
480,224,50055,1,0,0:0:0:0:
480,160,50135,1,12,0:0:0:0:
480,224,50454,1,0,0:0:0:0:
480,224,50613,1,8,0:0:0:0:
480,224,50773,1,0,0:0:0:0:
480,224,50933,1,0,0:0:0:0:
480,224,51012,1,0,0:0:0:0:
480,160,51092,1,12,0:0:0:0:
480,224,51252,1,0,0:0:0:0:
480,224,51411,1,0,0:0:0:0:
480,224,51571,1,0,0:0:0:0:
480,224,51730,1,8,0:0:0:0:
480,224,51890,1,0,0:0:0:0:
480,160,52050,1,12,0:0:0:0:
480,224,52369,1,0,0:0:0:0:
480,224,52528,1,8,0:0:0:0:
480,224,52688,1,0,0:0:0:0:
480,224,52848,1,0,0:0:0:0:
480,224,52927,1,0,0:0:0:0:
480,160,53007,1,12,0:0:0:0:
480,224,53167,1,8,0:0:0:0:
480,224,53326,1,0,0:0:0:0:
480,224,53486,1,0,0:0:0:0:
480,224,53566,1,0,0:0:0:0:
480,224,53645,1,8,0:0:0:0:
480,224,53805,1,0,0:0:0:0:
480,160,53965,1,12,0:0:0:0:
480,224,54124,1,8,0:0:0:0:
480,224,54204,1,0,0:0:0:0:
480,224,54284,1,8,0:0:0:0:
480,224,54443,1,0,0:0:0:0:
480,224,54762,1,0,0:0:0:0:
480,224,54842,1,0,0:0:0:0:
480,224,54922,1,8,0:0:0:0:
480,224,55082,1,8,0:0:0:0:
480,224,55161,1,0,0:0:0:0:
480,224,55241,1,0,0:0:0:0:
480,224,55321,1,0,0:0:0:0:
480,224,55401,1,8,0:0:0:0:
480,224,55560,1,8,0:0:0:0:
480,224,55720,1,0,0:0:0:0:
480,224,55879,1,8,0:0:0:0:
480,224,56039,1,0,0:0:0:0:
480,224,56199,1,0,0:0:0:0:
480,224,56278,1,0,0:0:0:0:
480,224,56358,1,8,0:0:0:0:
480,224,56518,1,0,0:0:0:0:
480,224,56677,1,0,0:0:0:0:
480,224,56837,1,8,0:0:0:0:
480,224,56996,1,8,0:0:0:0:
480,224,57076,1,8,0:0:0:0:
480,224,57156,1,0,0:0:0:0:
480,224,57236,1,0,0:0:0:0:
480,224,57316,1,8,0:0:0:0:
480,224,57475,1,0,0:0:0:0:
480,224,57635,1,0,0:0:0:0:
480,160,57794,1,12,0:0:0:0:
480,224,58113,1,0,0:0:0:0:
480,224,58273,1,8,0:0:0:0:
480,224,58433,1,0,0:0:0:0:
480,224,58592,1,0,0:0:0:0:
480,160,58752,1,12,0:0:0:0:
480,224,58911,1,8,0:0:0:0:
480,224,59071,1,0,0:0:0:0:
480,224,59230,1,0,0:0:0:0:
480,224,59390,1,8,0:0:0:0:
480,224,59550,1,0,0:0:0:0:
480,224,59629,1,0,0:0:0:0:
480,160,59709,1,12,0:0:0:0:
480,224,60028,1,0,0:0:0:0:
480,224,60188,1,8,0:0:0:0:
480,224,60348,1,0,0:0:0:0:
480,224,60507,1,0,0:0:0:0:
480,224,60587,1,0,0:0:0:0:
480,160,60667,1,12,0:0:0:0:
480,224,60826,1,8,0:0:0:0:
480,224,60986,1,0,0:0:0:0:
480,224,61145,1,0,0:0:0:0:
480,224,61305,1,8,0:0:0:0:
480,224,61465,1,0,0:0:0:0:
480,160,61624,1,12,0:0:0:0:
480,224,61784,1,8,0:0:0:0:
480,224,61863,1,8,0:0:0:0:
480,224,61943,1,0,0:0:0:0:
480,224,62103,1,0,0:0:0:0:
480,224,62262,1,8,0:0:0:0:
480,224,62422,1,0,0:0:0:0:
480,224,62502,1,0,0:0:0:0:
480,224,62582,1,8,0:0:0:0:
480,224,62901,1,0,0:0:0:0:
480,224,63060,1,0,0:0:0:0:
480,224,63220,1,8,0:0:0:0:
480,224,63379,1,0,0:0:0:0:
480,224,63459,1,0,0:0:0:0:
480,224,63539,1,8,0:0:0:0:
480,224,63699,1,0,0:0:0:0:
480,224,63858,1,8,0:0:0:0:
480,224,63938,1,0,0:0:0:0:
480,224,64018,1,8,0:0:0:0:
480,224,64177,1,8,0:0:0:0:
480,224,64337,1,0,0:0:0:0:
480,224,64417,1,0,0:0:0:0:
480,224,64496,1,8,0:0:0:0:
480,224,64576,1,8,0:0:0:0:
480,224,64656,1,0,0:0:0:0:
480,224,64816,1,8,0:0:0:0:
480,224,64975,1,8,0:0:0:0:
480,224,65294,1,8,0:0:0:0:
480,224,65374,1,0,0:0:0:0:
480,224,65454,1,8,0:0:0:0:
480,224,65613,1,0,0:0:0:0:
480,224,65693,1,0,0:0:0:0:
480,224,65773,1,8,0:0:0:0:
480,224,65933,1,0,0:0:0:0:
480,224,66092,1,8,0:0:0:0:
480,224,66172,1,0,0:0:0:0:
480,224,66252,1,8,0:0:0:0:
480,224,66411,1,8,0:0:0:0:
480,224,66491,1,8,0:0:0:0:
480,224,66571,1,0,0:0:0:0:
480,224,66651,1,0,0:0:0:0:
480,224,66730,1,8,0:0:0:0:
480,224,66890,1,0,0:0:0:0:
480,224,67050,1,8,0:0:0:0:
480,224,67129,1,0,0:0:0:0:
480,224,67209,1,0,0:0:0:0:
480,224,67289,1,0,0:0:0:0:
480,160,67369,1,12,0:0:0:0:
480,224,68326,1,0,0:0:0:0:
480,224,69284,1,8,0:0:0:0:
480,224,69603,1,0,0:0:0:0:
480,224,69762,1,8,0:0:0:0:
480,224,69922,1,0,0:0:0:0:
480,224,70082,1,0,0:0:0:0:
480,224,70241,1,8,0:0:0:0:
480,224,70560,1,8,0:0:0:0:
480,224,70720,1,8,0:0:0:0:
480,224,71199,1,8,0:0:0:0:
480,224,71518,1,8,0:0:0:0:
480,224,71677,1,0,0:0:0:0:
480,224,71837,1,0,0:0:0:0:
480,224,71996,1,0,0:0:0:0:
480,224,72156,1,8,0:0:0:0:
480,224,72475,1,8,0:0:0:0:
480,224,72635,1,8,0:0:0:0:
480,224,73113,1,8,0:0:0:0:
480,224,73433,1,8,0:0:0:0:
480,224,73592,1,8,0:0:0:0:
480,224,73752,1,0,0:0:0:0:
480,224,73911,1,0,0:0:0:0:
480,224,74071,1,8,0:0:0:0:
480,224,74390,1,8,0:0:0:0:
480,224,74550,1,0,0:0:0:0:
480,224,74869,1,0,0:0:0:0:
480,224,75028,1,8,0:0:0:0:
480,224,75348,1,8,0:0:0:0:
480,224,75507,1,8,0:0:0:0:
480,224,75667,1,0,0:0:0:0:
480,224,75826,1,0,0:0:0:0:
480,224,75986,1,8,0:0:0:0:
480,224,76305,1,8,0:0:0:0:
480,224,76465,1,0,0:0:0:0:
480,224,76784,1,0,0:0:0:0:
480,224,76943,1,8,0:0:0:0:
480,224,77262,1,8,0:0:0:0:
480,224,77422,1,0,0:0:0:0:
480,224,77582,1,0,0:0:0:0:
480,224,77741,1,0,0:0:0:0:
480,224,77901,1,8,0:0:0:0:
480,224,78220,1,8,0:0:0:0:
480,224,78379,1,0,0:0:0:0:
480,224,78699,1,0,0:0:0:0:
480,224,78858,1,8,0:0:0:0:
480,224,79177,1,8,0:0:0:0:
480,224,79337,1,8,0:0:0:0:
480,224,79496,1,0,0:0:0:0:
480,224,79656,1,0,0:0:0:0:
480,224,79816,1,8,0:0:0:0:
480,224,80135,1,8,0:0:0:0:
480,224,80294,1,8,0:0:0:0:
480,224,80773,1,8,0:0:0:0:
480,224,81092,1,8,0:0:0:0:
480,224,81252,1,0,0:0:0:0:
480,224,81411,1,0,0:0:0:0:
480,224,81571,1,8,0:0:0:0:
480,224,81730,1,8,0:0:0:0:
480,224,82050,1,8,0:0:0:0:
480,224,82209,1,0,0:0:0:0:
480,224,82528,1,0,0:0:0:0:
480,224,82688,1,8,0:0:0:0:
480,224,83007,1,8,0:0:0:0:
480,224,83167,1,8,0:0:0:0:
480,224,83326,1,0,0:0:0:0:
480,224,83486,1,8,0:0:0:0:
480,224,83645,1,8,0:0:0:0:
480,224,83965,1,8,0:0:0:0:
480,224,84124,1,0,0:0:0:0:
480,224,84443,1,0,0:0:0:0:
480,224,84603,1,8,0:0:0:0:
480,224,84922,1,8,0:0:0:0:
480,224,85082,1,8,0:0:0:0:
480,224,85241,1,0,0:0:0:0:
480,224,85401,1,0,0:0:0:0:
480,224,85560,1,8,0:0:0:0:
480,224,85879,1,8,0:0:0:0:
480,224,86039,1,0,0:0:0:0:
480,224,86518,1,8,0:0:0:0:
480,224,86837,1,8,0:0:0:0:
480,224,86996,1,8,0:0:0:0:
480,224,87156,1,0,0:0:0:0:
480,224,87316,1,0,0:0:0:0:
480,224,87475,1,8,0:0:0:0:
480,224,87804,1,8,0:0:0:0:
480,224,87971,1,0,0:0:0:0:
480,224,88167,1,0,0:0:0:0:
480,224,88628,1,8,0:0:0:0:
