osu file format v14

[General]
AudioFilename: audio.mp3
AudioLeadIn: 0
PreviewTime: 49758
Countdown: 0
SampleSet: Normal
StackLeniency: 0.7
Mode: 1
LetterboxInBreaks: 0
WidescreenStoryboard: 1

[Editor]
Bookmarks: 15609,23268,42417,50077,69226
DistanceSpacing: 0.7
BeatDivisor: 4
GridSize: 32
TimelineZoom: 2.599999

[Metadata]
Title:Letter From Ajax
TitleUnicode:埃阿斯的回信
Artist:Yu-Peng Chen @HOYO-MiX
ArtistUnicode:陈致逸 @HOYO-MiX
Creator:Minion24
Version:Muzukashii
Source:Genshin Impact
Tags:mihoyo hoyoverse rock instrumental tartaglia childe the stellar moments アヤックスからの返信 タルタリヤ Ayakkusu kara no henshin 原神 yuanshen 达达利亚 原神-闪耀的群星 character ost video game soundtrack theme ai a si de huixin
BeatmapID:2933932
BeatmapSetID:1424705

[Difficulty]
HPDrainRate:6
CircleSize:5
OverallDifficulty:5
ApproachRate:5
SliderMultiplier:1.4
SliderTickRate:1

[Events]
//Background and Video events
0,0,"tartaglia the archon of reruns.jpg",0,-20
//Break Periods
//Storyboard Layer 0 (Background)
//Storyboard Layer 1 (Fail)
//Storyboard Layer 2 (Pass)
//Storyboard Layer 3 (Foreground)
//Storyboard Layer 4 (Overlay)
//Storyboard Sound Samples

[TimingPoints]
348,319.148936170213,3,1,0,40,1,0
15657,-100,3,1,0,50,0,0
23246,-100,3,1,0,85,0,0
26348,-95.2380952380952,3,1,0,85,0,0
26428,-90.9090909090909,3,1,0,85,0,0
26508,-86.9565217391304,3,1,0,85,0,0
27146,-90.9090909090909,3,1,0,85,0,0
27465,-100,3,1,0,85,0,0
34806,-90.9090909090909,3,1,0,85,0,0
34885,-100,3,1,0,85,0,0
35763,-90.9090909090909,3,1,0,85,0,0
35843,-100,3,1,0,85,0,0
36720,-90.9090909090909,3,1,0,85,0,0
36800,-100,3,1,0,85,0,0
37678,-90.9090909090909,3,1,0,85,0,0
37758,-100,3,1,0,85,0,0
38635,-90.9090909090909,3,1,0,85,0,0
38715,-100,3,1,0,85,0,0
39593,-90.9090909090909,3,1,0,85,0,0
39673,-100,3,1,0,85,0,0
42395,-100,3,1,0,60,0,0
48220,-99.009900990099,3,1,0,60,0,0
48379,-98.0392156862745,3,1,0,60,0,0
48459,-97.0873786407767,3,1,0,60,0,0
48539,-96.1538461538461,3,1,0,60,0,0
48699,-95.2380952380952,3,1,0,60,0,0
48778,-94.3396226415094,3,1,0,60,0,0
48858,-93.4579439252336,3,1,0,60,0,0
49018,-92.5925925925926,3,1,0,60,0,0
49177,-91.743119266055,3,1,0,60,0,0
49337,-90.9090909090909,3,1,0,60,0,0
49816,-90.0900900900901,3,1,0,60,0,0
49895,-87.719298245614,3,1,0,60,0,0
49975,-85.4700854700855,3,1,0,60,0,0
50135,-83.3333333333333,6,1,0,85,0,1
50205,-90.9090909090909,6,1,0,85,0,1
52040,-83.3333333333333,6,1,0,85,0,1
52119,-90.9090909090909,6,1,0,85,0,1
53955,-92.5925925925926,6,1,0,85,0,1
54114,-94.3396226415094,6,1,0,85,0,1
54274,-96.1538461538461,6,1,0,85,0,1
54433,-98.0392156862745,6,1,0,85,0,1
54593,-100,6,1,0,85,0,1
56986,-99.009900990099,6,1,0,85,0,1
57066,-98.0392156862745,6,1,0,85,0,1
57146,-97.0873786407767,6,1,0,85,0,1
57306,-96.1538461538461,6,1,0,85,0,1
57385,-95.2380952380952,6,1,0,85,0,1
57465,-94.3396226415094,6,1,0,85,0,1
57625,-92.5925925925926,6,1,0,85,0,1
57784,-83.3333333333333,6,1,0,85,0,1
57864,-90.9090909090909,6,1,0,85,0,1
59699,-83.3333333333333,6,1,0,85,0,1
59779,-90.9090909090909,6,1,0,85,0,1
60667,-83.3333333333333,6,1,0,85,0,1
60746,-90.9090909090909,6,1,0,85,0,1
62093,-92.5925925925926,6,1,0,85,0,1
62252,-94.3396226415094,6,1,0,85,0,1
62412,-96.1538461538461,6,1,0,85,0,1
62572,-98.0392156862745,6,1,0,85,0,1
62731,-100,6,1,0,85,0,1
65284,-98.0392156862745,6,1,0,85,0,1
65444,-96.1538461538461,6,1,0,85,0,1
65603,-94.3396226415094,6,1,0,85,0,1
65763,-92.5925925925926,6,1,0,85,0,1
65923,-90.9090909090909,6,1,0,85,0,1
66082,-89.2857142857143,6,1,0,85,0,1
66242,-87.719298245614,6,1,0,85,0,1
66401,-86.2068965517241,6,1,0,85,0,1
66561,-84.7457627118644,6,1,0,85,0,1
66720,-83.3333333333333,6,1,0,85,0,1
66880,-81.9672131147541,6,1,0,85,0,1
67040,-80.6451612903226,6,1,0,85,0,1
67119,-79.3650793650794,6,1,0,85,0,1
67199,-78.125,6,1,0,85,0,1
67369,-76.9230769230769,6,1,0,85,0,0
68316,-86.9565217391304,6,1,0,85,0,0
69204,-100,6,1,0,50,0,0
84523,-100,6,1,0,40,0,0
87804,357.142857142857,3,1,0,40,1,8
87804,-89.3617021276596,3,1,0,40,0,8
87971,394.736842105263,3,1,0,40,1,8
87971,-80.8510638297873,3,1,0,40,0,8
88167,461.538461538462,3,1,0,40,1,8
88167,-69.1489361702127,3,1,0,40,0,8

[HitObjects]
480,224,348,5,8,0:0:0:0:
480,224,667,1,8,0:0:0:0:
480,224,826,1,8,0:0:0:0:
480,224,986,1,0,0:0:0:0:
480,224,1305,1,8,0:0:0:0:
480,224,1624,1,8,0:0:0:0:
480,224,1784,1,0,0:0:0:0:
480,224,2263,1,8,0:0:0:0:
480,224,2582,1,8,0:0:0:0:
480,224,2741,1,8,0:0:0:0:
480,224,2901,1,0,0:0:0:0:
480,224,3220,1,8,0:0:0:0:
480,224,3539,1,0,0:0:0:0:
480,224,3699,1,0,0:0:0:0:
480,224,3858,1,8,0:0:0:0:
480,224,4178,1,8,0:0:0:0:
480,224,4497,1,8,0:0:0:0:
480,224,4656,1,8,0:0:0:0:
480,224,4816,1,0,0:0:0:0:
480,224,5135,1,8,0:0:0:0:
480,224,5454,1,8,0:0:0:0:
480,224,5614,1,0,0:0:0:0:
480,224,6092,1,8,0:0:0:0:
480,224,6412,1,8,0:0:0:0:
480,224,6571,1,0,0:0:0:0:
480,224,6731,1,0,0:0:0:0:
480,224,7050,1,8,0:0:0:0:
480,224,7369,1,0,0:0:0:0:
480,224,7528,1,8,0:0:0:0:
480,224,7688,1,8,0:0:0:0:
480,224,8007,1,8,0:0:0:0:
480,224,8326,1,8,0:0:0:0:
480,224,8486,1,0,0:0:0:0:
480,224,8646,1,0,0:0:0:0:
480,224,8965,1,8,0:0:0:0:
480,224,9284,1,8,0:0:0:0:
480,224,9443,1,0,0:0:0:0:
480,224,9922,1,8,0:0:0:0:
480,224,10241,1,8,0:0:0:0:
480,224,10401,1,0,0:0:0:0:
480,224,10560,1,0,0:0:0:0:
480,224,10880,1,8,0:0:0:0:
480,224,11199,1,0,0:0:0:0:
480,224,11358,1,0,0:0:0:0:
480,224,11518,1,8,0:0:0:0:
480,224,11837,1,8,0:0:0:0:
480,224,12156,1,8,0:0:0:0:
480,224,12316,1,8,0:0:0:0:
480,224,12475,1,0,0:0:0:0:
480,224,12795,1,8,0:0:0:0:
480,224,13114,1,8,0:0:0:0:
480,224,13273,1,0,0:0:0:0:
480,224,13752,1,8,0:0:0:0:
480,224,14071,1,8,0:0:0:0:
480,224,14231,1,8,0:0:0:0:
480,224,14390,1,0,0:0:0:0:
480,224,14709,1,8,0:0:0:0:
480,224,15029,1,0,0:0:0:0:
480,224,15188,1,0,0:0:0:0:
480,224,15348,1,8,0:0:0:0:
480,224,15667,1,8,0:0:0:0:
480,224,15986,1,8,0:0:0:0:
480,224,16146,1,8,0:0:0:0:
480,224,16305,1,0,0:0:0:0:
480,224,16624,1,8,0:0:0:0:
480,224,16943,1,8,0:0:0:0:
480,224,17103,1,0,0:0:0:0:
480,224,17422,1,0,0:0:0:0:
480,224,17582,1,8,0:0:0:0:
480,224,17901,1,8,0:0:0:0:
480,224,18220,1,0,0:0:0:0:
480,224,18539,1,8,0:0:0:0:
480,224,18858,1,8,0:0:0:0:
480,224,19018,1,0,0:0:0:0:
480,224,19178,1,8,0:0:0:0:
480,224,19497,1,0,0:0:0:0:
480,224,19656,1,0,0:0:0:0:
480,224,19816,1,8,0:0:0:0:
480,224,20135,1,8,0:0:0:0:
480,224,20295,1,0,0:0:0:0:
480,224,20454,1,0,0:0:0:0:
480,224,20614,1,8,0:0:0:0:
480,224,20773,1,0,0:0:0:0:
480,224,21092,1,0,0:0:0:0:
480,224,21252,1,8,0:0:0:0:
480,224,21412,1,8,0:0:0:0:
480,224,21571,1,0,0:0:0:0:
480,224,21731,1,8,0:0:0:0:
480,224,22209,1,0,0:0:0:0:
480,224,22369,1,8,0:0:0:0:
480,224,22529,1,0,0:0:0:0:
480,224,22848,1,8,0:0:0:0:
480,224,23007,1,8,0:0:0:0:
480,224,23326,1,0,0:0:0:0:
480,224,23486,1,0,0:0:0:0:
480,224,23566,1,0,0:0:0:0:
480,224,23646,1,0,0:0:0:0:
480,224,23805,1,8,0:0:0:0:
480,224,23965,1,8,0:0:0:0:
480,224,24124,1,0,0:0:0:0:
480,224,24284,1,0,0:0:0:0:
480,224,24603,1,0,0:0:0:0:
480,224,24763,1,0,0:0:0:0:
480,224,24922,1,8,0:0:0:0:
480,224,25241,1,0,0:0:0:0:
480,224,25401,1,8,0:0:0:0:
480,224,25560,1,8,0:0:0:0:
480,224,25720,1,0,0:0:0:0:
480,224,25880,1,8,0:0:0:0:
480,224,26039,1,0,0:0:0:0:
480,224,26199,1,0,0:0:0:0:
480,224,26358,1,8,0:0:0:0:
480,224,26438,1,8,0:0:0:0:
480,224,26518,1,8,0:0:0:0:
480,160,27156,1,4,0:0:0:0:
480,224,27475,1,0,0:0:0:0:
480,224,27635,1,8,0:0:0:0:
480,224,27954,1,0,0:0:0:0:
480,224,28114,1,8,0:0:0:0:
480,224,28273,1,0,0:0:0:0:
480,224,28433,1,0,0:0:0:0:
480,224,28592,1,0,0:0:0:0:
480,224,28752,1,8,0:0:0:0:
480,224,29071,1,8,0:0:0:0:
480,224,29390,1,8,0:0:0:0:
480,224,29550,1,8,0:0:0:0:
480,224,29709,1,0,0:0:0:0:
480,224,29869,1,8,0:0:0:0:
480,224,30029,1,8,0:0:0:0:
480,224,30188,1,0,0:0:0:0:
480,224,30348,1,0,0:0:0:0:
480,224,30667,1,8,0:0:0:0:
480,224,30986,1,8,0:0:0:0:
480,224,31305,1,8,0:0:0:0:
480,224,31465,1,0,0:0:0:0:
480,224,31784,1,0,0:0:0:0:
480,224,31943,1,0,0:0:0:0:
480,224,32103,1,8,0:0:0:0:
480,224,32263,1,8,0:0:0:0:
480,224,32422,1,0,0:0:0:0:
480,224,32582,1,0,0:0:0:0:
480,224,32901,1,8,0:0:0:0:
480,224,33220,1,8,0:0:0:0:
480,224,33380,1,8,0:0:0:0:
480,224,33539,1,0,0:0:0:0:
480,224,33699,1,0,0:0:0:0:
480,224,33858,1,8,0:0:0:0:
480,224,33938,1,8,0:0:0:0:
480,224,34018,1,8,0:0:0:0:
480,224,34178,1,8,0:0:0:0:
480,224,34337,1,0,0:0:0:0:
480,224,34497,1,8,0:0:0:0:
480,160,34816,1,4,0:0:0:0:
480,224,35295,1,8,0:0:0:0:
480,224,35454,1,0,0:0:0:0:
480,224,35614,1,8,0:0:0:0:
480,160,35773,1,4,0:0:0:0:
480,224,36252,1,0,0:0:0:0:
480,224,36412,1,8,0:0:0:0:
480,224,36571,1,0,0:0:0:0:
480,160,36731,1,12,0:0:0:0:
480,224,37209,1,0,0:0:0:0:
480,224,37369,1,0,0:0:0:0:
480,224,37529,1,0,0:0:0:0:
480,160,37688,1,12,0:0:0:0:
480,224,38167,1,8,0:0:0:0:
480,224,38326,1,0,0:0:0:0:
480,224,38486,1,0,0:0:0:0:
480,160,38646,1,12,0:0:0:0:
480,224,39124,1,8,0:0:0:0:
480,224,39284,1,0,0:0:0:0:
480,224,39443,1,0,0:0:0:0:
480,160,39603,1,12,0:0:0:0:
480,224,40082,1,8,0:0:0:0:
480,224,40241,1,0,0:0:0:0:
480,224,40401,1,8,0:0:0:0:
480,160,40560,1,12,0:0:0:0:
480,224,40720,1,8,0:0:0:0:
480,224,40800,1,8,0:0:0:0:
480,224,40879,1,8,0:0:0:0:
480,224,41039,1,0,0:0:0:0:
480,224,41199,1,8,0:0:0:0:
480,224,41518,1,8,0:0:0:0:
480,224,41678,1,0,0:0:0:0:
480,224,41837,1,0,0:0:0:0:
480,224,41997,1,8,0:0:0:0:
480,224,42156,1,8,0:0:0:0:
480,224,42236,1,8,0:0:0:0:
480,224,42316,1,8,0:0:0:0:
480,224,42475,1,0,0:0:0:0:
480,224,42795,1,0,0:0:0:0:
480,224,42954,1,8,0:0:0:0:
480,224,43114,1,8,0:0:0:0:
480,224,43273,1,0,0:0:0:0:
480,224,43433,1,0,0:0:0:0:
480,224,43752,1,8,0:0:0:0:
480,224,43912,1,0,0:0:0:0:
480,224,44071,1,8,0:0:0:0:
480,224,44231,1,8,0:0:0:0:
480,224,44390,1,0,0:0:0:0:
480,224,44709,1,0,0:0:0:0:
480,224,44869,1,8,0:0:0:0:
480,224,45029,1,8,0:0:0:0:
480,224,45188,1,8,0:0:0:0:
480,224,45348,1,0,0:0:0:0:
480,224,45667,1,0,0:0:0:0:
480,224,45986,1,0,0:0:0:0:
480,224,46305,1,0,0:0:0:0:
480,224,46624,1,0,0:0:0:0:
480,224,46784,1,8,0:0:0:0:
480,224,46943,1,0,0:0:0:0:
480,224,47103,1,8,0:0:0:0:
480,224,47263,1,8,0:0:0:0:
480,224,47422,1,0,0:0:0:0:
480,224,47582,1,0,0:0:0:0:
480,224,47662,1,0,0:0:0:0:
480,224,47741,1,0,0:0:0:0:
480,224,47901,1,8,0:0:0:0:
480,224,48220,1,8,0:0:0:0:
480,224,48380,1,0,0:0:0:0:
480,224,48459,1,0,0:0:0:0:
480,224,48539,1,0,0:0:0:0:
480,224,48699,1,8,0:0:0:0:
480,224,48779,1,8,0:0:0:0:
480,224,48858,1,8,0:0:0:0:
480,224,49018,1,0,0:0:0:0:
480,224,49178,1,8,0:0:0:0:
480,224,49337,1,8,0:0:0:0:
480,224,49816,1,0,0:0:0:0:
480,224,49896,1,0,0:0:0:0:
480,224,49975,1,0,0:0:0:0:
480,160,50135,1,12,0:0:0:0:
480,224,50614,1,8,0:0:0:0:
480,224,50773,1,0,0:0:0:0:
480,224,50933,1,0,0:0:0:0:
480,224,51092,1,8,0:0:0:0:
480,224,51412,1,0,0:0:0:0:
480,224,51571,1,0,0:0:0:0:
480,224,51731,1,8,0:0:0:0:
480,160,52050,1,12,0:0:0:0:
480,224,52369,1,0,0:0:0:0:
480,224,52529,1,8,0:0:0:0:
480,224,52688,1,0,0:0:0:0:
480,224,52848,1,0,0:0:0:0:
480,224,53007,1,8,0:0:0:0:
480,224,53486,1,0,0:0:0:0:
480,224,53646,1,8,0:0:0:0:
480,224,53805,1,0,0:0:0:0:
480,224,53965,1,8,0:0:0:0:
480,224,54124,1,8,0:0:0:0:
480,224,54284,1,0,0:0:0:0:
480,224,54443,1,0,0:0:0:0:
480,224,54763,1,0,0:0:0:0:
480,224,54922,1,0,0:0:0:0:
480,224,55002,1,0,0:0:0:0:
480,224,55082,1,0,0:0:0:0:
480,224,55241,1,8,0:0:0:0:
480,224,55401,1,8,0:0:0:0:
480,224,55560,1,0,0:0:0:0:
480,224,55640,1,0,0:0:0:0:
480,224,55720,1,0,0:0:0:0:
480,224,55880,1,8,0:0:0:0:
480,224,56199,1,0,0:0:0:0:
480,224,56358,1,8,0:0:0:0:
480,224,56518,1,0,0:0:0:0:
480,224,56678,1,0,0:0:0:0:
480,224,56837,1,8,0:0:0:0:
480,224,56997,1,8,0:0:0:0:
480,224,57076,1,8,0:0:0:0:
480,224,57156,1,8,0:0:0:0:
480,224,57316,1,0,0:0:0:0:
480,224,57396,1,0,0:0:0:0:
480,224,57475,1,0,0:0:0:0:
480,224,57635,1,0,0:0:0:0:
480,160,57795,1,12,0:0:0:0:
480,224,58273,1,8,0:0:0:0:
480,224,58433,1,0,0:0:0:0:
480,224,58592,1,0,0:0:0:0:
480,160,58752,1,12,0:0:0:0:
480,224,59071,1,0,0:0:0:0:
480,224,59231,1,0,0:0:0:0:
480,224,59390,1,8,0:0:0:0:
480,224,59550,1,0,0:0:0:0:
480,160,59709,1,12,0:0:0:0:
480,224,60029,1,0,0:0:0:0:
480,224,60188,1,8,0:0:0:0:
480,224,60348,1,0,0:0:0:0:
480,224,60507,1,0,0:0:0:0:
480,160,60667,1,12,0:0:0:0:
480,224,61146,1,0,0:0:0:0:
480,224,61305,1,8,0:0:0:0:
480,224,61465,1,0,0:0:0:0:
480,224,61624,1,8,0:0:0:0:
480,224,61784,1,8,0:0:0:0:
480,224,62103,1,0,0:0:0:0:
480,224,62263,1,8,0:0:0:0:
480,224,62422,1,0,0:0:0:0:
480,224,62582,1,8,0:0:0:0:
480,224,62901,1,0,0:0:0:0:
480,224,63060,1,0,0:0:0:0:
480,224,63220,1,8,0:0:0:0:
480,224,63380,1,0,0:0:0:0:
480,224,63459,1,0,0:0:0:0:
480,224,63539,1,0,0:0:0:0:
480,224,63699,1,0,0:0:0:0:
480,224,63858,1,8,0:0:0:0:
480,224,63938,1,8,0:0:0:0:
480,224,64018,1,8,0:0:0:0:
480,224,64177,1,0,0:0:0:0:
480,224,64497,1,0,0:0:0:0:
480,224,64576,1,0,0:0:0:0:
480,224,64656,1,0,0:0:0:0:
480,224,64816,1,8,0:0:0:0:
480,224,64975,1,0,0:0:0:0:
480,224,65295,1,8,0:0:0:0:
480,224,65454,1,8,0:0:0:0:
480,224,65614,1,0,0:0:0:0:
480,224,65773,1,8,0:0:0:0:
480,224,65933,1,8,0:0:0:0:
480,224,66092,1,0,0:0:0:0:
480,224,66412,1,8,0:0:0:0:
480,224,66571,1,0,0:0:0:0:
480,224,66731,1,8,0:0:0:0:
480,224,66890,1,0,0:0:0:0:
480,224,67050,1,8,0:0:0:0:
480,224,67130,1,8,0:0:0:0:
480,224,67209,1,8,0:0:0:0:
480,160,67369,1,12,0:0:0:0:
480,224,68326,1,0,0:0:0:0:
480,224,69284,1,8,0:0:0:0:
480,224,69603,1,0,0:0:0:0:
480,224,69763,1,8,0:0:0:0:
480,224,69922,1,0,0:0:0:0:
480,224,70241,1,8,0:0:0:0:
480,224,70560,1,8,0:0:0:0:
480,224,70720,1,8,0:0:0:0:
480,224,71199,1,8,0:0:0:0:
480,224,71518,1,8,0:0:0:0:
480,224,71678,1,0,0:0:0:0:
480,224,71837,1,0,0:0:0:0:
480,224,72156,1,8,0:0:0:0:
480,224,72475,1,8,0:0:0:0:
480,224,72635,1,8,0:0:0:0:
480,224,73114,1,8,0:0:0:0:
480,224,73433,1,8,0:0:0:0:
480,224,73592,1,8,0:0:0:0:
480,224,73752,1,0,0:0:0:0:
480,224,74071,1,8,0:0:0:0:
480,224,74390,1,8,0:0:0:0:
480,224,74550,1,8,0:0:0:0:
480,224,75029,1,8,0:0:0:0:
480,224,75348,1,8,0:0:0:0:
480,224,75507,1,8,0:0:0:0:
480,224,75667,1,0,0:0:0:0:
480,224,75826,1,0,0:0:0:0:
480,224,75986,1,8,0:0:0:0:
480,224,76305,1,8,0:0:0:0:
480,224,76465,1,0,0:0:0:0:
480,224,76784,1,0,0:0:0:0:
480,224,76943,1,8,0:0:0:0:
480,224,77263,1,8,0:0:0:0:
480,224,77422,1,0,0:0:0:0:
480,224,77582,1,0,0:0:0:0:
480,224,77901,1,8,0:0:0:0:
480,224,78220,1,8,0:0:0:0:
480,224,78380,1,8,0:0:0:0:
480,224,78858,1,8,0:0:0:0:
480,224,79178,1,8,0:0:0:0:
480,224,79337,1,8,0:0:0:0:
480,224,79497,1,0,0:0:0:0:
480,224,79816,1,8,0:0:0:0:
480,224,79975,1,0,0:0:0:0:
480,224,80135,1,8,0:0:0:0:
480,224,80295,1,8,0:0:0:0:
480,224,80773,1,8,0:0:0:0:
480,224,81092,1,8,0:0:0:0:
480,224,81252,1,0,0:0:0:0:
480,224,81412,1,0,0:0:0:0:
480,224,81731,1,8,0:0:0:0:
480,224,82050,1,8,0:0:0:0:
480,224,82209,1,0,0:0:0:0:
480,224,82529,1,0,0:0:0:0:
480,224,82688,1,8,0:0:0:0:
480,224,83007,1,8,0:0:0:0:
480,224,83167,1,8,0:0:0:0:
480,224,83326,1,0,0:0:0:0:
480,224,83486,1,8,0:0:0:0:
480,224,83646,1,8,0:0:0:0:
480,224,83965,1,8,0:0:0:0:
480,224,84124,1,0,0:0:0:0:
480,224,84603,1,8,0:0:0:0:
480,224,84922,1,8,0:0:0:0:
480,224,85241,1,0,0:0:0:0:
480,224,85560,1,8,0:0:0:0:
480,224,86039,1,0,0:0:0:0:
480,224,86518,1,8,0:0:0:0:
480,224,86837,1,8,0:0:0:0:
480,224,87156,1,0,0:0:0:0:
480,224,87475,1,8,0:0:0:0:
480,224,87804,1,8,0:0:0:0:
480,224,87971,1,0,0:0:0:0:
480,224,88167,1,0,0:0:0:0:
480,224,88628,1,8,0:0:0:0:
