osu file format v14

[General]
AudioFilename: audio.mp3
AudioLeadIn: 0
PreviewTime: 49758
Countdown: 0
SampleSet: Normal
StackLeniency: 0.7
Mode: 1
LetterboxInBreaks: 0
WidescreenStoryboard: 1

[Editor]
Bookmarks: 15609,23268,42417,50077,69226
DistanceSpacing: 0.7
BeatDivisor: 4
GridSize: 32
TimelineZoom: 0.9999989

[Metadata]
Title:Letter From Ajax
TitleUnicode:埃阿斯的回信
Artist:Yu-Peng Chen @HOYO-MiX
ArtistUnicode:陈致逸 @HOYO-MiX
Creator:Minion24
Version:Futsuu
Source:Genshin Impact
Tags:mihoyo hoyoverse rock instrumental tartaglia childe the stellar moments アヤックスからの返信 タルタリヤ Ayakkusu kara no henshin 原神 yuanshen 达达利亚 原神-闪耀的群星 character ost video game soundtrack theme ai a si de huixin
BeatmapID:2933930
BeatmapSetID:1424705

[Difficulty]
HPDrainRate:7
CircleSize:5
OverallDifficulty:4
ApproachRate:5
SliderMultiplier:1.4
SliderTickRate:1

[Events]
//Background and Video events
0,0,"tartaglia the archon of reruns.jpg",0,-20
//Break Periods
//Storyboard Layer 0 (Background)
//Storyboard Layer 1 (Fail)
//Storyboard Layer 2 (Pass)
//Storyboard Layer 3 (Foreground)
//Storyboard Layer 4 (Overlay)
//Storyboard Sound Samples

[TimingPoints]
348,319.148936170213,3,1,0,40,1,0
15587,-100,3,1,0,50,0,0
23246,-100,3,1,0,85,0,0
42395,-100,3,1,0,60,0,0
49736,-100,3,1,0,85,0,0
50135,-100,6,1,0,85,0,1
67369,-100,6,1,0,85,0,0
69204,-100,6,1,0,50,0,0
84523,-100,6,1,0,40,0,0
87804,357.142857142857,3,1,0,40,1,8
87804,-89.3617021276596,3,1,0,40,0,8
87971,394.736842105263,3,1,0,40,1,8
87971,-80.8510638297873,3,1,0,40,0,8
88167,461.538461538462,3,1,0,40,1,8
88167,-69.1489361702127,3,1,0,40,0,8

[HitObjects]
480,224,348,5,8,0:0:0:0:
480,224,986,1,0,0:0:0:0:
480,224,1305,1,8,0:0:0:0:
480,224,1624,1,8,0:0:0:0:
480,224,1784,1,0,0:0:0:0:
480,224,2262,1,8,0:0:0:0:
480,224,2741,1,0,0:0:0:0:
480,224,3220,1,8,0:0:0:0:
480,224,3539,1,0,0:0:0:0:
480,224,3858,1,8,0:0:0:0:
480,224,4177,1,8,0:0:0:0:
480,224,4656,1,0,0:0:0:0:
480,224,5135,1,8,0:0:0:0:
480,224,5454,1,0,0:0:0:0:
480,224,5613,1,0,0:0:0:0:
480,224,6092,1,8,0:0:0:0:
480,224,6571,1,0,0:0:0:0:
480,224,7050,1,8,0:0:0:0:
480,224,7369,1,0,0:0:0:0:
480,224,7688,1,8,0:0:0:0:
480,224,8007,1,0,0:0:0:0:
480,224,8645,1,0,0:0:0:0:
480,224,8965,1,8,0:0:0:0:
480,224,9284,1,8,0:0:0:0:
480,224,9443,1,0,0:0:0:0:
480,224,9922,1,8,0:0:0:0:
480,224,10401,1,0,0:0:0:0:
480,224,10879,1,8,0:0:0:0:
480,224,11199,1,0,0:0:0:0:
480,224,11518,1,8,0:0:0:0:
480,224,11837,1,8,0:0:0:0:
480,224,12316,1,0,0:0:0:0:
480,224,12794,1,8,0:0:0:0:
480,224,13113,1,8,0:0:0:0:
480,224,13273,1,0,0:0:0:0:
480,224,13752,1,8,0:0:0:0:
480,224,14230,1,0,0:0:0:0:
480,224,14709,1,8,0:0:0:0:
480,224,15028,1,0,0:0:0:0:
480,224,15348,1,8,0:0:0:0:
480,224,15667,1,0,0:0:0:0:
480,224,16305,1,0,0:0:0:0:
480,224,16624,1,8,0:0:0:0:
480,224,17103,1,0,0:0:0:0:
480,224,17582,1,8,0:0:0:0:
480,224,17901,1,0,0:0:0:0:
480,224,18539,1,8,0:0:0:0:
480,224,18858,1,0,0:0:0:0:
480,224,19177,1,8,0:0:0:0:
480,224,19496,1,0,0:0:0:0:
480,224,19816,1,8,0:0:0:0:
480,224,20294,1,8,0:0:0:0:
480,224,20613,1,8,0:0:0:0:
480,224,20773,1,0,0:0:0:0:
480,224,21092,1,0,0:0:0:0:
480,224,21411,1,8,0:0:0:0:
480,224,21730,1,0,0:0:0:0:
480,224,21890,1,0,0:0:0:0:
480,224,22369,1,8,0:0:0:0:
480,224,22688,1,8,0:0:0:0:
480,224,23007,1,8,0:0:0:0:
480,224,23326,1,0,0:0:0:0:
480,224,23805,1,0,0:0:0:0:
480,224,24284,1,8,0:0:0:0:
480,224,24762,1,0,0:0:0:0:
480,224,25241,1,8,0:0:0:0:
480,224,25720,1,0,0:0:0:0:
480,224,26199,1,0,0:0:0:0:
480,224,26358,1,8,0:0:0:0:
480,224,26518,1,8,0:0:0:0:
480,224,27156,1,0,0:0:0:0:
480,224,27635,1,0,0:0:0:0:
480,224,27954,1,0,0:0:0:0:
480,224,28113,1,8,0:0:0:0:
480,224,28433,1,0,0:0:0:0:
480,224,28752,1,8,0:0:0:0:
480,224,29071,1,0,0:0:0:0:
480,224,29550,1,0,0:0:0:0:
480,224,29869,1,0,0:0:0:0:
480,224,30028,1,8,0:0:0:0:
480,224,30348,1,8,0:0:0:0:
480,224,30667,1,0,0:0:0:0:
480,224,30986,1,0,0:0:0:0:
480,224,31465,1,0,0:0:0:0:
480,224,31784,1,0,0:0:0:0:
480,224,31943,1,8,0:0:0:0:
480,224,32262,1,0,0:0:0:0:
480,224,32582,1,8,0:0:0:0:
480,224,32901,1,8,0:0:0:0:
480,224,33379,1,0,0:0:0:0:
480,224,33699,1,0,0:0:0:0:
480,224,33858,1,8,0:0:0:0:
480,224,34177,1,8,0:0:0:0:
480,224,34337,1,0,0:0:0:0:
480,224,34496,1,8,0:0:0:0:
480,160,34816,1,4,0:0:0:0:
480,160,35773,1,4,0:0:0:0:
480,160,36730,1,12,0:0:0:0:
480,160,37688,1,12,0:0:0:0:
480,224,38326,1,0,0:0:0:0:
480,160,38645,1,12,0:0:0:0:
480,160,39603,1,12,0:0:0:0:
480,224,39922,1,0,0:0:0:0:
480,224,40241,1,0,0:0:0:0:
480,160,40560,1,12,0:0:0:0:
480,224,40879,1,8,0:0:0:0:
480,224,41039,1,8,0:0:0:0:
480,224,41199,1,0,0:0:0:0:
480,224,41518,1,8,0:0:0:0:
480,224,41837,1,8,0:0:0:0:
480,224,41996,1,0,0:0:0:0:
480,224,42156,1,8,0:0:0:0:
480,224,42316,1,8,0:0:0:0:
480,224,42475,1,0,0:0:0:0:
480,224,42954,1,8,0:0:0:0:
480,224,43273,1,8,0:0:0:0:
480,224,43433,1,0,0:0:0:0:
480,224,43911,1,0,0:0:0:0:
480,224,44071,1,8,0:0:0:0:
480,224,44390,1,0,0:0:0:0:
480,224,44869,1,8,0:0:0:0:
480,224,45188,1,8,0:0:0:0:
480,224,45348,1,0,0:0:0:0:
480,224,45986,1,0,0:0:0:0:
480,224,46305,1,8,0:0:0:0:
480,224,46784,1,8,0:0:0:0:
480,224,47103,1,0,0:0:0:0:
480,224,47262,1,8,0:0:0:0:
480,224,47582,1,0,0:0:0:0:
480,224,47741,1,0,0:0:0:0:
480,224,47901,1,0,0:0:0:0:
480,224,48220,1,8,0:0:0:0:
480,224,48539,1,8,0:0:0:0:
480,224,48858,1,8,0:0:0:0:
480,224,49177,1,8,0:0:0:0:
480,224,49337,1,8,0:0:0:0:
480,224,49816,1,0,0:0:0:0:
480,160,50135,1,12,0:0:0:0:
480,224,50773,1,0,0:0:0:0:
480,224,51092,1,8,0:0:0:0:
480,224,51411,1,0,0:0:0:0:
480,224,51571,1,0,0:0:0:0:
480,224,51730,1,0,0:0:0:0:
480,160,52050,1,12,0:0:0:0:
480,224,52528,1,0,0:0:0:0:
480,224,52688,1,0,0:0:0:0:
480,224,53007,1,8,0:0:0:0:
480,224,53167,1,0,0:0:0:0:
480,224,53486,1,0,0:0:0:0:
480,224,53645,1,8,0:0:0:0:
480,224,53965,1,8,0:0:0:0:
480,224,54284,1,0,0:0:0:0:
480,224,54443,1,0,0:0:0:0:
480,224,54922,1,8,0:0:0:0:
480,224,55241,1,0,0:0:0:0:
480,224,55401,1,0,0:0:0:0:
480,224,55560,1,8,0:0:0:0:
480,224,55879,1,8,0:0:0:0:
480,224,56358,1,0,0:0:0:0:
480,224,56837,1,8,0:0:0:0:
480,224,56996,1,8,0:0:0:0:
480,224,57156,1,0,0:0:0:0:
480,224,57475,1,0,0:0:0:0:
480,160,57794,1,12,0:0:0:0:
480,224,58433,1,0,0:0:0:0:
480,160,58752,1,12,0:0:0:0:
480,224,59230,1,0,0:0:0:0:
480,224,59550,1,8,0:0:0:0:
480,160,59709,1,4,0:0:0:0:
480,224,60188,1,0,0:0:0:0:
480,224,60507,1,0,0:0:0:0:
480,160,60667,1,12,0:0:0:0:
480,224,60986,1,0,0:0:0:0:
480,224,61305,1,8,0:0:0:0:
480,224,61624,1,8,0:0:0:0:
480,224,61784,1,8,0:0:0:0:
480,224,61943,1,0,0:0:0:0:
480,224,62582,1,8,0:0:0:0:
480,224,63220,1,8,0:0:0:0:
480,224,63539,1,8,0:0:0:0:
480,224,63858,1,0,0:0:0:0:
512,224,64018,1,0,0:0:0:0:
480,224,64177,1,0,0:0:0:0:
480,224,64496,1,8,0:0:0:0:
480,224,64975,1,8,0:0:0:0:
480,224,65294,1,8,0:0:0:0:
480,224,65454,1,8,0:0:0:0:
480,224,65773,1,0,0:0:0:0:
480,224,65933,1,8,0:0:0:0:
480,224,66411,1,8,0:0:0:0:
480,224,66571,1,0,0:0:0:0:
480,224,66890,1,8,0:0:0:0:
480,224,67209,1,0,0:0:0:0:
480,160,67369,1,12,0:0:0:0:
480,224,68326,1,0,0:0:0:0:
480,224,69284,1,8,0:0:0:0:
480,224,69922,1,0,0:0:0:0:
480,224,70241,1,8,0:0:0:0:
480,224,70720,1,0,0:0:0:0:
480,224,71199,1,8,0:0:0:0:
480,224,71518,1,8,0:0:0:0:
480,224,71677,1,0,0:0:0:0:
480,224,72156,1,8,0:0:0:0:
480,224,72475,1,8,0:0:0:0:
480,224,72635,1,0,0:0:0:0:
480,224,73113,1,8,0:0:0:0:
480,224,73752,1,0,0:0:0:0:
480,224,74071,1,8,0:0:0:0:
480,224,74550,1,0,0:0:0:0:
480,224,75028,1,8,0:0:0:0:
480,224,75348,1,8,0:0:0:0:
480,224,75507,1,0,0:0:0:0:
480,224,75986,1,8,0:0:0:0:
480,224,76305,1,0,0:0:0:0:
480,224,76465,1,0,0:0:0:0:
480,224,76943,1,8,0:0:0:0:
480,224,77582,1,0,0:0:0:0:
480,224,77901,1,8,0:0:0:0:
480,224,78379,1,0,0:0:0:0:
480,224,78858,1,8,0:0:0:0:
480,224,79177,1,8,0:0:0:0:
480,224,79337,1,0,0:0:0:0:
480,224,79816,1,8,0:0:0:0:
480,224,80135,1,0,0:0:0:0:
480,224,80294,1,0,0:0:0:0:
480,224,80773,1,8,0:0:0:0:
480,224,81411,1,0,0:0:0:0:
480,224,81730,1,8,0:0:0:0:
480,224,82209,1,0,0:0:0:0:
480,224,82688,1,8,0:0:0:0:
480,224,83007,1,8,0:0:0:0:
480,224,83167,1,0,0:0:0:0:
480,224,83645,1,8,0:0:0:0:
480,224,83965,1,0,0:0:0:0:
480,224,84124,1,0,0:0:0:0:
480,224,84603,1,8,0:0:0:0:
480,224,85241,1,0,0:0:0:0:
480,224,85560,1,8,0:0:0:0:
480,224,86518,1,8,0:0:0:0:
256,192,87475,12,8,88628,0:0:0:0:
