osu file format v14

[General]
AudioFilename: audio.mp3
AudioLeadIn: 0
PreviewTime: 50007
Countdown: 0
SampleSet: Soft
StackLeniency: 0.5
Mode: 0
LetterboxInBreaks: 0
WidescreenStoryboard: 1

[Editor]
Bookmarks: 8597,19448,21363,23278,27108,34768,42427,46257,67321
DistanceSpacing: 0.8
BeatDivisor: 4
GridSize: 32
TimelineZoom: 1.9

[Metadata]
Title:Letter From Ajax
TitleUnicode:埃阿斯的回信
Artist:Yu-Peng Chen @HOYO-MiX
ArtistUnicode:陈致逸 @HOYO-MiX
Creator:- ascended -
Version:Hard
Source:Genshin Impact
Tags:アヤックスからの返信 Dimeng Yuan mihoyo tartaglia hydro snezhnaya gacha childe character demo theme ost soundtrack the stellar moments videogame video game original rock instrumental mildly accurate mildy_accurate some hero some_hero aistre alphabet venax farewell of 陳致逸 Zhiyi Chen Ayakkusu kara no henshin Ai A Si De huixin 米哈游 原神 达达利亚 達達利亞 公子 阿贾克斯 fatui harbinger
BeatmapID:2994262
BeatmapSetID:1456207

[Difficulty]
HPDrainRate:4.3
CircleSize:3.7
OverallDifficulty:6
ApproachRate:7.5
SliderMultiplier:1.4
SliderTickRate:1

[Events]
//Background and Video events
0,0,"pov a whale is being dropped on top of you.jpg",0,0
//Break Periods
2,69436,72240
//Storyboard Layer 0 (Background)
//Storyboard Layer 1 (Fail)
//Storyboard Layer 2 (Pass)
//Storyboard Layer 3 (Foreground)
//Storyboard Layer 4 (Overlay)
//Storyboard Sound Samples

[TimingPoints]
300,319.148936170213,6,2,1,30,1,0
8597,-100,6,2,6,30,0,0
11469,-100,6,2,1,30,0,0
11789,-100,6,2,6,30,0,0
15299,-100,6,2,1,30,0,0
15619,-100,6,2,3,50,0,0
17374,-100,6,2,1,50,0,0
18331,-100,6,2,1,50,0,0
18810,-100,6,2,1,50,0,0
19448,-125,6,2,1,50,0,0
21363,-111.111111111111,6,2,1,50,0,0
21602,-111.111111111111,6,2,1,5,0,0
21682,-111.111111111111,6,2,1,50,0,0
23278,-100,6,2,1,70,0,0
26151,-100,6,2,1,75,0,0
26470,-100,6,2,1,80,0,0
27108,-100,6,2,1,70,0,0
33092,-100,6,2,1,5,0,0
33172,-100,6,2,1,70,0,0
33570,-100,6,2,1,5,0,0
33650,-100,6,2,1,70,0,0
34768,-90.9090909090909,6,2,1,70,0,0
36523,-90.9090909090909,6,2,1,40,0,0
36682,-90.9090909090909,6,2,1,70,0,0
40672,-90.9090909090909,6,2,2,70,0,0
40831,-90.9090909090909,6,2,1,70,0,0
42427,-133.333333333333,6,2,4,75,0,0
42906,-133.333333333333,6,2,1,75,0,0
45937,-90.9090909090909,6,2,1,60,0,0
46257,-100,6,2,1,60,0,0
48172,-86.9565217391304,6,2,1,65,0,0
48491,-86.9565217391304,6,2,1,70,0,0
48810,-86.9565217391304,6,2,1,75,0,0
49129,-86.9565217391304,6,2,1,80,0,0
49768,-86.9565217391304,6,2,1,40,0,0
50087,-80,6,2,2,70,0,1
50725,-80,6,2,1,70,0,1
51044,-80,6,2,3,70,0,1
51283,-80,6,2,3,5,0,1
51363,-80,6,2,1,70,0,1
51602,-80,6,2,1,5,0,1
51682,-80,6,2,1,70,0,1
51921,-80,6,2,1,5,0,1
52002,-80,6,2,3,70,0,1
52321,-80,6,2,1,70,0,1
52786,-80,6,2,1,70,0,1
52959,-80,6,2,3,70,0,1
53597,-80,6,2,1,70,0,1
54395,-80,6,2,2,70,0,1
54874,-74.0740740740741,6,2,1,80,0,1
55512,-74.0740740740741,6,2,1,70,0,1
55831,-76.9230769230769,6,2,4,80,0,1
56789,-76.9230769230769,6,2,1,80,0,1
56948,-76.9230769230769,6,2,1,70,0,1
57279,-76.9230769230769,6,2,1,70,0,1
57427,-76.9230769230769,6,2,1,70,0,1
57746,-76.9230769230769,6,2,2,70,0,1
58225,-76.9230769230769,6,2,2,50,0,1
58384,-76.9230769230769,6,2,1,50,0,1
58704,-66.6666666666667,6,2,5,80,0,1
59182,-66.6666666666667,6,2,1,80,0,1
59342,-66.6666666666667,6,2,1,50,0,1
59661,-76.9230769230769,6,2,3,80,0,1
60140,-76.9230769230769,6,2,3,50,0,1
60299,-76.9230769230769,6,2,1,50,0,1
60619,-76.9230769230769,6,2,3,80,0,1
61257,-76.9230769230769,6,2,1,80,0,1
65406,-76.9230769230769,6,2,2,60,0,1
66682,-76.9230769230769,6,2,1,60,0,1
67321,-142.857142857143,6,2,1,80,0,0
68278,-142.857142857143,6,2,1,40,0,0
69236,-333.333333333333,6,2,6,30,0,0
69315,-333.333333333333,6,2,6,10,0,0
73065,-333.333333333333,6,2,6,30,0,0
73145,-333.333333333333,6,2,6,10,0,0
74023,-333.333333333333,6,2,6,10,0,0
75938,-333.333333333333,6,2,6,30,0,0
75958,-333.333333333333,6,2,6,30,0,0
76018,-333.333333333333,6,2,6,10,0,0
76895,-333.333333333333,6,2,6,30,0,0
76975,-333.333333333333,6,2,6,10,0,0
80725,-333.333333333333,6,2,6,30,0,0
82720,-333.333333333333,6,2,6,10,0,0
84235,-333.333333333333,6,2,6,20,0,0
87746,357.142857142857,6,2,1,30,1,0
87924,394.736842105263,6,2,1,30,1,0
88121,461.538461538462,6,2,1,30,1,0
88580,-100,6,2,1,5,0,0

[Colours]
Combo1 : 160,160,160
Combo2 : 255,128,128
Combo3 : 255,21,21
Combo4 : 100,177,255
Combo5 : 4,130,255
Combo6 : 215,215,215

[HitObjects]
256,192,15619,12,0,19129,0:0:0:0:
67,357,19448,70,0,P|47:330|50:292,1,56,0|0,3:3|3:3,0:0:0:0:
119,262,19768,2,0,P|168:275|210:277,2,84,8|8|8,2:2|2:2|2:2,0:0:0:0:
16,188,20565,1,8,2:2:0:0:
16,188,20725,2,0,P|26:129|78:117,1,112,8|0,2:2|0:0,0:0:0:0:
161,22,21363,6,0,P|223:39|256:43,1,94.499997116089,2|0,0:0|0:0,0:0:0:0:
286,53,21682,2,0,P|305:15|326:7,1,62.9999980773926,2|2,0:2|0:2,0:0:0:0:
405,55,22002,2,0,P|393:98|390:122,2,62.9999980773926,0|0|2,0:0|0:0|0:2,0:0:0:0:
268,158,22640,2,0,P|249:196|228:204,1,62.9999980773926,2|2,0:2|0:2,0:0:0:0:
156,167,22959,1,2,0:2:0:0:
177,364,23278,6,0,P|236:336|316:321,1,140,0|2,3:3|0:2,0:0:0:0:
398,349,23757,2,0,P|431:282|387:246,1,140,2|2,3:3|0:2,0:0:0:0:
310,202,24236,2,0,P|319:161|333:132,2,70,0|0|2,3:3|0:0|0:2,0:0:0:0:
233,258,24714,2,0,P|213:167|182:104,1,140,2|0,3:3|0:0,0:0:0:0:
224,32,25193,21,0,3:3:0:0:
398,68,25512,1,2,0:2:0:0:
398,68,25672,2,0,P|447:109|416:166,1,140,2|0,3:3|0:0,0:0:0:0:
328,149,26151,2,0,P|323:126|315:110,3,35,8|4|4|4,2:3|2:3|3:3|3:3,0:0:0:0:
321,169,26470,1,2,1:3:0:0:
108,348,27108,54,0,P|36:333|36:265,1,140,6|0,3:2|0:0,0:0:0:0:
107,233,27587,2,0,P|165:254|250:263,1,140,2|0,3:3|3:3,0:0:0:0:
322,225,28065,1,0,1:1:0:0:
322,225,28225,1,0,3:3:0:0:
341,135,28385,2,0,B|285:91|285:91|257:155,1,140,0|2,3:3|3:3,0:0:0:0:
414,285,29023,22,0,P|432:206|456:149,1,140,0|0,3:3|0:0,0:0:0:0:
512,84,29502,2,0,P|498:19|433:12,1,140,2|0,3:3|3:3,0:0:0:0:
345,28,29980,1,0,1:1:0:0:
345,28,30140,1,0,3:3:0:0:
364,118,30300,2,0,B|308:161|308:161|280:97,1,140,0|2,3:3|3:2,0:0:0:0:
112,25,30938,54,0,P|52:29|33:104,1,140,2|0,3:2|0:0,0:0:0:0:
58,177,31417,2,0,P|117:160|202:157,1,140,0|0,3:3|3:3,0:0:0:0:
253,233,31895,1,0,1:1:0:0:
253,233,32055,1,0,3:3:0:0:
234,323,32215,2,0,B|289:366|289:366|317:302,1,140,0|2,3:3|3:3,0:0:0:0:
472,368,32853,22,0,P|514:326|506:273,1,105,2|0,3:3|0:0,0:0:0:0:
488,256,33172,1,0,0:0:0:0:
409,217,33331,2,0,P|409:157|366:125,1,105,0|0,3:3|0:0,0:0:0:0:
341,126,33650,1,0,3:3:0:0:
276,196,33810,54,0,P|213:173|131:162,1,140,0|0,1:1|1:1,0:0:0:0:
61,127,34289,1,0,3:3:0:0:
61,127,34369,1,0,3:3:0:0:
61,127,34448,2,0,P|68:83|98:66,1,70,0|0,1:1|1:1,0:0:0:0:
155,6,34768,6,0,B|235:-6|207:61|298:50,1,154.000004699707,6|0,3:1|0:0,0:1:0:0:
380,66,35246,2,0,P|384:37|413:-2,2,77.0000023498536,2|0|0,3:1|3:3|3:3,0:0:0:0:
448,121,35725,2,2,P|498:131|424:222,1,231.000007049561,6|2,1:2|2:1,0:1:0:0:
240,371,36682,6,2,P|231:299|209:215,1,154.000004699707,6|0,3:2|0:0,0:1:0:0:
164,149,37161,1,2,3:1:0:0:
277,34,37480,1,0,3:3:0:0:
277,34,37640,2,2,B|357:22|329:89|420:78,2,154.000004699707,6|2|2,1:2|3:3|3:3,0:1:0:0:
133,65,38597,70,0,B|61:37|61:37|10:104,1,154.000004699707,6|0,3:2|0:0,0:2:0:0:
2,180,39076,1,2,3:2:0:0:
59,331,39395,1,0,3:3:0:0:
142,365,39555,1,6,1:2:0:0:
142,365,39714,2,0,B|184:373|210:328|189:322|213:275|263:282,1,154.000004699707,2|0,3:2|0:0,0:0:0:0:
300,355,40193,1,2,3:3:0:0:
280,189,40512,21,6,3:1:0:0:
345,125,40672,1,8,2:2:0:0:
345,125,40752,1,8,2:2:0:0:
345,125,40831,2,0,P|386:123|418:147,1,77.0000023498536,8|0,2:1|3:3,0:0:0:0:
462,228,41151,1,0,1:1:0:0:
462,228,41310,1,8,2:3:0:0:
458,319,41470,2,0,P|415:326|369:340,1,77.0000023498536,0|2,1:1|2:3,0:0:0:0:
294,289,41789,54,0,L|252:280,3,38.5000011749268,0|8|4|4,1:1|1:3|2:3|2:3,0:0:0:0:
219,304,42108,2,0,L|177:313,3,38.5000011749268,4|4|4|4,2:3|2:3|2:3|2:3,0:0:0:0:
142,290,42427,38,0,P|86:272|90:214,1,105.000004005432,6|0,3:2|0:0,0:0:0:0:
30,158,42906,2,0,P|48:102|106:106,1,105.000004005432,2|0,3:2|0:0,0:0:0:0:
142,166,43385,2,0,P|168:156|193:152,1,52.5000020027161,2|0,3:2|0:0,0:0:0:0:
216,169,43624,1,0,0:0:0:0:
216,169,43704,1,0,0:0:0:0:
316,128,43863,2,0,P|301:177|292:245,1,105.000004005432,2|0,3:2|0:0,0:0:0:0:
320,319,44342,6,0,P|346:309|371:305,1,52.5000020027161,2|0,3:2|0:0,0:0:0:0:
394,322,44581,1,0,0:0:0:0:
394,322,44661,1,0,0:0:0:0:
490,304,44821,2,0,P|482:329|478:355,2,52.5000020027161,2|0|0,3:2|0:0|0:0,0:0:0:0:
457,224,45300,2,0,B|441:164|423:187|408:122,2,105.000004005432,2|2|2,3:2|3:2|3:2,0:0:0:0:
494,96,46257,70,0,P|453:35|384:44,1,140,2|0,3:2|0:0,0:0:0:0:
322,99,46736,2,0,B|288:85|257:110|263:121|233:148|191:123,1,140,2|0,3:2|0:0,0:0:0:0:
140,52,47214,2,0,P|117:93|78:109,1,70,2|0,3:2|0:0,0:0:0:0:
8,83,47534,21,2,3:3:0:0:
8,83,47613,1,0,3:3:0:0:
8,83,47693,2,0,P|17:111|21:129,1,35,0|0,3:3|3:3,0:0:0:0:
27,162,47853,1,0,1:1:0:0:
160,254,48172,38,0,B|185:285|185:285|230:272,1,80.5000015354157,2|2,1:2|3:2,0:0:0:0:
303,220,48491,2,0,B|328:189|328:189|373:202,1,80.5000015354157,2|2,1:2|3:2,0:0:0:0:
444,261,48810,1,2,1:2:0:0:
444,261,48970,1,2,3:2:0:0:
512,201,49129,1,2,1:2:0:0:
493,113,49289,1,2,2:3:0:0:
201,362,49768,6,0,P|224:364|245:370,3,40.2500007677078,2|2|2|2,2:2|2:2|2:2|2:2,0:0:0:0:
168,360,50087,38,0,P|158:277|120:169,1,175,6|0,3:1|0:0,0:0:0:0:
68,119,50565,1,0,3:3:0:0:
68,119,50725,2,0,P|69:72|121:47,1,87.5,2|2,2:3|2:2,0:0:0:0:
188,48,51044,22,0,B|229:0|229:0|289:31,1,131.25,2|0,1:1|0:0,0:0:0:0:
332,49,51363,2,0,B|394:32|394:32|426:94,1,131.25,2|0,3:3|0:0,0:0:0:0:
445,135,51682,2,0,B|500:165|500:165|477:232,1,131.25,2|0,3:3|0:0,0:0:0:0:
467,271,52002,54,0,B|427:289|383:249|401:239|363:195|311:216,1,175,2|2,3:1|2:3,0:0:0:0:
231,279,52480,2,0,P|218:208|190:104,1,175,0|0,3:3|0:0,0:0:0:0:
259,40,52959,21,2,1:1:0:0:
259,40,53119,2,0,B|223:7|223:7|179:18,1,87.5,0|0,3:3|0:0,0:0:0:0:
116,76,53438,1,0,3:3:0:0:
116,76,53518,1,0,3:3:0:0:
116,76,53597,1,2,1:3:0:0:
34,230,53917,54,0,P|67:195|112:191,1,87.5,6|0,3:2|0:0,0:0:0:0:
182,243,54236,1,2,2:3:0:0:
182,243,54395,2,0,P|258:256|356:287,1,175,2|0,2:3|3:3,0:0:0:0:
390,314,54794,1,0,3:3:0:0:
390,314,54874,22,0,P|417:319|437:309,3,47.2500001802444,4|0|0|8,1:1|1:1|1:1|2:3,0:0:0:0:
481,309,55193,2,0,P|503:293|511:272,3,47.2500001802444,8|8|8|8,2:3|2:3|3:3|3:3,0:0:0:0:
510,227,55512,2,0,P|465:185|427:198,1,94.5000003604889,4|4,2:3|2:3,0:0:0:0:
363,136,55831,54,0,B|282:144|282:144|268:158|268:158|173:166,1,181.999991668702,6|0,3:2|0:0,0:0:0:0:
130,79,56310,2,0,B|215:71|215:71|229:57|229:57|310:49,1,181.999991668702,6|0,1:2|0:0,0:0:0:0:
395,21,56789,1,4,3:1:0:0:
465,105,56948,1,0,1:1:0:0:
465,105,57028,1,0,1:1:0:0:
465,105,57108,2,0,P|467:152|434:189,1,90.9999958343508,2|2,1:3|3:3,0:0:0:0:
358,227,57427,1,8,2:3:0:0:
358,227,57587,1,4,2:3:0:0:
396,324,57746,22,0,P|291:291|202:280,1,181.999991668702,6|0,3:1|0:0,0:0:0:0:
145,337,58225,1,0,3:3:0:0:
180,127,58704,54,2,B|185:40|245:97|289:34|155:4|62:10|15:186|12:243|120:132|131:251,1,420.000016021729,6|2,1:1|2:3,0:1:0:0:
145,337,59502,1,0,3:3:0:0:
219,281,59661,22,0,B|268:302|305:252|287:249|316:202|376:220,1,181.999991668702,6|0,3:1|0:0,0:0:0:0:
464,261,60140,2,0,P|477:205|494:164,1,90.9999958343508,0|2,3:3|2:3,0:0:0:0:
490,79,60459,1,0,3:3:0:0:
407,113,60619,53,6,1:1:0:0:
407,113,60778,2,0,P|314:80|223:67,1,181.999991668702,0|0,3:3|3:3,0:0:0:0:
155,15,61257,2,0,P|112:35|104:76,1,90.9999958343508,2|2,2:3|3:2,0:0:0:0:
170,146,61576,21,6,3:1:0:0:
170,146,61736,1,0,3:3:0:0:
105,219,61895,2,0,P|60:226|17:241,1,90.9999958343508,2|0,2:3|0:0,0:0:0:0:
50,141,62214,1,0,3:3:0:0:
193,239,62534,54,0,B|248:216|274:272|261:280|287:323|350:307,1,181.999991668702,4|0,1:1|0:0,0:0:0:0:
426,271,63012,1,0,3:3:0:0:
426,271,63172,2,0,P|404:224|362:217,1,90.9999958343508,0|4,1:1|2:3,0:0:0:0:
282,166,63491,22,0,P|270:113|253:70,1,90.9999958343508,4|0,1:1|3:3,0:0:0:0:
305,0,63810,1,0,3:3:0:0:
393,33,63970,2,0,P|442:5|480:13,1,90.9999958343508,0|2,1:1|3:3,0:0:0:0:
512,92,64289,1,0,3:3:0:0:
459,157,64448,54,0,P|416:141|371:132,1,90.9999958343508,6|0,1:2|3:3,0:0:0:0:
282,166,64767,1,0,3:3:0:0:
192,144,64927,2,0,P|164:178|177:221,2,90.9999958343508,0|0|0,1:1|3:3|1:1,0:0:0:0:
168,49,65406,70,0,P|125:64|80:73,1,90.9999958343508,12|0,3:2|0:0,0:0:0:0:
37,59,65645,1,8,2:2:0:0:
37,59,65725,2,0,P|7:94|21:142,1,90.9999958343508,8|8,3:2|2:2,0:0:0:0:
76,208,66044,1,8,3:2:0:0:
76,208,66204,1,8,2:2:0:0:
33,308,66363,22,0,P|80:292|130:290,1,90.9999958343508,8|8,3:2|2:2,0:0:0:0:
211,339,66682,2,0,B|255:356|255:356|287:317,1,90.9999958343508,8|8,3:1|2:1,0:0:0:0:
309,234,67002,5,2,3:3:0:0:
331,237,67081,1,0,1:1:0:0:
354,239,67161,1,0,1:1:0:0:
376,245,67241,1,0,1:1:0:0:
399,251,67321,38,2,B|485:257|522:206|529:138|464:61|380:112|398:171|415:164,1,293.999991027832,4|2,3:2|2:2,0:1:0:0:
413,165,69236,53,2,2:1:0:0:
10,184,73065,6,0,B|86:138|167:188|163:252|150:266|142:273|133:324|210:376|286:330,1,377.999988464356,2|2,2:2|2:2,0:0:0:0:
280,333,76895,70,0,B|285:115|564:6|580:235|394:136|399:280,1,503.999984619141,2|2,2:2|2:2,0:0:0:0:
306,51,82640,6,0,P|213:49|239:134,1,209.999993591309,2|2,2:2|2:2,0:0:0:0:
256,192,84555,12,2,88582,2:2:0:0:
