osu file format v14

[General]
AudioFilename: audio.mp3
AudioLeadIn: 0
PreviewTime: 50007
Countdown: 0
SampleSet: Soft
StackLeniency: 0.6
Mode: 0
LetterboxInBreaks: 0
WidescreenStoryboard: 1

[Editor]
Bookmarks: 8597,19448,21363,23278,27108,34768,42427,46257
DistanceSpacing: 0.8
BeatDivisor: 4
GridSize: 32
TimelineZoom: 1.9

[Metadata]
Title:Letter From Ajax
TitleUnicode:埃阿斯的回信
Artist:Yu-Peng Chen @HOYO-MiX
ArtistUnicode:陈致逸 @HOYO-MiX
Creator:- ascended -
Version:Aistre's Foul Legacy: Raging Tide
Source:Genshin Impact
Tags:アヤックスからの返信 Dimeng Yuan mihoyo tartaglia hydro snezhnaya gacha childe character demo theme ost soundtrack the stellar moments videogame video game original rock instrumental mildly accurate mildy_accurate some hero some_hero aistre alphabet venax farewell of 陳致逸 Zhiyi Chen Ayakkusu kara no henshin Ai A Si De huixin 米哈游 原神 达达利亚 達達利亞 公子 阿贾克斯 fatui harbinger
BeatmapID:3079942
BeatmapSetID:1456207

[Difficulty]
HPDrainRate:5
CircleSize:4.2
OverallDifficulty:8.5
ApproachRate:9.2
SliderMultiplier:1.8
SliderTickRate:1

[Events]
//Background and Video events
0,0,"pov a whale is being dropped on top of you.jpg",0,0
//Break Periods
//Storyboard Layer 0 (Background)
//Storyboard Layer 1 (Fail)
//Storyboard Layer 2 (Pass)
//Storyboard Layer 3 (Foreground)
//Storyboard Layer 4 (Overlay)
//Storyboard Sound Samples

[TimingPoints]
300,319.148936170213,6,2,1,30,1,0
8597,-384.615384615385,6,2,6,30,0,0
8677,-384.615384615385,6,2,6,15,0,0
11469,-384.615384615385,6,2,1,30,0,0
11789,-384.615384615385,6,2,6,30,0,0
11869,-384.615384615385,6,2,6,15,0,0
15299,-384.615384615385,6,2,1,30,0,0
15619,-200,6,2,3,50,0,0
15698,-200,6,2,1,50,0,0
17374,-200,6,2,1,50,0,0
18331,-200,6,2,1,50,0,0
18810,-200,6,2,1,50,0,0
19129,-200,6,2,1,50,0,0
19448,-153.846153846154,6,2,1,50,0,0
21363,-117.647058823529,6,2,1,50,0,0
21602,-117.647058823529,6,2,1,50,0,0
21682,-117.647058823529,6,2,1,50,0,0
23198,-117.647058823529,6,2,1,50,0,0
23278,-100,6,2,1,70,0,0
23996,-100,6,2,1,5,0,0
24076,-100,6,2,1,70,0,0
24475,-100,6,2,1,70,0,0
26151,-100,6,2,1,75,0,0
26470,-333.333333333333,6,2,1,80,0,0
27028,-333.333333333333,6,2,1,5,0,0
27108,-66.6666666666667,6,2,1,70,0,0
27587,-83.3333333333333,6,2,1,70,0,0
28624,-83.3333333333333,6,2,1,5,0,0
28704,-83.3333333333333,6,2,1,70,0,0
30619,-66.6666666666667,6,2,1,70,0,0
30778,-66.6666666666667,6,2,1,5,0,0
30938,-66.6666666666667,6,2,1,70,0,0
32453,-66.6666666666667,6,2,1,5,0,0
32534,-66.6666666666667,6,2,1,70,0,0
33092,-66.6666666666667,6,2,1,70,0,0
33172,-66.6666666666667,6,2,1,70,0,0
33570,-66.6666666666667,6,2,1,70,0,0
33651,-66.6666666666667,6,2,1,70,0,0
35007,-66.6666666666667,6,2,1,5,0,0
35087,-66.6666666666667,6,2,1,70,0,0
35246,-100,6,2,1,70,0,0
35725,-55.5555555555556,6,2,1,70,0,0
36443,-133.333333333333,6,2,1,70,0,0
36523,-133.333333333333,6,2,1,40,0,0
36682,-55.5555555555556,6,2,1,70,0,0
37640,-45.4545454545455,6,2,1,70,0,0
38597,-66.6666666666667,6,2,1,70,0,0
39315,-66.6666666666667,6,2,1,5,0,0
39395,-66.6666666666667,6,2,1,70,0,0
40672,-66.6666666666667,6,2,2,70,0,0
40831,-66.6666666666667,6,2,1,70,0,0
42427,-100,6,2,4,75,0,0
42906,-100,6,2,1,75,0,0
44102,-100,6,2,1,5,0,0
44182,-100,6,2,1,75,0,0
45937,-66.6666666666667,6,2,1,60,0,0
46257,-66.6666666666667,6,2,1,60,0,0
46736,-100,6,2,1,60,0,0
48172,-66.6666666666667,6,2,1,65,0,0
48491,-66.6666666666667,6,2,1,70,0,0
48810,-66.6666666666667,6,2,1,75,0,0
49129,-66.6666666666667,6,2,1,80,0,0
49768,-66.6666666666667,6,2,1,40,0,0
50087,-66.6666666666667,6,2,2,70,0,0
50725,-66.6666666666667,6,2,1,70,0,0
51044,-66.6666666666667,6,2,3,70,0,0
51283,-66.6666666666667,6,2,3,70,0,0
51363,-100,6,2,1,70,0,0
51602,-100,6,2,1,70,0,0
51682,-100,6,2,1,70,0,0
51921,-100,6,2,1,70,0,0
52002,-66.6666666666667,6,2,3,70,0,0
52241,-66.6666666666667,6,2,3,5,0,0
52321,-66.6666666666667,6,2,1,70,0,0
52959,-66.6666666666667,6,2,3,70,0,0
53597,-66.6666666666667,6,2,1,70,0,0
53917,-100,6,2,1,70,0,0
54395,-100,6,2,2,70,0,0
54874,-66.6666666666667,6,2,1,80,0,0
55512,-66.6666666666667,6,2,1,70,0,0
55831,-57.1428571428571,6,2,4,80,0,0
56070,-57.1428571428571,6,2,4,80,0,0
56151,-57.1428571428571,6,2,4,80,0,0
56229,-57.1428571428571,6,2,4,5,0,0
56310,-57.1428571428571,6,2,4,80,0,0
56549,-57.1428571428571,6,2,4,80,0,0
56630,-57.1428571428571,6,2,4,80,0,0
56789,-57.1428571428571,6,2,1,80,0,0
56948,-57.1428571428571,6,2,1,70,0,0
57746,-66.6666666666667,6,2,2,70,0,0
58225,-66.6666666666667,6,2,2,50,0,0
58384,-66.6666666666667,6,2,1,50,0,0
58704,-45.4545454545455,6,2,5,80,0,0
59182,-45.4545454545455,6,2,1,80,0,0
59342,-45.4545454545455,6,2,1,50,0,0
59661,-66.6666666666667,6,2,3,80,0,0
60140,-66.6666666666667,6,2,3,50,0,0
60299,-66.6666666666667,6,2,1,50,0,0
60619,-50,6,2,3,80,0,0
61257,-50,6,2,1,80,0,0
62134,-50,6,2,1,5,0,0
62214,-100,6,2,1,80,0,0
62534,-66.6666666666667,6,2,1,80,0,0
65406,-57.1428571428571,6,2,2,60,0,0
66682,-57.1428571428571,6,2,1,60,0,0
67321,-166.666666666667,6,2,1,80,0,0
68278,-57.1428571428571,6,2,1,40,0,0
69236,-400,6,2,6,30,0,0
69315,-400,6,2,6,10,0,0
73065,-400,6,2,6,30,0,0
73145,-400,6,2,6,10,0,0
74023,-400,6,2,6,10,0,0
75938,-400,6,2,6,30,0,0
76018,-400,6,2,6,10,0,0
76895,-400,6,2,6,30,0,0
76975,-400,6,2,6,10,0,0
80725,-384.615384615385,6,2,6,30,0,0
80805,-384.615384615385,6,2,6,10,0,0
82720,-384.615384615385,6,2,6,10,0,0
84236,-57.1428571428571,6,2,6,20,0,0
87746,357.142857142857,6,2,1,30,1,0
87924,394.736842105263,6,2,1,30,1,0
88121,461.538461538462,6,2,1,30,1,0
88580,-100,6,2,1,5,0,0

[Colours]
Combo1 : 160,160,160
Combo2 : 255,128,128
Combo3 : 255,21,21
Combo4 : 100,177,255
Combo5 : 4,130,255
Combo6 : 215,215,215

[HitObjects]
123,166,8597,70,0,B|140:135|193:111|281:173|236:270|177:375|47:282|18:234|113:140|135:142,1,421.199997429199,2|2,2:2|2:2,0:0:0:0:
437,136,11789,6,0,B|417:141|382:133|360:69|418:36|486:5|519:99|515:135|432:148|426:145|426:145|434:185|363:148|319:226|319:226|337:218|340:128|307:138,1,514.79999685791,2|2,2:2|2:2,0:0:0:0:
33,360,15619,70,0,P|77:340|133:323,1,90,2|0,2:2|0:0,0:0:0:0:
185,359,16097,1,2,0:0:0:0:
277,331,16257,1,0,0:0:0:0:
185,359,16417,1,2,0:0:0:0:
64,243,16576,2,0,P|112:247|169:260,1,90,2|0,0:0|0:0,0:0:0:0:
272,185,17055,2,0,P|288:223|298:242,1,45,2|0,0:0|0:0,0:0:0:0:
155,162,17374,5,2,0:2:0:0:
155,162,17454,1,2,0:2:0:0:
155,162,17534,2,0,P|171:108|177:70,1,90,2|2,0:2|0:0,0:0:0:0:
238,37,18012,1,2,0:0:0:0:
344,13,18172,1,0,0:0:0:0:
238,37,18331,1,2,2:3:0:0:
287,95,18491,70,0,P|278:126|274:144,1,45,2|0,0:0|0:0,0:0:0:0:
202,226,18810,2,0,P|211:257|215:275,1,45,2|0,2:3|0:0,0:0:0:0:
271,362,19129,1,2,0:0:0:0:
505,287,19448,5,0,3:3:0:0:
505,287,19608,1,0,3:3:0:0:
436,219,19768,2,0,L|347:203,1,87.749995983124,8|8,2:2|2:2,0:0:0:0:
116,57,20246,2,0,L|41:44,1,58.4999973220826,8|0,2:2|0:0,0:0:0:0:
44,56,20486,2,0,L|58:102,1,29.2499986610413,0|8,0:0|2:2,0:0:0:0:
86,224,20725,70,0,B|47:233|47:233|35:228|35:228|13:160,1,116.999994644165,8|0,2:2|0:0,0:0:0:0:
34,153,21124,1,0,0:0:0:0:
34,153,21204,2,0,L|84:158,1,29.2499986610413
146,303,21363,6,0,B|182:317|225:294|205:276|245:247|291:260,1,153.000002918243,2|2,0:0|0:2,0:0:0:0:
350,220,21842,1,2,0:2:0:0:
398,370,22002,1,0,0:0:0:0:
350,220,22161,1,0,0:0:0:0:
409,166,22321,70,0,P|454:167|477:195,1,76.5000014591217,2|2,0:2|0:2,0:0:0:0:
220,20,22640,6,0,P|263:31|309:35,1,76.5000014591217,2|2,0:2|0:2,0:0:0:0:
23,227,22959,69,2,0:2:0:0:
23,227,23278,22,0,B|62:253|41:276|91:307,1,90,0|0,3:3|0:0,0:0:0:0:
272,263,23597,1,2,0:2:0:0:
272,263,23677,1,0,0:0:0:0:
272,263,23757,2,0,P|257:194|174:191,1,135,2|0,3:3|0:0,0:0:0:0:
195,188,24076,1,2,0:2:0:0:
160,332,24236,22,0,B|206:335|200:365|258:367,1,90,0|0,3:3|0:0,0:0:0:0:
242,365,24475,1,0,0:0:0:0:
242,365,24555,1,2,0:2:0:0:
382,166,24714,2,0,B|435:213|508:201|506:201|448:216|447:270,1,180,2|0,3:3|0:0,0:0:0:0:
363,379,25193,54,0,P|367:329|343:286,1,90,0|0,3:3|0:0,0:0:0:0:
350,294,25432,1,0,0:0:0:0:
350,294,25512,1,2,0:2:0:0:
145,78,25672,2,0,B|126:139|68:161|68:161|98:177|106:211,1,180,2|0,3:3|0:0,0:0:0:0:
508,81,26151,5,8,2:3:0:0:
512,85,26230,1,4,2:3:0:0:
497,40,26310,1,4,3:3:0:0:
454,12,26390,1,4,3:3:0:0:
380,43,26470,2,0,P|390:68|404:139,1,94.4999971160889,2|0,1:3|0:0,0:0:0:0:
413,147,27108,70,0,B|344:177|268:120|311:90|250:31|159:47,1,270.000010299683,6|0,3:2|0:0,0:0:0:0:
53,198,27587,2,0,P|37:143|10:97,1,107.999996704102,2|0,3:3|0:0,0:0:0:0:
119,132,27906,1,0,3:3:0:0:
221,248,28065,21,0,1:1:0:0:
11,321,28225,1,0,3:3:0:0:
221,248,28385,2,0,B|255:219|261:178|261:178|266:218|304:249,1,161.999995056153,0|0,3:3|0:0,0:0:0:0:
265,310,28704,2,0,P|273:323|262:310,1,53.9999983520508,2|0,3:3|0:0,0:0:0:0:
507,293,28863,53,0,0:0:0:0:
507,293,28943,1,0,0:0:0:0:
507,293,29023,2,0,B|447:296|412:249|431:226|402:174|337:179,1,215.999993408203,0|0,3:3|0:0,0:0:0:0:
506,38,29502,2,0,P|489:103|483:155,1,107.999996704102,2|0,3:3|0:0,0:0:0:0:
403,69,29821,1,0,3:3:0:0:
156,135,29980,21,0,1:1:0:0:
336,9,30140,1,0,3:3:0:0:
156,135,30300,2,0,B|115:135|99:105|99:105|-7:89,1,161.999995056153,0|0,3:3|0:0,0:0:0:0:
5,90,30619,2,0,B|41:128|41:128|31:134|31:134|58:68,1,135.000005149842,2|0,3:2|0:0,0:0:0:0:
230,38,30938,54,0,B|273:95|273:95|267:106|267:106|166:142|166:142|141:237,1,270.000010299683,2|0,3:2|0:0,0:0:0:0:
253,331,31417,2,0,B|226:261|226:261|217:253|217:253|236:177,1,135.000005149842,0|0,3:3|0:0,0:0:0:0:
304,240,31736,1,0,3:3:0:0:
123,349,31895,21,0,1:1:0:0:
402,264,32055,1,0,3:3:0:0:
123,349,32214,2,0,B|161:311|161:311|151:291|151:291|63:248|63:248|49:276,1,202.500007724762,0|0,3:3|0:0,0:0:0:0:
39,349,32534,2,0,B|20:372|20:372|47:359|47:359|39:348,1,67.5000025749208,2|0,3:3|0:0,0:0:0:0:
151,176,32693,53,0,0:0:0:0:
151,176,32773,1,0,0:0:0:0:
151,176,32853,2,0,B|210:199|210:199|270:166|270:166|263:158|263:158|325:113|325:113|382:132,1,270.000010299683,2|0,3:3|0:0,0:0:0:0:
371,238,33331,2,0,B|324:226|324:226|316:235|316:235|245:273,1,135.000005149842,0|2,3:3|2:3,0:0:0:0:
339,319,33651,1,0,3:3:0:0:
499,173,33810,21,0,1:1:0:0:
261,26,33970,1,0,3:3:0:0:
419,165,34129,53,0,1:1:0:0:
335,52,34289,1,0,3:3:0:0:
338,55,34369,1,0,3:3:0:0:
342,59,34448,1,0,1:1:0:0:
253,371,34608,1,0,1:1:0:0:
18,280,34768,6,0,P|-7:218|98:205,1,202.500007724762,6|0,3:1|0:0,0:1:0:0:
93,287,35087,2,0,P|46:309|28:303,1,67.5000025749208
187,67,35246,6,0,P|168:73|152:94,1,45,2|0,3:1|0:0,0:0:0:0:
229,126,35406,2,0,P|233:106|223:82,1,45,0|0,3:3|0:0,0:0:0:0:
167,166,35565,1,0,3:3:0:0:
0,50,35725,70,2,B|200:-38|355:143|382:143|382:143|365:191|307:188,1,485.999985168458,6|2,1:2|2:1,0:1:0:0:
365,291,36443,1,0,0:0:0:0:
365,291,36523,2,0,L|354:251,1,33.7500012874604,2|0,2:2|0:0,0:0:0:0:
11,229,36682,6,2,B|140:53|365:132|388:119|388:119|398:169|346:195,1,485.999985168458,6|2,3:2|3:1,0:1:0:0:
290,190,37480,1,0,3:3:0:0:
175,321,37640,70,2,B|194:151|377:117|387:99|387:99|413:129|388:167,1,396.000012084961,6|2,1:2|3:3,0:1:0:0:
312,340,38119,1,0,0:0:0:0:
315,343,38198,1,0,0:0:0:0:
319,347,38278,2,0,P|279:327|279:276,1,99.0000030212403,2|0,3:3|0:0,0:0:0:0:
347,249,38438,1,0,0:0:0:0:
179,333,38597,6,0,P|283:311|463:284,1,270.000010299683,6|0,3:2|0:0,0:0:0:0:
108,95,39076,2,0,P|193:181|281:203,1,202.500007724762,2|0,3:2|0:0,0:0:0:0:
287,198,39395,1,0,3:3:0:0:
390,68,39555,69,6,1:2:0:0:
182,131,39714,1,2,3:2:0:0:
82,323,39874,1,0,0:0:0:0:
82,323,40193,1,2,3:3:0:0:
24,11,40512,21,6,3:1:0:0:
182,131,40672,1,8,2:2:0:0:
182,131,40752,1,8,2:2:0:0:
182,131,40831,1,8,2:1:0:0:
371,92,40991,1,0,3:3:0:0:
103,4,41151,54,0,B|132:30|131:60|131:60|48:83|41:180,1,202.500007724762,0|8,1:1|2:3,0:0:0:0:
83,220,41470,2,0,B|99:259|163:226|86:326|120:311|86:277|126:226,1,135.000005149842,0|2,1:1|2:3,0:0:0:0:
320,24,41789,21,0,1:1:0:0:
318,30,41869,1,8,1:3:0:0:
314,34,41948,2,0,P|272:40|245:26,1,67.5000025749208,4|4,2:3|2:3,0:0:0:0:
470,117,42108,53,4,2:3:0:0:
479,159,42188,1,4,2:3:0:0:
456,204,42267,2,0,P|429:232|396:238,1,67.5000025749208,4|4,2:3|2:3,0:0:0:0:
335,288,42427,38,0,B|285:279|285:279|279:282|279:282|225:273|225:273|237:258|237:258|285:303,1,180,6|0,3:2|0:0,0:0:0:0:
231,364,42906,1,2,3:2:0:0:
231,364,43066,1,0,0:0:0:0:
231,364,43225,1,0,0:0:0:0:
153,229,43385,6,0,L|64:211,1,90,2|0,3:2|0:0,0:0:0:0:
64,211,43624,1,0,0:0:0:0:
64,211,43704,1,0,0:0:0:0:
322,84,43863,2,0,L|175:118,1,135,2|0,3:2|0:0,0:0:0:0:
190,114,44182,1,0,0:0:0:0:
216,300,44342,70,0,L|126:324,1,90,2|0,3:2|0:0,0:0:0:0:
129,323,44581,1,0,0:0:0:0:
129,323,44661,1,0,0:0:0:0:
435,158,44821,2,0,B|385:167|385:167|379:164|379:164|325:173|325:173|337:188|337:188|385:143,1,180,2|0,3:2|0:0,0:0:0:0:
463,264,45300,2,0,L|404:253,2,45,2|0|0,3:2|0:0|0:0,0:0:0:0:
369,67,45619,2,0,L|310:78,2,45,2|0|0,3:2|0:0|0:0,0:0:0:0:
249,134,45938,2,0,L|114:99,1,135.000005149842,2|0,3:2|0:0,0:0:0:0:
118,100,46177,1,0,0:0:0:0:
118,100,46257,6,0,B|50:131|50:131|40:145|40:145|131:227|131:227|158:167,1,270.000010299683,2|0,3:2|0:0,0:0:0:0:
256,119,46736,2,0,L|246:11,1,90,2|0,3:2|0:0,0:0:0:0:
126,342,47055,1,0,0:0:0:0:
126,342,47135,1,0,0:0:0:0:
126,342,47214,2,0,L|136:234,1,90,2|0,3:2|0:0,0:0:0:0:
422,235,47534,5,2,3:3:0:0:
406,238,47613,1,0,3:3:0:0:
366,260,47693,1,0,3:3:0:0:
336,303,47773,1,0,3:3:0:0:
321,374,47853,1,0,1:1:0:0:
52,313,48172,6,0,L|34:168,1,135.000005149842,2|2,1:2|3:2,0:0:0:0:
321,374,48491,2,0,L|303:229,1,135.000005149842,2|2,1:2|3:2,0:0:0:0:
30,48,48810,21,2,1:2:0:0:
98,105,48970,1,2,3:2:0:0:
394,144,49129,53,2,1:2:0:0:
229,269,49289,1,2,2:3:0:0:
229,269,49768,37,2,2:2:0:0:
221,267,49847,1,2,2:2:0:0:
212,249,49927,1,2,2:2:0:0:
241,222,50007,1,2,2:2:0:0:
307,282,50087,38,0,P|254:339|196:140,2,405.000015449525,6|0|2,3:1|3:3|1:1,0:0:0:0:
430,9,51363,22,0,B|393:4|369:25|369:25|386:38|394:64,1,90,2|0,3:3|0:0,0:0:0:0:
495,74,51682,2,0,B|460:88|450:118|450:118|471:121|491:140,1,90,2|0,3:3|0:0,0:0:0:0:
425,276,52002,54,0,P|339:254|193:225,1,202.500007724762,2|0,3:1|0:0,0:0:0:0:
227,230,52321,1,2,2:3:0:0:
164,317,52480,2,0,P|259:306|464:291,1,270.000010299683,0|0,3:3|0:0,0:0:0:0:
104,165,52959,22,0,P|70:185|58:213,1,67.5000025749208,2|0,1:1|0:0,0:0:0:0:
0,268,53119,2,0,P|70:304|93:364,1,135.000005149842,0|0,3:3|0:0,0:0:0:0:
136,244,53438,1,0,3:3:0:0:
136,244,53518,1,0,3:3:0:0:
136,244,53597,1,2,1:3:0:0:
22,43,53917,53,6,3:2:0:0:
235,169,54076,2,0,P|299:154|334:128,1,90,0|2,0:0|2:3,0:0:0:0:
136,244,54395,22,0,P|226:252|308:307,1,180,2|0,2:3|3:3,0:0:0:0:
312,295,54794,1,0,3:3:0:0:
392,257,54874,54,0,P|338:317|335:383,1,135.000005149842,4|0,1:1|1:1,0:0:0:0:
339,371,55113,1,8,2:3:0:0:
343,375,55193,1,8,2:3:0:0:
391,359,55273,1,8,2:3:0:0:
433,381,55353,1,8,3:3:0:0:
467,373,55432,1,8,3:3:0:0:
499,382,55512,2,0,B|510:345|510:345|491:319,1,67.5000025749208,4|4,2:3|2:3,0:0:0:0:
469,225,55672,2,0,B|458:188|458:188|477:162,1,67.5000025749208,4|0,2:3|0:0,0:0:0:0:
417,15,55831,22,0,B|410:157|266:139|195:186|195:186|213:163|246:150|240:106,1,393.750003755093,6|0,3:2|0:0,0:0:0:0:
240,112,56310,2,0,B|259:31|163:-36|32:-7|66:128|141:119|175:97,1,315.000003004074,6|0,1:2|0:0,0:0:0:0:
311,301,56789,53,4,3:1:0:0:
27,243,56948,1,0,1:1:0:0:
27,243,57028,1,0,1:1:0:0:
27,243,57108,1,2,1:3:0:0:
249,248,57268,21,2,3:3:0:0:
119,368,57427,1,8,2:3:0:0:
163,188,57587,1,4,2:3:0:0:
307,85,57746,54,0,P|356:29|387:207,1,405.000015449525,6|0,3:1|3:3,0:0:0:0:
61,244,58704,22,2,B|40:198|58:117|203:70|275:204|344:361|127:429|48:421|22:233|44:209,1,594.000018127442,6|0,1:1|3:3,0:1:0:0:
136,276,59342,1,2,2:3:0:0:
136,276,59502,1,0,3:3:0:0:
195,23,59661,54,0,P|278:84|342:368,1,405.000015449525,6|0,3:1|3:3,0:0:0:0:
85,142,60459,1,0,3:3:0:0:
425,90,60619,22,0,P|327:123|257:350,1,360,6|0,1:1|0:0,0:0:0:0:
378,377,61097,1,0,3:3:0:0:
440,336,61257,2,0,P|447:266|336:218,1,180,2|2,2:3|3:2,0:0:0:0:
90,316,61576,54,2,P|43:307|9:268,1,90,6|0,3:1|0:0,0:1:0:0:
89,239,61736,2,0,P|45:247|14:278,1,90,0|0,3:3|0:0,0:0:0:0:
140,370,61895,2,0,P|123:271|272:217,1,270,2|0,2:3|0:0,0:0:0:0:
278,280,62214,2,0,P|235:308|186:296,1,90,0|0,3:3|0:0,0:0:0:0:
77,153,62534,22,0,B|141:90|296:142|239:222|332:327|426:288,1,405.000015449525,4|0,1:1|3:3,0:0:0:0:
492,105,63172,1,0,1:1:0:0:
308,19,63331,53,4,2:3:0:0:
296,22,63411,1,4,2:3:0:0:
284,32,63491,2,0,P|292:79|319:108,1,67.5000025749208,4|0,1:1|0:0,0:0:0:0:
386,172,63651,1,0,3:3:0:0:
491,124,63810,1,0,3:3:0:0:
205,84,63970,21,0,1:1:0:0:
68,45,64129,1,2,3:3:0:0:
205,84,64289,1,0,3:3:0:0:
96,309,64448,54,0,P|83:266|64:231,1,67.5000025749208,6|0,1:2|0:0,0:0:0:0:
11,196,64608,1,0,3:3:0:0:
292,97,64768,1,0,3:3:0:0:
79,149,64927,21,0,1:1:0:0:
267,289,65087,2,0,B|292:275|292:275|299:265|299:265|330:253,1,67.5000025749208,0|0,3:3|0:0,0:0:0:0:
389,178,65246,2,0,L|408:104,1,67.5000025749208,0|0,1:1|0:0,0:0:0:0:
256,18,65406,38,0,B|193:55|193:55|182:75|182:75|213:139,1,157.500001502037,12|0,3:2|0:0,0:0:0:0:
272,188,65645,1,8,2:2:0:0:
283,183,65725,2,0,B|307:158|307:158|283:110,1,78.7500007510185,8|0,3:2|0:0,0:0:0:0:
118,221,65885,22,0,B|89:235|89:235|83:241|83:241|41:252,1,78.7500007510185,8|0,2:2|0:0,0:0:0:0:
0,179,66044,2,0,B|29:165|29:165|35:159|35:159|77:148,1,78.7500007510185,8|0,3:2|0:0,0:0:0:0:
292,270,66204,53,8,2:2:0:0:
292,270,66284,1,8,2:2:0:0:
292,270,66363,2,0,B|303:366|303:366|295:358|295:358|326:302,1,157.500001502037,8|8,3:2|2:2,0:0:0:0:
382,275,66603,1,0,0:0:0:0:
382,275,66682,2,0,B|416:300|416:300|401:345,1,78.7500007510185,8|8,3:1|2:1,0:0:0:0:
207,384,66842,2,0,B|186:349|186:349|215:304,1,78.7500007510185,8|8,2:1|2:1,0:0:0:0:
315,125,67002,37,2,3:3:0:0:
325,115,67081,1,0,1:1:0:0:
322,87,67161,1,0,1:1:0:0:
279,57,67241,1,0,1:1:0:0:
172,117,67321,38,2,P|332:66|498:35,1,323.999990112305,4|2,3:2|2:2,0:1:0:0:
139,205,69236,54,0,B|62:206|14:140|14:140|22:149|50:185|108:143|88:94|56:83|33:89|33:89|138:50|225:152|300:243|243:332|243:332|246:315|242:283|216:269|176:274|164:316|182:342|182:342|105:271|152:162|175:43|297:39|297:39|278:41|249:55|243:108|299:125|321:110|334:82|334:82|303:180|183:206,1,1575,2|0,2:1|0:0,0:1:0:0:
14,278,80725,6,0,B|7:273|-58:337|-38:369|50:432|90:361|120:295|61:254|25:270|13:291,1,280.799998286133,2|2,2:2|2:2,0:0:0:0:
512,362,84236,69,2,2:2:0:0:
483,287,84555,1,2,2:2:0:0:
256,192,85193,12,2,88582,2:2:0:0:
