osu file format v14

[General]
AudioFilename: audio.mp3
AudioLeadIn: 0
PreviewTime:53964
Countdown: 0
SampleSet: Soft
StackLeniency: 0.7
Mode: 0
LetterboxInBreaks: 0
WidescreenStoryboard: 1

[Editor]
DistanceSpacing: 0.9
BeatDivisor: 4
GridSize: 32
TimelineZoom: 1.5

[Metadata]
Title:Let's Go, Crimson Knight!
TitleUnicode:真红骑士,出发!
Artist:Yu-Peng Chen @HOYO-MiX
ArtistUnicode:陈致逸 @HOYO-MiX
Creator:Moecho
Version:sahuang's Normal
Source:Genshin Impact
Tags:sahuang koiyuki minakami yuki mtbbsben -ClariS- Yorita Yoshino CoLouRed GlaZeE 真紅の騎士、出発! 原神 米哈游 MiHoYo Klee 可莉 Keli クレー Kuree 클레 Keulle 角色演示 キャラクター実戦紹介 New Character Demo 闪耀的群星 輝く星々 OST Album The Stellar Moments 陈致逸 苑迪萌 Dimeng Yuan 龙之艺四重奏 Art of Dragon Quartet 夏之炜 Zhiwei Xia Video Game Instrumental Orchestra
BeatmapID:2836757
BeatmapSetID:1368018

[Difficulty]
HPDrainRate:5
CircleSize:3.5
OverallDifficulty:5
ApproachRate:6
SliderMultiplier:1.19999990463257
SliderTickRate:1

[Events]
//Background and Video events
0,0,"bg.jpg",0,0
//Break Periods
2,12512,18340
2,45608,51224
//Storyboard Layer 0 (Background)
//Storyboard Layer 1 (Fail)
//Storyboard Layer 2 (Pass)
//Storyboard Layer 3 (Foreground)
//Storyboard Layer 4 (Overlay)
//Storyboard Sound Samples
Sample,10652,0,"audio/voc0.ogg",75
Sample,42400,0,"audio/voc1.ogg",75
Sample,54873,0,"audio/voc2.ogg",75
Sample,84875,0,"audio/voc3.ogg",75

[TimingPoints]
420,465.116279069767,4,2,1,75,1,0
1815,472.44094488189,4,2,1,75,1,0
2287,465.116279069767,4,2,1,75,1,0
4612,-100,4,2,1,80,0,0
5077,-100,4,2,1,85,0,0
5542,-100,4,2,1,90,0,0
5891,-100,4,2,1,75,0,0
6466,465.116279069767,4,2,1,75,1,0
7396,-100,4,2,1,80,0,0
8326,-100,4,2,1,75,0,0
10186,-100,4,2,1,50,0,0
12512,468.75,4,2,1,75,1,0
14387,465.116279069767,4,2,1,75,1,0
19735,444.444444444444,4,2,1,65,1,0
20623,444.444444444444,4,2,1,70,1,0
27734,-100,4,2,1,75,0,0
34845,-100,4,2,1,80,0,0
37956,-100,4,2,1,75,0,0
38400,-100,4,2,1,70,0,0
40178,-100,4,2,1,65,0,0
40622,-100,4,2,1,75,0,0
41956,-100,4,2,1,80,0,0
45608,444.444444444444,4,2,1,75,1,0
52274,436.363636363636,4,2,1,50,1,0
52492,-100,4,2,1,52,0,0
52710,-100,4,2,1,55,0,0
52928,-100,4,2,1,57,0,0
53146,-100,4,2,1,60,0,0
53364,-100,4,2,1,62,0,0
53583,-100,4,2,1,65,0,0
53801,-100,4,2,1,70,0,0
53910,-100,4,2,1,5,0,0
54019,427.046263345196,4,2,1,75,1,0
55727,425.531914893617,4,2,1,75,1,0
59344,-100,4,2,1,80,0,0
65939,-100,4,2,1,75,0,0
69769,-100,4,2,1,90,0,0
70195,-100,4,2,1,75,0,0
70620,-100,4,2,1,90,0,0
71046,-100,4,2,1,75,0,0
71471,-100,4,2,1,90,0,0
71897,-100,4,2,1,75,0,0
72322,-100,4,2,1,90,0,0
72748,-100,4,2,1,80,0,0
73599,-100,4,2,1,95,0,0
74450,-100,4,2,1,80,0,0
75301,-100,4,2,1,95,0,0
76152,-100,4,2,1,75,0,0
76578,-100,4,2,1,80,0,0
77003,-100,4,2,1,85,0,0
77429,-100,4,2,1,90,0,0
77854,-100,4,2,1,90,0,0
78492,-100,4,2,1,80,0,0
78705,-100,4,2,1,90,0,0
79344,-100,4,2,1,80,0,0
79982,-100,4,2,1,100,0,0
80195,-100,4,2,1,80,0,0
80833,-100,4,2,1,100,0,0
81046,-100,4,2,1,80,0,0
81684,-100,4,2,1,100,0,0
81897,-100,4,2,1,80,0,0
82535,-100,4,2,1,100,0,0
82748,-100,4,2,1,80,0,0
82961,-100,4,2,1,100,0,0
83173,-100,4,2,1,80,0,0
83918,-100,4,2,1,100,0,0
84982,-100,4,2,1,80,0,0

[Colours]
Combo1 : 17,254,176
Combo2 : 173,255,95
Combo3 : 255,88,100
Combo4 : 255,94,55

[HitObjects]
91,243,420,6,0,P|150:273|196:272,2,89.9999928474427,6|2|6,3:1|0:1|3:1,0:0:0:0:
236,126,2287,6,0,P|281:107|324:108,2,89.9999928474427,6|2|6,3:1|0:1|3:1,0:0:0:0:
421,322,4147,6,0,B|444:281|444:281|433:191,1,119.999990463257,6|6,3:1|3:1,0:0:0:0:
353,137,5077,2,0,B|330:178|330:178|341:268,1,119.999990463257,6|6,3:1|3:1,0:0:0:0:
256,192,5891,12,2,7396,3:1:0:0:
115,215,8326,6,0,L|186:203,1,59.9999952316285,2|6,3:0|3:1,0:0:0:0:
260,270,9024,2,0,L|331:258,1,59.9999952316285,2|2,3:0|3:1,0:0:0:0:
428,73,10186,5,6,0:0:0:0:
387,96,19735,6,0,P|327:95|271:63,1,119.999990463257,4|2,3:2|0:3,0:0:0:0:
237,37,20401,1,2,0:0:0:0:
237,37,20623,6,0,L|226:164,1,119.999990463257,6|2,3:2|3:0,0:0:0:0:
199,204,21289,1,2,0:0:0:0:
199,204,21511,2,0,P|217:260|215:323,1,119.999990463257,2|2,3:1|3:0,0:0:0:0:
108,335,22400,2,0,P|89:278|91:218,1,119.999990463257,2|2,3:1|3:0,0:0:0:0:
100,165,23067,2,0,L|92:97,1,59.9999952316285,2|0,0:0|3:0,0:0:0:0:
161,22,23734,2,0,L|229:14,1,59.9999952316285,2|2,3:2|0:3,0:0:0:0:
278,16,24178,5,6,3:2:0:0:
278,16,24400,2,0,P|346:69|316:155,1,179.999985694886,2|2,0:1|3:2,0:0:0:0:
225,195,25511,1,2,3:2:0:0:
167,287,25956,1,6,3:2:0:0:
167,287,26178,2,0,B|303:190|352:361|465:258,1,299.999976158143,2|8,0:1|3:2,0:0:0:0:
485,168,27734,6,0,P|478:122|422:77,1,119.999990463257,12|8,3:2|0:0,0:0:0:0:
315,71,28622,2,0,L|163:62,1,119.999990463257,12|8,0:0|0:0,0:0:0:0:
145,63,29289,1,2,3:0:0:0:
145,63,29511,2,0,P|87:90|61:149,1,119.999990463257,12|10,0:0|0:0,0:0:0:0:
141,211,30400,2,0,B|123:334|123:333,1,119.999990463257,12|10,0:0|0:0,0:0:0:0:
172,363,31067,1,2,3:2:0:0:
172,363,31289,6,0,B|229:341|229:341|294:348,1,119.999990463257,14|10,0:0|0:0,0:0:0:0:
384,298,32178,2,0,B|362:241|362:241|369:176,1,119.999990463257,14|10,0:0|0:0,0:0:0:0:
370,132,32845,1,2,3:2:0:0:
370,132,33067,2,0,P|430:152|495:138,1,119.999990463257,14|10,0:0|0:0,0:0:0:0:
490,34,33956,2,0,P|430:14|365:28,1,119.999990463257,14|10,0:0|0:0,0:0:0:0:
327,48,34622,6,0,L|247:40,1,59.9999952316285,2|6,3:0|3:1,0:0:0:0:
215,58,35067,2,0,B|160:5|79:27|79:27|40:102|117:169,1,299.999976158143,2|10,0:1|0:0,0:0:0:0:
212,214,36622,1,6,3:1:0:0:
212,214,36845,2,0,P|276:195|227:325,1,299.999976158143,2|14,0:1|0:0,0:0:0:0:
188,322,38178,1,2,3:2:0:0:
188,322,38400,6,0,L|110:334,1,59.9999952316285,14|2,0:0|0:1,0:0:0:0:
83,313,38845,2,0,L|71:235,1,59.9999952316285,10|2,0:0|3:1,0:0:0:0:
73,205,39289,1,10,0:0:0:0:
131,129,39734,1,10,0:0:0:0:
236,150,40178,2,0,P|284:172|329:177,1,59.9999952316285,10|2,0:0|0:3,0:0:0:0:
324,131,40622,2,0,B|296:224|331:292|331:292|363:323|410:317,1,239.999980926514,14|14,3:2|3:2,0:0:0:0:
487,255,41956,5,6,3:1:0:0:
256,192,52274,12,6,55727,3:1:0:0:
378,279,56578,6,0,L|238:274,1,119.999990463257,2|0,3:2|3:0,0:0:0:0:
210,295,57216,1,10,0:0:0:0:
210,295,57429,2,0,P|140:332|94:320,1,119.999990463257,2|0,3:2|3:0,0:0:0:0:
63,295,58067,1,10,0:0:0:0:
63,295,58280,2,0,L|69:162,1,119.999990463257,2|2,3:2|3:2,0:0:0:0:
88,124,58918,6,0,P|128:134|153:135,1,59.9999952316285,8|2,3:2|3:1,0:0:0:0:
188,100,59344,2,0,P|244:79|322:174,1,179.999985694886,14|4,0:0|3:2,0:0:0:0:
288,311,60620,2,0,L|352:305,1,59.9999952316285,10|2,0:0|3:1,0:0:0:0:
395,279,61046,2,0,B|429:248|424:204|424:204|399:162|427:106,1,179.999985694886,14|6,0:0|3:2,0:0:0:0:
436,62,61897,1,2,0:3:0:0:
436,62,62109,2,0,L|376:53,1,59.9999952316285,10|10,0:0|0:0,0:0:0:0:
326,32,62535,6,0,P|261:37|196:36,1,119.999990463257,6|0,3:1|3:0,0:0:0:0:
158,23,63173,1,10,0:0:0:0:
158,23,63386,2,0,P|104:52|67:112,1,119.999990463257,2|0,3:1|3:0,0:0:0:0:
73,207,64237,2,0,P|107:255|159:283,1,119.999990463257,2|0,3:1|3:0,0:0:0:0:
213,265,64875,1,10,0:0:0:0:
213,265,65088,2,0,L|291:256,1,59.9999952316285,2|14,3:1|0:0,0:0:0:0:
312,221,65514,2,0,L|390:230,1,59.9999952316285,0|10,3:0|0:0,0:0:0:0:
403,271,65939,6,0,L|393:347,2,59.9999952316285,6|10|6,3:1|0:0|3:2,0:0:0:0:
502,228,66790,2,0,L|492:304,2,59.9999952316285,6|10|6,3:2|0:0|3:2,0:0:0:0:
487,180,67429,1,8,0:0:0:0:
468,129,67641,1,6,3:1:0:0:
364,161,68067,1,6,3:1:0:0:
272,103,68492,2,0,P|209:129|209:232,1,179.999985694886,6|2,3:2|0:1,0:0:0:0:
236,274,69344,5,6,3:2:0:0:
155,346,69769,2,0,P|129:344|81:309,1,59.9999952316285,6|2,3:1|0:0,0:0:0:0:
62,297,70195,1,6,3:2:0:0:
91,193,70620,2,0,P|79:169|86:110,1,59.9999952316285,6|2,3:1|0:0,0:0:0:0:
86,87,71046,1,6,3:2:0:0:
193,91,71471,2,0,P|207:69|262:45,1,59.9999952316285,6|2,3:1|0:0,0:0:0:0:
282,33,71897,1,6,3:2:0:0:
368,97,72322,2,0,L|362:158,1,59.9999952316285,6|2,3:1|0:0,0:0:0:0:
324,196,72748,6,0,B|294:254|294:254|325:319,1,119.999990463257,6|6,3:1|3:2,0:0:0:0:
416,256,73599,1,6,3:1:0:0:
416,256,73812,1,6,3:1:0:0:
477,106,74450,2,0,B|446:55|446:55|386:45,1,119.999990463257,6|6,3:1|3:2,0:0:0:0:
282,37,75301,1,6,3:1:0:0:
282,37,75514,1,6,3:1:0:0:
123,70,76152,5,0,3:0:0:0:
198,129,76578,1,0,3:0:0:0:
109,165,77003,1,0,3:0:0:0:
184,224,77429,1,6,3:1:0:0:
279,274,77854,2,0,P|351:256|429:293,1,119.999990463257,6|0,3:1|0:0,0:0:0:0:
438,306,78492,1,2,3:0:0:0:
438,306,78705,2,0,P|398:240|459:164,1,179.999985694886,6|2,3:1|3:0,0:0:0:0:
506,156,79556,5,6,3:1:0:0:
448,64,79982,2,0,L|376:55,1,59.9999952316285,6|0,3:2|0:0,0:0:0:0:
334,50,80407,1,6,3:1:0:0:
230,81,80833,2,0,P|222:123|224:162,1,59.9999952316285,6|0,3:2|0:0,0:0:0:0:
230,193,81258,1,6,3:1:0:0:
187,292,81684,2,0,L|114:286,1,59.9999952316285,6|0,3:2|0:0,0:0:0:0:
73,283,82109,1,6,3:1:0:0:
138,369,82535,2,0,L|197:373,1,59.9999952316285,6|0,3:2|0:0,0:0:0:0:
248,353,82961,6,0,P|280:345|312:333,1,59.9999952316285,6|0,3:2|0:0,0:0:0:0:
256,192,83918,12,6,84982,3:1:0:0:
