osu file format v14

[General]
AudioFilename: audio.mp3
AudioLeadIn: 0
PreviewTime:53964
Countdown: 0
SampleSet: Soft
StackLeniency: 0.4
Mode: 0
LetterboxInBreaks: 0
WidescreenStoryboard: 1

[Editor]
Bookmarks:19736,24179,27735,34846,38401,41957,55727,62535,65939,69344
DistanceSpacing: 1.2
BeatDivisor: 4
GridSize: 32
TimelineZoom: 1.7

[Metadata]
Title:Let's Go, Crimson Knight!
TitleUnicode:真红骑士,出发!
Artist:Yu-Peng Chen @HOYO-MiX
ArtistUnicode:陈致逸 @HOYO-MiX
Creator:Moecho
Version:Yoshino's Insane
Source:Genshin Impact
Tags:sahuang koiyuki minakami yuki mtbbsben -ClariS- Yorita Yoshino CoLouRed GlaZeE 真紅の騎士、出発! 原神 米哈游 MiHoYo Klee 可莉 Keli クレー Kuree 클레 Keulle 角色演示 キャラクター実戦紹介 New Character Demo 闪耀的群星 輝く星々 OST Album The Stellar Moments 陈致逸 苑迪萌 Dimeng Yuan 龙之艺四重奏 Art of Dragon Quartet 夏之炜 Zhiwei Xia Video Game Instrumental Orchestra
BeatmapID:2836758
BeatmapSetID:1368018

[Difficulty]
HPDrainRate:6
CircleSize:4.5
OverallDifficulty:7
ApproachRate:9
SliderMultiplier:2.59999990463257
SliderTickRate:1

[Events]
//Background and Video events
0,0,"bg.jpg",0,0
//Break Periods
2,12513,18574
2,45608,52274
//Storyboard Layer 0 (Background)
//Storyboard Layer 1 (Fail)
//Storyboard Layer 2 (Pass)
//Storyboard Layer 3 (Foreground)
//Storyboard Layer 4 (Overlay)
//Storyboard Sound Samples
Sample,10652,0,"audio/voc0.ogg",75
Sample,42400,0,"audio/voc1.ogg",75
Sample,54873,0,"audio/voc2.ogg",75
Sample,84875,0,"audio/voc3.ogg",75

[TimingPoints]
420,465.116279069767,4,2,1,75,1,0
1815,472.44094488189,4,2,1,75,1,0
2287,465.116279069767,4,2,1,75,1,0
4140,-83.3333333333333,4,2,1,75,0,0
4612,-83.3333333333333,4,2,1,80,0,0
5077,-83.3333333333333,4,2,1,85,0,0
5542,-83.3333333333333,4,2,1,90,0,0
5885,-100,4,2,1,90,0,0
5891,-100,4,2,1,95,0,0
6356,-100,4,2,1,50,0,0
6466,465.116279069767,4,2,1,100,1,0
6466,-100,4,2,1,75,0,0
6931,-83.3333333333333,4,2,1,75,0,0
7396,-50,4,2,1,80,0,0
7454,-50,4,2,1,25,0,0
7513,-50,4,2,1,80,0,0
7571,-50,4,2,1,25,0,0
7861,-50,4,2,1,80,0,0
7919,-50,4,2,1,25,0,0
8326,-50,4,2,1,75,0,0
8442,-50,4,2,1,25,0,0
8559,-50,4,2,1,80,0,0
8617,-50,4,2,1,25,0,0
9024,-50,4,2,1,75,0,0
9140,-50,4,2,1,25,0,0
9257,-50,4,2,1,80,0,0
9315,-50,4,2,1,25,0,0
9373,-50,4,2,1,80,0,0
9431,-50,4,2,1,25,0,0
10186,-50,4,2,1,50,0,0
12512,468.75,4,2,1,75,1,0
14387,465.116279069767,4,2,1,75,1,0
19735,444.444444444444,4,2,1,65,1,0
20623,444.444444444444,4,2,1,70,1,0
20623,-166.666666666667,4,2,1,70,0,0
24400,-100,4,2,1,70,0,0
24622,-100,4,2,1,70,0,0
27510,-100,4,2,1,72,0,0
27733,-100,4,2,1,75,0,0
34844,-100,4,2,1,80,0,0
37510,-100,4,2,1,77,0,0
37955,-100,4,2,1,75,0,0
38399,-100,4,2,1,70,0,0
40177,-100,4,2,1,65,0,0
40622,-83.3333333333333,4,2,1,75,0,0
41067,-100,4,2,1,75,0,0
41955,-100,4,2,1,80,0,0
45608,444.444444444444,4,2,1,75,1,0
52274,436.363636363636,4,2,1,50,1,0
54019,427.046263345196,4,2,1,75,1,0
55727,425.531914893617,4,2,1,75,1,0
59344,-100,4,2,1,80,0,0
59556,-100,4,2,1,75,0,0
61046,-100,4,2,1,80,0,0
61258,-100,4,2,1,75,0,0
62748,-83.3333333333333,4,2,1,85,0,0
63173,-83.3333333333333,4,2,1,75,0,0
63599,-83.3333333333333,4,2,1,85,0,0
64024,-83.3333333333333,4,2,1,75,0,0
64450,-83.3333333333333,4,2,1,85,0,0
64875,-83.3333333333333,4,2,1,75,0,0
65301,-83.3333333333333,4,2,1,85,0,0
65727,-83.3333333333333,4,2,1,75,0,0
65939,-83.3333333333333,4,2,1,75,0,0
66152,-83.3333333333333,4,2,1,70,0,0
66578,-83.3333333333333,4,2,1,72,0,0
66790,-66.6666666666667,4,2,1,72,0,0
67003,-66.6666666666667,4,2,1,75,0,0
67429,-66.6666666666667,4,2,1,77,0,0
67641,-50,4,2,1,75,0,0
67854,-50,4,2,1,37,0,0
68067,-50,4,2,1,75,0,0
68173,-50,4,2,1,37,0,0
68492,-50,4,2,1,75,0,0
69344,-66.6666666666667,4,2,1,75,0,0
69769,-66.6666666666667,4,2,1,90,0,0
70195,-66.6666666666667,4,2,1,75,0,0
70620,-66.6666666666667,4,2,1,90,0,0
71046,-66.6666666666667,4,2,1,75,0,0
71471,-66.6666666666667,4,2,1,90,0,0
71897,-66.6666666666667,4,2,1,75,0,0
72322,-66.6666666666667,4,2,1,90,0,0
72748,-100,4,2,1,80,0,0
73173,-83.3333333333333,4,2,1,80,0,0
73599,-83.3333333333333,4,2,1,95,0,0
74450,-100,4,2,1,80,0,0
74875,-83.3333333333333,4,2,1,80,0,0
75301,-83.3333333333333,4,2,1,95,0,0
76152,-83.3333333333333,4,2,1,75,0,0
76578,-83.3333333333333,4,2,1,80,0,0
77003,-83.3333333333333,4,2,1,85,0,0
77429,-83.3333333333333,4,2,1,90,0,0
77854,-133.333333333333,4,2,1,90,0,0
78280,-133.333333333333,4,2,1,75,0,0
78492,-133.333333333333,4,2,1,80,0,0
78705,-200,4,2,1,90,0,0
79131,-200,4,2,1,80,0,0
79556,-200,4,2,1,80,0,0
79982,-66.6666666666667,4,2,1,100,0,0
80301,-66.6666666666667,4,2,1,80,0,0
80407,-200,4,2,1,80,0,0
80833,-66.6666666666667,4,2,1,100,0,0
81152,-66.6666666666667,4,2,1,80,0,0
81258,-200,4,2,1,80,0,0
81684,-66.6666666666667,4,2,1,100,0,0
82003,-66.6666666666667,4,2,1,80,0,0
82109,-200,4,2,1,80,0,0
82535,-66.6666666666667,4,2,1,100,0,0
82854,-66.6666666666667,4,2,1,80,0,0
82961,-66.6666666666667,4,2,1,100,0,0
83280,-66.6666666666667,4,2,1,80,0,0
83918,-100,4,2,1,100,0,0
84663,-100,4,2,1,80,0,0
84982,-100,4,2,1,80,0,0

[Colours]
Combo1 : 192,192,192
Combo2 : 173,255,95
Combo3 : 255,88,100
Combo4 : 255,94,55
Combo5 : 17,254,176

[HitObjects]
485,375,420,6,0,P|428:289|340:306,1,194.999992847443,6|2,3:1|0:1,0:0:0:0:
286,350,885,1,8,0:0:0:0:
286,350,1117,6,0,L|139:329,1,129.999995231629,6|0,3:1|0:0,0:0:0:0:
140,329,1427,2,0,P|137:350|141:371,2,43.3333317438762,2|2|8,0:3|0:3|0:0,0:0:0:0:
140,329,1815,6,0,P|126:286|82:259,1,64.9999976158143,2|2,3:0|0:0,0:0:0:0:
172,230,2051,2,0,P|131:197|96:192,1,64.9999976158143,2|2,3:0|0:0,0:0:0:0:
13,86,2287,5,6,3:1:0:0:
67,136,2403,2,0,P|140:103|259:97,1,194.999992847443,2|8,0:0|0:0,0:0:0:0:
257,100,2984,6,0,P|160:102|71:140,1,194.999992847443,6|2,3:1|3:1,0:0:0:0:
13,86,3449,1,10,0:0:0:0:
13,86,3682,6,0,P|31:38|24:6,1,64.9999976158143,6|0,3:1|0:0,0:0:0:0:
87,201,3914,2,0,P|85:168|71:140,1,64.9999976158143,6|0,3:2|0:0,0:0:0:0:
11,306,4147,6,0,P|84:287|136:340,1,155.999989517212,6|8,3:1|0:0,0:0:0:0:
500,306,4612,2,0,P|427:287|375:340,1,155.999989517212,6|8,3:1|0:2,0:0:0:0:
137,44,5077,6,0,B|107:82|107:82|135:222,1,155.999989517212,6|8,3:1|0:0,0:0:0:0:
375,340,5542,2,0,B|405:302|405:302|377:162,1,155.999989517212,6|2,3:1|3:0,0:0:0:0:
366,109,5891,6,0,P|437:98|454:215,1,194.999992847443,12|0,3:2|3:0,0:0:0:0:
384,196,6356,1,0,3:0:0:0:
370,192,6466,2,0,P|336:198|312:221,1,64.9999976158143,0|0,3:0|0:0,0:0:0:0:
306,227,6698,2,0,P|287:270|294:306,1,64.9999976158143,0|0,3:0|0:0,0:0:0:0:
348,335,6931,6,0,P|319:361|281:366,1,77.9999947586062,0|0,3:0|0:0,0:0:0:0:
266,363,7163,2,0,P|232:346|216:311,1,77.9999947586062,0|0,3:0|0:0,0:0:0:0:
183,231,7396,6,0,L|112:240,1,64.9999976158143,2|0,3:1|0:0,0:0:0:0:
179,235,7512,2,0,L|108:244,1,64.9999976158143,2|0,3:1|0:0,0:0:0:0:
329,231,7861,6,0,L|400:240,1,64.9999976158143,6|0,3:1|0:0,0:0:0:0:
18,87,8326,6,0,P|117:89|147:94,1,129.999995231629,2|0,3:0|0:0,0:0:0:0:
195,169,8559,2,0,P|182:198|183:233,1,64.9999976158143,6|0,3:1|0:0,0:0:0:0:
494,87,9024,6,0,P|395:89|364:94,1,129.999995231629,2|0,3:0|0:0,0:0:0:0:
317,169,9256,2,0,P|330:198|328:233,1,64.9999976158143,2|0,3:1|0:0,0:0:0:0:
321,167,9372,2,0,P|334:196|332:231,1,64.9999976158143,2|0,3:1|0:0,0:0:0:0:
256,72,10186,5,6,0:0:0:0:
431,306,19735,5,4,3:2:0:0:
445,220,19957,1,2,0:3:0:0:
305,263,20179,1,2,0:3:0:0:
291,349,20401,1,2,0:0:0:0:
445,220,20623,6,0,P|449:155|393:74,1,155.999989517212,6|2,3:2|3:0,0:0:0:0:
305,263,21289,1,2,0:0:0:0:
305,263,21511,2,0,P|370:267|451:211,1,155.999989517212,2|2,3:1|3:0,0:0:0:0:
262,123,22178,1,2,0:0:0:0:
262,123,22400,6,0,P|258:188|314:269,1,155.999989517212,2|2,3:1|3:0,0:0:0:0:
400,79,23067,1,2,0:0:0:0:
400,79,23289,2,0,P|324:78|275:111,1,116.999992137909,0|0,3:0|0:0,0:0:0:0:
261,113,23734,5,2,3:2:0:0:
164,25,23956,1,2,0:3:0:0:
127,147,24178,1,6,3:2:0:0:
21,116,24400,2,0,P|34:155|28:198,1,64.9999976158143,2|2,0:1|0:3,0:0:0:0:
10,218,24622,2,0,B|3:269|27:347|27:347|79:300|153:318,1,259.999990463257,6|2,3:2|3:2,0:0:0:0:
469,321,25511,6,0,P|380:359|317:283,1,194.999992847443,2|2,3:2|0:3,0:0:0:0:
325,252,25956,1,6,3:2:0:0:
472,177,26178,2,0,P|440:179|412:162,1,64.9999976158143,2|2,0:1|0:3,0:0:0:0:
406,117,26400,2,0,B|338:126|288:74|288:74|249:142|181:134,1,259.999990463257,6|2,3:2|3:2,0:0:0:0:
55,186,27067,5,2,0:3:0:0:
3,59,27289,1,10,3:2:0:0:
130,7,27511,1,10,0:0:0:0:
182,134,27734,5,12,3:2:0:0:
169,171,27956,1,2,0:3:0:0:
107,213,28178,1,8,0:0:0:0:
2,161,28400,1,2,0:3:0:0:
65,19,28622,5,12,0:0:0:0:
170,71,28845,1,2,3:0:0:0:
236,30,29067,1,8,0:0:0:0:
264,56,29289,1,2,3:0:0:0:
264,56,29511,5,12,0:0:0:0:
292,82,29734,1,2,0:0:0:0:
367,100,29956,1,10,0:0:0:0:
469,43,30178,1,2,0:0:0:0:
390,177,30400,5,12,0:0:0:0:
483,247,30622,1,2,3:2:0:0:
437,310,30845,1,10,0:0:0:0:
408,283,31067,1,2,3:2:0:0:
408,283,31178,1,2,0:0:0:0:
408,283,31289,5,14,0:0:0:0:
255,315,31511,1,2,0:0:0:0:
315,222,31734,1,10,0:0:0:0:
347,375,31956,1,2,0:0:0:0:
155,364,32178,5,14,0:0:0:0:
171,248,32400,1,2,0:0:0:0:
55,232,32622,1,10,0:0:0:0:
39,348,32845,1,2,3:2:0:0:
125,184,33067,5,14,0:0:0:0:
37,116,33289,1,2,0:0:0:0:
115,106,33511,1,10,0:0:0:0:
47,194,33734,1,2,0:0:0:0:
47,194,33845,1,2,0:0:0:0:
47,194,33956,5,14,0:0:0:0:
37,116,34178,1,2,0:0:0:0:
42,155,34400,1,10,0:0:0:0:
32,77,34622,1,2,3:0:0:0:
181,127,34845,5,6,3:1:0:0:
93,256,35067,2,0,P|54:255|30:218,1,64.9999976158143,2|2,0:1|0:3,0:0:0:0:
140,355,35289,2,0,P|215:368|327:228,1,259.999990463257,14|14,0:0|0:0,0:0:0:0:
324,204,35956,1,0,3:2:0:0:
345,128,36178,1,10,0:0:0:0:
448,72,36400,1,2,3:2:0:0:
512,215,36622,5,6,3:1:0:0:
343,119,36845,2,0,L|334:51,1,64.9999976158143,2|2,0:1|0:3,0:0:0:0:
229,218,37067,2,0,B|209:350|209:350|76:284,1,259.999990463257,14|14,0:0|0:0,0:0:0:0:
128,199,37734,1,2,3:2:0:0:
300,333,37956,2,0,P|364:334|410:282,1,129.999995231629,14|2,0:0|3:2,0:0:0:0:
448,63,38400,6,0,L|457:127,1,64.9999976158143,14|0,0:0|0:0,0:0:0:0:
368,52,38622,2,0,L|381:141,1,64.9999976158143,2|0,0:1|0:0,0:0:0:0:
229,280,38845,6,0,L|219:344,1,64.9999976158143,10|0,0:0|0:0,0:0:0:0:
309,268,39067,2,0,L|299:332,1,64.9999976158143,2|0,3:1|0:0,0:0:0:0:
248,92,39289,6,0,P|203:63|146:81,1,64.9999976158143,10|0,0:0|0:0,0:0:0:0:
159,130,39511,2,0,P|204:159|261:141,1,64.9999976158143,2|0,3:1|0:0,0:0:0:0:
0,253,39734,6,0,P|45:224|102:242,1,64.9999976158143,10|0,0:0|0:0,0:0:0:0:
89,291,39956,2,0,P|44:320|-13:302,1,64.9999976158143,2|0,3:1|0:0,0:0:0:0:
0,253,40178,5,10,0:0:0:0:
0,214,40289,1,2,0:3:0:0:
9,163,40400,1,2,0:3:0:0:
56,118,40511,1,2,0:3:0:0:
148,102,40622,2,0,B|292:108|214:193|372:187,1,233.999984275818,14|2,3:2|0:3,0:0:0:0:
431,209,41067,5,10,3:2:0:0:
462,280,41178,1,2,0:3:0:0:
436,353,41289,1,2,3:2:0:0:
364,384,41400,1,2,0:3:0:0:
284,358,41511,2,0,B|289:239|360:304|356:187,1,194.999992847443,14|0,3:2|0:0,0:0:0:0:
329,113,41956,5,6,3:1:0:0:
256,192,54019,12,2,55513,0:1:0:0:
116,155,55727,6,0,P|60:184|0:166,1,129.999995231629,6|2,3:1|0:3,0:0:0:0:
122,75,56046,2,0,P|131:105|128:137,1,64.9999976158143,0|8,0:0|0:0,0:0:0:0:
152,333,56365,5,2,0:0:0:0:
152,333,56578,2,0,L|278:303,1,129.999995231629,2|2,3:2|0:3,0:0:0:0:
162,249,56897,2,0,L|155:313,1,64.9999976158143,8|0,0:0|3:0,0:0:0:0:
343,367,57216,5,10,0:0:0:0:
343,367,57429,2,0,B|385:388|385:388|465:368,1,129.999995231629,2|2,3:2|0:3,0:0:0:0:
326,285,57748,2,0,L|332:349,1,64.9999976158143,8|0,0:0|3:0,0:0:0:0:
460,201,58067,5,10,0:0:0:0:
460,201,58280,2,0,P|398:218|342:189,1,129.999995231629,2|2,3:2|0:3,0:0:0:0:
472,120,58599,2,0,P|457:148|455:181,2,64.9999976158143,8|2|2,0:0|3:2|0:3,0:0:0:0:
385,97,58918,2,0,P|383:65|368:37,1,64.9999976158143,8|0,3:2|0:0,0:0:0:0:
256,19,59131,6,0,L|273:168,1,129.999995231629,2|14,3:1|0:0,0:0:0:0:
208,194,59450,1,0,0:0:0:0:
208,194,59556,2,0,P|146:184|56:180,1,129.999995231629,2|10,3:0|0:0,0:0:0:0:
0,315,59982,2,0,P|62:305|152:301,1,129.999995231629,4|2,3:2|0:3,0:0:0:0:
192,349,60301,1,8,0:0:0:0:
192,349,60407,1,0,3:0:0:0:
387,347,60620,6,0,P|460:354|500:306,2,129.999995231629,10|2|14,0:0|3:1|0:0,0:0:0:0:
330,295,61152,1,0,0:0:0:0:
330,295,61258,2,0,L|352:140,1,129.999995231629,2|10,3:0|0:0,0:0:0:0:
463,106,61684,1,6,3:2:0:0:
326,0,61897,1,2,0:3:0:0:
326,0,62003,1,2,0:3:0:0:
326,0,62109,1,10,0:0:0:0:
232,139,62322,1,10,0:0:0:0:
149,82,62535,5,6,3:1:0:0:
24,54,62748,2,0,P|77:105|148:82,1,155.999989517212,14|2,0:0|3:0,0:0:0:0:
180,4,63067,2,0,L|172:82,1,77.9999947586062,0|10,0:0|0:0,0:0:0:0:
337,248,63386,5,2,3:1:0:0:
467,284,63599,2,0,B|410:228|410:228|336:248,1,155.999989517212,14|2,0:0|3:0,0:0:0:0:
331,343,63918,2,0,P|348:309|344:270,1,77.9999947586062,0|10,0:0|0:0,0:0:0:0:
128,360,64237,5,2,3:1:0:0:
128,211,64450,2,0,B|105:257|126:288|126:288|147:322|127:361,1,155.999989517212,14|2,0:0|3:0,0:0:0:0:
37,349,64769,2,0,B|76:331|76:331|106:348,1,77.9999947586062,0|10,0:0|0:0,0:0:0:0:
338,384,65088,5,2,3:1:0:0:
497,285,65301,1,14,0:0:0:0:
415,241,65514,5,0,3:0:0:0:
336,291,65727,1,10,0:0:0:0:
494,188,65939,6,0,P|497:144|476:112,1,77.9999947586062,6|0,3:1|0:0,0:0:0:0:
502,49,66152,2,0,P|458:46|426:67,1,77.9999947586062,10|0,0:0|0:0,0:0:0:0:
363,41,66365,2,0,P|360:85|381:117,1,77.9999947586062,6|0,3:2|0:0,0:0:0:0:
355,180,66578,2,0,P|399:183|431:162,1,77.9999947586062,10|0,0:0|0:0,0:0:0:0:
258,124,66790,6,0,B|240:145|207:145|207:145|223:139|262:99,1,97.5000001430512,6|0,3:2|0:0,0:0:0:0:
154,229,67003,2,0,B|133:211|133:178|133:178|139:194|179:232,1,97.5000001430512,10|0,0:0|0:0,0:0:0:0:
49,125,67216,2,0,B|67:104|100:104|100:104|84:110|45:150,1,97.5000001430512,6|0,3:2|0:0,0:0:0:0:
153,20,67429,2,0,B|174:38|174:71|174:71|168:55|128:16,1,97.5000001430512,8|0,0:0|0:0,0:0:0:0:
255,19,67641,6,0,P|411:40|452:189,1,259.999990463257,6|0,3:1|0:0,0:0:0:0:
456,119,68067,6,0,P|393:132|349:196,1,129.999995231629,6|0,3:1|0:0,0:0:0:0:
353,181,68492,54,0,P|333:296|199:50,1,779.999971389771,6|2,3:2|0:1,0:0:0:0:
410,35,69344,5,6,3:2:0:0:
410,35,69769,2,0,B|354:42|333:86|333:86|298:50|242:55,1,195.000000286102,6|2,3:1|0:0,0:0:0:0:
88,122,70195,5,6,3:2:0:0:
88,122,70620,2,0,B|144:129|165:173|165:173|200:137|255:142,1,195.000000286102,6|2,3:1|0:0,0:0:0:0:
409,209,71046,5,6,3:2:0:0:
409,209,71471,2,0,B|353:216|332:260|332:260|297:224|241:229,1,195.000000286102,6|2,3:1|0:0,0:0:0:0:
88,296,71897,5,6,3:2:0:0:
88,296,72322,2,0,B|144:303|165:347|165:347|200:311|255:316,1,195.000000286102,6|2,3:1|0:0,0:0:0:0:
383,334,72748,6,0,B|378:263|423:248|423:248|471:214|450:124,1,194.999992847443,6|0,3:1|0:0,0:0:0:0:
387,138,73173,2,0,B|377:217|422:267|422:267|469:324|452:383,1,233.999984275818,6|10,3:2|3:2,0:0:0:0:
456,354,73599,1,6,3:1:0:0:
387,138,73812,1,6,3:1:0:0:
129,334,74450,6,0,B|134:263|89:248|89:248|41:214|62:124,1,194.999992847443,6|0,3:1|0:0,0:0:0:0:
125,138,74875,2,0,B|135:217|90:267|90:267|43:324|60:383,1,233.999984275818,6|10,3:2|3:2,0:0:0:0:
55,354,75301,1,6,3:1:0:0:
125,138,75514,1,6,3:1:0:0:
313,359,76152,5,0,3:0:0:0:
120,313,76578,1,0,3:0:0:0:
105,116,77003,1,0,3:0:0:0:
287,39,77429,1,6,3:1:0:0:
413,189,77854,6,0,B|349:172|349:172|297:215|297:215|229:193,1,195.000000286102,6|0,3:1|0:0,0:0:0:0:
207,344,78492,5,2,3:0:0:0:
176,266,78599,1,2,3:0:0:0:
238,196,78705,6,0,B|297:215|297:215|349:172|349:172|413:189,1,195.000000286102,6|2,3:1|3:0,0:0:0:0:
350,8,79556,6,0,P|301:13|266:49,1,97.4999964237214,6|2,3:1|0:3,0:0:0:0:
279,133,79982,2,0,P|321:7|410:94,1,292.500000429154,6|0,3:2|0:0,0:0:0:0:
370,159,80407,6,0,P|419:164|454:200,1,97.4999964237214,6|2,3:1|0:3,0:0:0:0:
441,284,80833,2,0,P|399:158|310:245,1,292.500000429154,6|0,3:2|0:0,0:0:0:0:
308,318,81258,6,0,P|258:326|222:376,1,97.4999964237214,6|2,3:1|0:3,0:0:0:0:
308,318,81684,2,0,P|190:358|112:197,1,292.500000429154,6|0,3:2|0:0,0:0:0:0:
180,164,82109,6,0,P|230:172|266:222,1,97.4999964237214,6|2,3:1|0:3,0:0:0:0:
180,164,82535,2,0,P|298:204|376:43,1,292.500000429154,6|0,3:2|0:0,0:0:0:0:
180,164,82961,6,0,P|254:49|386:84,1,292.500000429154,6|0,3:2|0:0,0:0:0:0:
505,357,83812,5,2,0:3:0:0:
505,357,83918,2,0,P|397:222|150:333,1,454.9999833107,6|10,3:1|3:2,0:0:0:0:
98,352,84769,1,10,3:2:0:0:
24,327,84875,1,10,3:2:0:0:
25,248,84982,1,6,3:1:0:0:
