osu file format v14

[General]
AudioFilename: audio.mp3
AudioLeadIn: 0
PreviewTime:53964
Countdown: 0
SampleSet: Soft
StackLeniency: 0.3
Mode: 0
LetterboxInBreaks: 0
WidescreenStoryboard: 1

[Editor]
DistanceSpacing: 0.5
BeatDivisor: 4
GridSize: 32
TimelineZoom: 1.5

[Metadata]
Title:Let's Go, Crimson Knight!
TitleUnicode:真红骑士,出发!
Artist:Yu-Peng Chen @HOYO-MiX
ArtistUnicode:陈致逸 @HOYO-MiX
Creator:Moecho
Version:Koiyuki's Hard
Source:Genshin Impact
Tags:sahuang koiyuki minakami yuki mtbbsben -ClariS- Yorita Yoshino CoLouRed GlaZeE 真紅の騎士、出発! 原神 米哈游 MiHoYo Klee 可莉 Keli クレー Kuree 클레 Keulle 角色演示 キャラクター実戦紹介 New Character Demo 闪耀的群星 輝く星々 OST Album The Stellar Moments 陈致逸 苑迪萌 Dimeng Yuan 龙之艺四重奏 Art of Dragon Quartet 夏之炜 Zhiwei Xia Video Game Instrumental Orchestra
BeatmapID:2925241
BeatmapSetID:1368018

[Difficulty]
HPDrainRate:5
CircleSize:4
OverallDifficulty:6.5
ApproachRate:7.2
SliderMultiplier:1.79999990463257
SliderTickRate:1

[Events]
//Background and Video events
0,0,"bg.jpg",0,0
//Break Periods
2,12512,18865
2,45608,53149
//Storyboard Layer 0 (Background)
//Storyboard Layer 1 (Fail)
//Storyboard Layer 2 (Pass)
//Storyboard Layer 3 (Foreground)
//Storyboard Layer 4 (Overlay)
//Storyboard Sound Samples
Sample,10652,0,"audio/voc0.mp3",75
Sample,42400,0,"audio/voc1.mp3",75
Sample,54873,0,"audio/voc2.mp3",75
Sample,84875,0,"audio/voc3.mp3",75

[TimingPoints]
420,465.116279069767,4,2,1,75,1,0
1815,472.44094488189,4,2,1,75,1,0
2287,465.116279069767,4,2,1,75,1,0
6466,465.116279069767,4,2,1,75,1,0
8559,-100,4,2,1,85,0,0
9024,-100,4,2,1,75,0,0
9256,-100,4,2,1,85,0,0
10186,-100,4,2,1,50,0,0
12512,468.75,4,2,1,75,1,0
14387,465.116279069767,4,2,1,75,1,0
19735,444.444444444444,4,2,1,65,1,0
19735,-200,4,2,1,65,0,0
20623,444.444444444444,4,2,1,70,1,0
20623,-133.333333333333,4,2,1,70,0,0
27734,-133.333333333333,4,2,1,75,0,0
34845,-100,4,2,1,80,0,0
40178,-100,4,2,1,65,0,0
40622,-100,4,2,1,75,0,0
41956,-100,4,2,1,80,0,0
45608,444.444444444444,4,2,1,75,1,0
52274,436.363636363636,4,2,1,50,1,0
54019,427.046263345196,4,2,1,75,1,0
55727,425.531914893617,4,2,1,75,1,0
67641,-83.3333333333333,4,2,1,75,0,0
67961,-83.3333333333333,4,2,1,5,0,0
68067,-83.3333333333333,4,2,1,75,0,0
68386,-83.3333333333333,4,2,1,5,0,0
68492,-66.6666666666667,4,2,1,85,0,0
69344,-83.3333333333333,4,2,1,75,0,0
69769,-83.3333333333333,4,2,1,90,0,0
70195,-83.3333333333333,4,2,1,75,0,0
70620,-83.3333333333333,4,2,1,90,0,0
71046,-83.3333333333333,4,2,1,75,0,0
71471,-83.3333333333333,4,2,1,90,0,0
71897,-83.3333333333333,4,2,1,75,0,0
72322,-83.3333333333333,4,2,1,90,0,0
72748,-83.3333333333333,4,2,1,80,0,0
73599,-83.3333333333333,4,2,1,95,0,0
74450,-83.3333333333333,4,2,1,80,0,0
75301,-83.3333333333333,4,2,1,95,0,0
76152,-100,4,2,1,75,0,0
77854,-100,4,2,1,90,0,0
78280,-100,4,2,1,75,0,0
78492,-100,4,2,1,80,0,0
78705,-83.3333333333333,4,2,1,90,0,0
79131,-83.3333333333333,4,2,1,80,0,0
79982,-83.3333333333333,4,2,1,100,0,0
80195,-83.3333333333333,4,2,1,80,0,0
80833,-83.3333333333333,4,2,1,100,0,0
81046,-83.3333333333333,4,2,1,80,0,0
81684,-83.3333333333333,4,2,1,100,0,0
81897,-83.3333333333333,4,2,1,80,0,0
82535,-83.3333333333333,4,2,1,100,0,0
82748,-83.3333333333333,4,2,1,80,0,0
82961,-83.3333333333333,4,2,1,100,0,0
84663,-83.3333333333333,4,2,1,80,0,0

[Colours]
Combo1 : 255,0,0
Combo2 : 173,255,95
Combo3 : 255,128,128
Combo4 : 255,215,196

[HitObjects]
156,300,420,6,0,P|102:292|48:287,1,89.9999952316285,6|0,3:1|0:0,0:0:0:0:
25,271,768,2,0,P|16:236|14:216,1,44.9999976158143,2|8,0:1|0:0,0:0:0:0:
56,147,1117,6,0,P|110:155|163:159,1,89.9999952316285,6|0,3:1|0:0,0:0:0:0:
187,176,1465,2,0,P|195:210|197:230,1,44.9999976158143,2|8,0:1|0:0,0:0:0:0:
256,285,1815,2,0,L|256:330,3,44.9999976158143,2|2|2|2,3:0|0:0|3:0|0:0,0:0:0:0:
300,362,2287,6,0,P|363:351|418:346,1,89.9999952316285,6|0,3:1|0:0,0:0:0:0:
429,329,2635,2,0,L|492:342,1,44.9999976158143,2|8,0:1|0:0,0:0:0:0:
466,248,2984,6,0,L|377:229,1,89.9999952316285,6|0,3:1|0:0,0:0:0:0:
345,196,3333,2,0,P|339:175|336:153,1,44.9999976158143,2|10,3:1|0:0,0:0:0:0:
256,109,3682,2,0,P|262:87|265:65,3,44.9999976158143,6|0|6|0,3:1|0:0|3:2|0:0,0:0:0:0:
238,30,4147,6,0,P|154:11|74:65,1,179.999990463257,6|6,3:1|3:1,0:0:0:0:
8,174,4961,1,8,3:2:0:0:
8,173,5077,2,0,P|13:218|17:263,1,89.9999952316285,6|8,3:1|0:0,0:0:0:0:
76,331,5542,2,0,P|131:309|177:309,1,89.9999952316285,6|2,3:1|3:0,0:0:0:0:
197,280,5891,6,0,P|251:319|320:303,1,134.999992847443,12|0,3:2|3:0,0:0:0:0:
379,246,6466,2,0,P|439:251|478:257,1,89.9999952316285,0|2,3:0|3:0,0:0:0:0:
364,156,6931,2,0,P|408:158|453:165,1,89.9999952316285,0|2,3:0|3:0,0:0:0:0:
349,66,7396,5,2,3:1:0:0:
349,66,7512,1,2,3:1:0:0:
278,181,7861,5,6,3:1:0:0:
221,10,8326,5,2,3:0:0:0:
221,10,8559,1,6,3:1:0:0:
192,206,9024,5,2,3:0:0:0:
106,231,9256,5,2,3:1:0:0:
106,231,9372,1,2,3:1:0:0:
364,156,10186,5,6,0:0:0:0:
364,156,19735,6,0,P|359:133|359:111,1,44.9999976158143,4|2,3:2|0:3,0:0:0:0:
445,86,20179,2,0,P|449:108|450:131,1,44.9999976158143,2|2,0:3|0:0,0:0:0:0:
424,213,20623,6,0,P|357:203|290:195,1,134.999997997284,6|2,3:2|3:0,0:0:0:0:
237,265,21289,1,2,0:0:0:0:
162,219,21511,6,0,P|150:152|148:85,1,134.999997997284,2|2,3:1|3:0,0:0:0:0:
85,24,22178,1,2,0:0:0:0:
62,108,22400,6,0,P|73:174|75:241,1,134.999997997284,2|2,3:1|3:0,0:0:0:0:
10,302,23067,1,2,0:0:0:0:
70,365,23289,6,0,P|130:356|190:348,1,101.249998497963,0|0,3:0|0:0,0:0:0:0:
205,324,23734,2,0,L|275:330,1,67.499998998642,2|2,3:2|0:3,0:0:0:0:
356,300,24178,5,6,3:2:0:0:
423,358,24400,1,2,0:1:0:0:
505,325,24622,2,0,P|498:264|494:178,1,134.999997997284,6|2,3:2|3:2,0:0:0:0:
494,190,25511,2,0,P|495:156|499:118,1,67.499998998642,2|2,3:2|0:3,0:0:0:0:
460,43,25956,5,6,3:2:0:0:
384,88,26178,1,2,0:1:0:0:
336,15,26400,2,0,P|268:10|201:9,1,134.999997997284,6|2,3:2|3:2,0:0:0:0:
201,9,27289,1,8,3:2:0:0:
138,71,27511,1,8,0:0:0:0:
138,71,27622,1,8,0:0:0:0:
138,71,27734,6,0,P|144:108|145:143,1,67.499998998642,12|2,3:2|0:3,0:0:0:0:
61,162,28178,2,0,P|55:128|53:95,1,67.499998998642,8|2,0:0|0:3,0:0:0:0:
127,221,28622,6,0,L|118:288,1,67.499998998642,12|2,0:0|3:0,0:0:0:0:
41,245,29067,2,0,L|32:312,1,67.499998998642,8|2,0:0|3:0,0:0:0:0:
156,368,29511,6,0,P|189:358|223:353,1,67.499998998642,12|2,0:0|0:0,0:0:0:0:
184,273,29956,2,0,P|152:282|119:288,1,67.499998998642,10|2,0:0|0:0,0:0:0:0:
263,234,30400,6,0,P|295:243|328:248,1,67.499998998642,12|2,0:0|3:2,0:0:0:0:
385,317,30845,1,10,0:0:0:0:
465,277,31067,1,2,3:2:0:0:
465,277,31178,1,2,0:0:0:0:
465,277,31289,6,0,P|460:212|460:124,1,134.999997997284,14|10,0:0|0:0,0:0:0:0:
257,99,32178,2,0,P|262:164|262:252,1,134.999997997284,14|10,0:0|0:0,0:0:0:0:
499,68,33067,6,0,B|455:46|455:46|347:64,1,134.999997997284,14|10,0:0|0:0,0:0:0:0:
293,19,33734,1,2,0:0:0:0:
257,99,33956,2,0,P|217:96|178:91,1,67.499998998642,14|2,0:0|0:0,0:0:0:0:
105,120,34400,1,10,0:0:0:0:
124,34,34622,1,2,3:0:0:0:
40,60,34845,5,6,3:1:0:0:
105,120,35067,1,2,0:1:0:0:
21,146,35289,2,0,B|11:192|11:192|32:243,1,89.9999952316285,14|0,0:0|3:0,0:0:0:0:
75,308,35734,6,0,P|153:295|174:292,1,89.9999952316285,14|0,0:0|3:0,0:0:0:0:
235,237,36178,2,0,P|286:242|326:246,1,89.9999952316285,10|2,0:0|3:1,0:0:0:0:
398,300,36622,5,6,3:1:0:0:
348,374,36845,1,2,0:1:0:0:
478,337,37067,2,0,B|488:291|488:291|467:240,1,89.9999952316285,14|0,0:0|3:0,0:0:0:0:
443,165,37511,6,0,P|446:116|451:65,1,89.9999952316285,14|2,0:0|3:2,0:0:0:0:
363,47,37956,2,0,P|360:96|355:147,1,89.9999952316285,14|2,0:0|3:2,0:0:0:0:
285,192,38400,5,14,0:0:0:0:
200,166,38622,1,2,0:1:0:0:
219,253,38845,1,10,0:0:0:0:
285,192,39067,1,2,3:1:0:0:
200,166,39289,6,0,P|195:121|193:76,1,89.9999952316285,10|2,0:0|3:1,0:0:0:0:
104,100,39734,2,0,P|108:144|110:189,1,89.9999952316285,10|2,0:0|3:1,0:0:0:0:
48,255,40178,6,0,L|42:299,3,44.9999976158143,10|2|2|2,0:0|0:3|0:3|0:3,0:0:0:0:
21,339,40622,2,0,P|71:344|117:355,1,89.9999952316285,14|2,3:2|3:2,0:0:0:0:
192,317,41067,6,0,P|242:312|288:301,1,89.9999952316285,10|2,3:2|3:2,0:0:0:0:
348,244,41511,2,0,L|342:200,3,44.9999976158143,14|10|10|10,3:2|3:2|0:0|0:0,0:0:0:0:
321,158,41956,5,6,3:1:0:0:
485,84,42845,1,2,0:0:0:0:
470,262,43734,1,2,0:0:0:0:
470,262,54019,6,0,B|431:178|488:119|488:119|508:84|505:48|484:8|425:-6|393:12|350:51|374:108|374:108|376:161|316:203|243:159|256:112|281:65,1,629.999966621399,6|2,3:2|0:1,0:0:0:0:
273,83,55727,6,0,P|228:80|184:70,1,89.9999952316285,6|2,3:1|0:3,0:0:0:0:
145,45,56046,2,0,P|141:22|137:0,1,44.9999976158143,0|8,0:0|0:0,0:0:0:0:
98,120,56365,1,2,0:0:0:0:
10,96,56578,6,0,P|17:143|22:198,1,89.9999952316285,2|2,3:2|0:3,0:0:0:0:
7,228,56897,2,0,P|1:253|-1:274,1,44.9999976158143,8|0,0:0|3:0,0:0:0:0:
55,342,57216,1,10,0:0:0:0:
128,289,57429,6,0,P|171:280|220:277,1,89.9999952316285,2|2,3:2|0:3,0:0:0:0:
235,290,57748,1,8,0:0:0:0:
249,306,57854,2,0,P|243:260|240:199,1,89.9999952316285,0|10,3:0|0:0,0:0:0:0:
302,149,58280,5,2,3:2:0:0:
320,135,58386,2,0,P|326:89|329:28,1,89.9999952316285,8|8,0:0|0:0,0:0:0:0:
320,24,58705,2,0,P|363:33|412:36,1,89.9999952316285,2|2,3:2|3:0,0:0:0:0:
489,74,59131,5,2,3:1:0:0:
431,142,59344,2,0,P|425:188|422:249,1,89.9999952316285,14|2,0:0|3:0,0:0:0:0:
479,301,59769,1,10,0:0:0:0:
406,352,59982,2,0,L|361:347,3,44.9999976158143,4|2|2|2,3:2|0:3|0:3|0:3,0:0:0:0:
327,317,60407,2,0,P|265:325|227:334,1,89.9999952316285,0|10,3:0|0:0,0:0:0:0:
148,317,60833,5,2,3:1:0:0:
67,356,61046,2,0,P|60:310|59:266,1,89.9999952316285,14|2,0:0|3:0,0:0:0:0:
101,187,61471,1,10,0:0:0:0:
184,220,61684,2,0,L|191:170,3,44.9999976158143,6|2|2|2,3:2|0:3|0:3|0:3,0:0:0:0:
169,135,62109,2,0,P|213:129|257:120,1,89.9999952316285,10|10,0:0|0:0,0:0:0:0:
291,39,62535,5,6,3:1:0:0:
380,45,62748,1,14,0:0:0:0:
380,45,62854,1,2,0:3:0:0:
380,45,62961,2,0,L|469:51,1,89.9999952316285,0|10,3:0|0:0,0:0:0:0:
507,132,63386,5,2,3:1:0:0:
500,221,63599,1,14,0:0:0:0:
500,221,63705,1,2,0:3:0:0:
500,221,63812,2,0,L|494:310,1,89.9999952316285,0|10,3:0|0:0,0:0:0:0:
413,348,64237,5,2,3:1:0:0:
324,341,64450,1,14,0:0:0:0:
324,341,64556,1,2,0:3:0:0:
324,341,64663,2,0,L|235:335,1,89.9999952316285,0|10,3:0|0:0,0:0:0:0:
197,254,65088,5,2,3:1:0:0:
204,165,65301,1,14,0:0:0:0:
204,165,65407,1,2,0:3:0:0:
204,165,65514,2,0,L|210:76,1,89.9999952316285,0|10,3:0|0:0,0:0:0:0:
295,126,65939,5,6,3:1:0:0:
334,44,66152,2,0,L|328:-1,2,44.9999976158143,10|8|6,0:0|0:0|3:2,0:0:0:0:
423,60,66578,2,0,L|416:6,2,44.9999976158143,10|8|6,0:0|0:0|3:2,0:0:0:0:
512,76,67003,2,0,L|505:22,2,44.9999976158143,10|8|6,0:0|0:0|3:2,0:0:0:0:
463,154,67429,1,8,0:0:0:0:
463,154,67535,1,8,0:0:0:0:
463,154,67641,6,0,B|441:218|441:218|457:316,1,161.999986473084,6|2,3:1|0:3,0:0:0:0:
490,337,68067,6,0,P|408:309|319:324,1,161.999986473084,6|2,3:1|0:3,0:0:0:0:
295,308,68492,6,0,P|223:358|264:207,1,404.999993991852,6|2,3:2|0:3,0:0:0:0:
219,276,69344,5,6,3:2:0:0:
55,68,69769,2,0,P|108:60|161:50,1,107.999990982056,6|2,3:1|0:0,0:0:0:0:
241,90,70195,5,6,3:2:0:0:
33,254,70620,2,0,P|25:200|15:147,1,107.999990982056,6|2,3:1|0:0,0:0:0:0:
55,68,71046,5,6,3:2:0:0:
218,276,71471,2,0,P|165:283|112:293,1,107.999990982056,6|2,3:1|0:0,0:0:0:0:
33,254,71897,5,6,3:2:0:0:
241,90,72322,2,0,P|248:143|258:196,1,107.999990982056,6|2,3:1|0:0,0:0:0:0:
351,227,72748,6,0,P|334:145|314:13,2,215.999981964112,6|6|6,3:1|3:2|3:1,0:0:0:0:
429,166,73812,1,6,3:1:0:0:
213,361,74450,6,0,P|106:342|-1:327,2,215.999981964112,6|6|6,3:1|3:2|3:1,0:0:0:0:
302,321,75514,1,6,3:1:0:0:
54,222,76152,6,0,P|10:144|16:55,1,179.999990463257,0|0,3:0|3:0,0:0:0:0:
193,22,77003,2,0,P|236:99|230:188,1,179.999990463257,0|6,3:0|3:1,0:0:0:0:
16,56,77854,6,0,P|104:37|192:22,1,179.999990463257,6|0,3:1|0:0,0:0:0:0:
285,65,78492,1,2,3:0:0:0:
285,65,78599,1,2,3:0:0:0:
285,65,78705,6,0,P|395:29|449:216,1,323.999972946168,6|2,3:1|3:0,0:0:0:0:
412,257,79556,5,6,3:1:0:0:
412,257,79982,2,0,P|417:320|421:365,1,107.999990982056,6|0,3:2|0:0,0:0:0:0:
316,340,80407,5,6,3:1:0:0:
316,340,80833,2,0,P|312:286|308:233,1,107.999990982056,6|0,3:2|0:0,0:0:0:0:
204,209,81258,5,6,3:1:0:0:
204,209,81684,2,0,P|209:272|213:317,1,107.999990982056,6|0,3:2|0:0,0:0:0:0:
108,292,82109,5,6,3:1:0:0:
108,292,82535,2,0,P|103:238|99:184,1,107.999990982056,6|0,3:2|0:0,0:0:0:0:
149,106,82961,5,6,3:2:0:0:
149,106,83918,6,0,B|131:60|88:26|88:26|260:64|260:64|359:49,1,377.999968437196,6|10,3:1|3:2,0:0:0:0:
395,26,84769,2,0,L|459:33,2,53.999995491028,10|10|6,3:2|3:2|3:1,0:0:0:0:
