osu file format v14

[General]
AudioFilename: audio.mp3
AudioLeadIn: 0
PreviewTime:53964
Countdown: 0
SampleSet: Soft
StackLeniency: 0.7
Mode: 0
LetterboxInBreaks: 0
WidescreenStoryboard: 1

[Editor]
DistanceSpacing: 1.1
BeatDivisor: 4
GridSize: 32
TimelineZoom: 1.5

[Metadata]
Title:Let's Go, Crimson Knight!
TitleUnicode:真红骑士,出发!
Artist:Yu-Peng Chen @HOYO-MiX
ArtistUnicode:陈致逸 @HOYO-MiX
Creator:Moecho
Version:Insane
Source:Genshin Impact
Tags:sahuang koiyuki minakami yuki mtbbsben -ClariS- Yorita Yoshino CoLouRed GlaZeE 真紅の騎士、出発! 原神 米哈游 MiHoYo Klee 可莉 Keli クレー Kuree 클레 Keulle 角色演示 キャラクター実戦紹介 New Character Demo 闪耀的群星 輝く星々 OST Album The Stellar Moments 陈致逸 苑迪萌 Dimeng Yuan 龙之艺四重奏 Art of Dragon Quartet 夏之炜 Zhiwei Xia Video Game Instrumental Orchestra
BeatmapID:2836756
BeatmapSetID:1368018

[Difficulty]
HPDrainRate:5.5
CircleSize:4
OverallDifficulty:7.5
ApproachRate:8.5
SliderMultiplier:3.59999990463257
SliderTickRate:1

[Events]
//Background and Video events
0,0,"bg.jpg",0,0
//Break Periods
2,12513,18107
2,45608,51599
//Storyboard Layer 0 (Background)
//Storyboard Layer 1 (Fail)
//Storyboard Layer 2 (Pass)
//Storyboard Layer 3 (Foreground)
//Storyboard Layer 4 (Overlay)
//Storyboard Sound Samples
Sample,10652,0,"audio/voc0.mp3",75
Sample,42400,0,"audio/voc1.mp3",75
Sample,54873,0,"audio/voc2.mp3",75
Sample,84875,0,"audio/voc3.mp3",75

[TimingPoints]
420,465.116279069767,4,2,1,75,1,0
420,-80,4,2,1,75,0,0
768,-100,4,2,1,75,0,0
1117,-80,4,2,1,75,0,0
1466,-100,4,2,1,75,0,0
1815,472.44094488189,4,2,1,75,1,0
2287,465.116279069767,4,2,1,75,1,0
2287,-66.6666666666667,4,2,1,75,0,0
2635,-100,4,2,1,75,0,0
2984,-66.6666666666667,4,2,1,75,0,0
3333,-100,4,2,1,75,0,0
3682,-66.6666666666667,4,2,1,75,0,0
4147,-100,4,2,1,75,0,0
4612,-80,4,2,1,80,0,0
5077,-66.6666666666667,4,2,1,85,0,0
5542,-57.1428571428571,4,2,1,90,0,0
5891,-66.6666666666667,4,2,1,95,0,0
6356,-50,4,2,1,50,0,0
6466,465.116279069767,4,2,1,75,1,0
6466,-200,4,2,1,75,0,0
6931,-133.333333333333,4,2,1,75,0,0
7396,-66.6666666666667,4,2,1,80,0,0
7454,-66.6666666666667,4,2,1,25,0,0
7512,-66.6666666666667,4,2,1,80,0,0
7570,-66.6666666666667,4,2,1,25,0,0
7861,-50,4,2,1,80,0,0
7977,-50,4,2,1,25,0,0
8326,-133.333333333333,4,2,1,75,0,0
8500,-133.333333333333,4,2,1,25,0,0
8559,-50,4,2,1,80,0,0
8675,-50,4,2,1,25,0,0
9024,-133.333333333333,4,2,1,75,0,0
9198,-133.333333333333,4,2,1,25,0,0
9256,-66.6666666666667,4,2,1,80,0,0
9314,-66.6666666666667,4,2,1,25,0,0
9372,-66.6666666666667,4,2,1,80,0,0
9431,-66.6666666666667,4,2,1,25,0,0
10186,-66.6666666666667,4,2,1,50,0,0
12512,468.75,4,2,1,75,1,0
14387,465.116279069767,4,2,1,75,1,0
19735,444.444444444444,4,2,1,65,1,0
19735,-200,4,2,1,65,0,0
20623,444.444444444444,4,2,1,70,1,0
20623,-133.333333333333,4,2,1,70,0,0
21511,-160,4,2,1,70,0,0
22400,-200,4,2,1,70,0,0
23289,-266.666666666667,4,2,1,70,0,0
24178,-133.333333333333,4,2,1,70,0,0
27511,-121.212121212121,4,2,1,72,0,0
27734,-133.333333333333,4,2,1,75,0,0
31289,-133.333333333333,4,2,1,75,0,0
32178,-160,4,2,1,75,0,0
33067,-200,4,2,1,75,0,0
33956,-266.666666666667,4,2,1,75,0,0
34845,-100,4,2,1,80,0,0
35289,-80,4,2,1,80,0,0
36178,-100,4,2,1,80,0,0
37067,-80,4,2,1,80,0,0
37511,-80,4,2,1,77,0,0
37734,-100,4,2,1,77,0,0
37956,-133.333333333333,4,2,1,75,0,0
38178,-200,4,2,1,75,0,0
38400,-100,4,2,1,70,0,0
40178,-266.666666666667,4,2,1,65,0,0
40622,-133.333333333333,4,2,1,75,0,0
41067,-100,4,2,1,75,0,0
41511,-100,4,2,1,76,0,0
41622,-100,4,2,1,77,0,0
41734,-100,4,2,1,78,0,0
41845,-100,4,2,1,79,0,0
41956,-1000,4,2,1,80,0,0
45608,444.444444444444,4,2,1,75,1,0
52274,436.363636363636,4,2,1,50,1,0
52492,-100,4,2,1,52,0,0
52710,-100,4,2,1,55,0,0
52928,-100,4,2,1,57,0,0
53146,-100,4,2,1,60,0,0
53364,-100,4,2,1,62,0,0
53583,-100,4,2,1,65,0,0
53801,-100,4,2,1,70,0,0
53910,-100,4,2,1,5,0,0
54019,427.046263345196,4,2,1,75,1,0
54019,-100,4,2,1,75,0,0
54766,-100,4,2,1,37,0,0
54873,-133.333333333333,4,2,1,75,0,0
54899,-133.333333333333,4,2,1,25,0,0
55727,425.531914893617,4,2,1,75,1,0
59344,-80,4,2,1,80,0,0
59556,-80,4,2,1,75,0,0
59982,-200,4,2,1,75,0,0
61046,-80,4,2,1,80,0,0
61258,-80,4,2,1,75,0,0
61684,-200,4,2,1,75,0,0
62109,-100,4,2,1,75,0,0
62748,-66.6666666666667,4,2,1,85,0,0
63173,-100,4,2,1,75,0,0
63599,-66.6666666666667,4,2,1,85,0,0
64024,-121.212121212121,4,2,1,75,0,0
64450,-66.6666666666667,4,2,1,85,0,0
64875,-133.333333333333,4,2,1,75,0,0
65301,-66.6666666666667,4,2,1,85,0,0
65727,-160,4,2,1,75,0,0
65939,-133.333333333333,4,2,1,75,0,0
66152,-133.333333333333,4,2,1,70,0,0
66578,-133.333333333333,4,2,1,72,0,0
67003,-133.333333333333,4,2,1,75,0,0
67429,-133.333333333333,4,2,1,77,0,0
67641,-133.333333333333,4,2,1,75,0,0
67961,-133.333333333333,4,2,1,37,0,0
68067,-266.666666666667,4,2,1,75,0,0
68492,-50,4,2,1,75,0,0
68705,-66.6666666666667,4,2,1,75,0,0
68758,-66.6666666666667,4,2,1,25,0,0
69344,-200,4,2,1,75,0,0
69769,-50,4,2,1,90,0,0
70195,-200,4,2,1,75,0,0
70620,-53.3333333333333,4,2,1,90,0,0
71046,-200,4,2,1,75,0,0
71471,-57.1428571428571,4,2,1,90,0,0
71897,-200,4,2,1,75,0,0
72322,-61.5384615384615,4,2,1,90,0,0
72748,-100,4,2,1,80,0,0
73173,-66.6666666666667,4,2,1,80,0,0
73599,-50,4,2,1,95,0,0
73812,-80,4,2,1,95,0,0
74024,-133.333333333333,4,2,1,75,0,0
74078,-133.333333333333,4,2,1,25,0,0
74450,-100,4,2,1,80,0,0
74875,-66.6666666666667,4,2,1,80,0,0
75301,-50,4,2,1,95,0,0
75514,-80,4,2,1,95,0,0
75727,-133.333333333333,4,2,1,75,0,0
75780,-133.333333333333,4,2,1,25,0,0
76152,-200,4,2,1,75,0,0
76365,-200,4,2,1,50,0,0
76578,-133.333333333333,4,2,1,80,0,0
76790,-133.333333333333,4,2,1,50,0,0
77003,-100,4,2,1,85,0,0
77216,-100,4,2,1,50,0,0
77429,-66.6666666666667,4,2,1,90,0,0
77641,-66.6666666666667,4,2,1,50,0,0
77854,-66.6666666666667,4,2,1,90,0,0
78280,-66.6666666666667,4,2,1,75,0,0
78492,-66.6666666666667,4,2,1,80,0,0
78705,-133.333333333333,4,2,1,90,0,0
79131,-133.333333333333,4,2,1,80,0,0
79556,-200,4,2,1,80,0,0
79982,-50,4,2,1,100,0,0
80195,-50,4,2,1,80,0,0
80407,-200,4,2,1,80,0,0
80833,-50,4,2,1,100,0,0
81046,-50,4,2,1,80,0,0
81258,-200,4,2,1,80,0,0
81684,-50,4,2,1,100,0,0
81897,-50,4,2,1,80,0,0
82109,-200,4,2,1,80,0,0
82535,-50,4,2,1,100,0,0
82748,-50,4,2,1,80,0,0
82961,-50,4,2,1,100,0,0
83173,-50,4,2,1,80,0,0
83918,-133.333333333333,4,2,1,100,0,0
84663,-133.333333333333,4,2,1,80,0,0

[Colours]
Combo1 : 17,254,176
Combo2 : 173,255,95
Combo3 : 255,88,100
Combo4 : 255,94,55

[HitObjects]
367,280,420,6,0,P|383:169|417:62,1,224.999994039536,6|0,3:1|0:0,0:0:0:0:
417,62,768,2,0,P|372:70|328:74,1,90,2|8,0:1|0:0,0:0:0:0:
220,242,1117,6,0,P|236:130|270:23,1,224.999994039536,6|0,3:1|0:0,0:0:0:0:
270,24,1466,2,0,P|225:32|181:36,1,90,2|8,0:1|0:0,0:0:0:0:
0,26,1815,5,2,3:0:0:0:
36,26,1933,1,2,0:0:0:0:
80,37,2051,1,2,3:0:0:0:
116,77,2169,1,2,0:0:0:0:
145,152,2287,6,0,P|279:172|409:208,1,270.000003147125,6|0,3:1|0:0,0:0:0:0:
408,208,2635,2,0,P|404:163|395:119,1,89.9999976158143,2|8,0:1|0:0,0:0:0:0:
78,235,2984,6,0,P|212:255|342:291,1,270.000003147125,6|2,3:1|0:3,0:0:0:0:
342,291,3333,1,2,3:1:0:0:
342,291,3449,2,0,P|338:246|329:202,1,90,10|0,0:0|0:0,0:0:0:0:
402,39,3682,6,0,B|306:53|359:84|283:94,1,135.000005149842,6|0,3:1|0:0,0:0:0:0:
258,168,3914,2,0,B|183:157|236:126|140:112,1,135.000005149842,6|0,3:2|0:0,0:0:0:0:
95,24,4147,6,0,P|125:108|141:197,1,179.999995231629,6|8,3:1|0:0,0:0:0:0:
219,236,4612,6,0,P|205:124|174:13,1,224.999994039536,6|8,3:1|0:2,0:0:0:0:
99,28,4961,1,8,3:2:0:0:
99,28,5077,6,0,P|232:39|350:103,1,270.000003147125,6|8,3:1|0:0,0:0:0:0:
431,115,5426,1,8,3:2:0:0:
431,115,5542,6,0,P|279:150|164:260,1,314.999994659424,6|2,3:1|3:0,0:0:0:0:
96,282,5891,6,0,B|54:319|29:472|358:424|335:73|29:121,1,540.000006294251,12|0,3:2|0:0,0:0:0:0:
11,110,6466,6,0,L|23:20,1,89.9999976158143,0|2,3:0|3:0,0:0:0:0:
161,6,6931,2,0,L|28:25,1,135.000001573563,0|2,3:0|3:0,0:0:0:0:
234,79,7396,6,0,P|268:76|301:71,1,67.5000007867814,2|0,3:1|0:0,0:0:0:0:
231,84,7512,2,0,P|234:50|239:17,1,67.5000007867814,2|0,3:1|0:0,0:0:0:0:
227,88,7861,6,0,P|315:100|401:129,1,179.999995231629,6|0,3:1|0:0,0:0:0:0:
511,130,8326,2,0,P|493:176|447:191,1,101.250001180172,2|0,3:0|0:0,0:0:0:0:
401,129,8559,6,0,P|313:141|227:170,1,179.999995231629,6|0,3:1|0:0,0:0:0:0:
88,214,9024,2,0,P|101:168|147:149,1,101.250001180172,2|0,3:0|0:0,0:0:0:0:
227,170,9256,6,0,P|261:172|294:177,1,67.5000007867814,2|0,3:1|0:0,0:0:0:0:
223,174,9372,2,0,P|221:140|216:107,1,67.5000007867814,2|0,3:1|0:0,0:0:0:0:
219,178,10186,5,6,0:0:0:0:
219,178,19735,5,4,3:2:0:0:
144,154,19957,2,0,P|123:163|108:179,2,44.9999988079071,2|2|2,0:3|0:3|0:3,0:3:0:0:
219,178,20401,5,2,0:0:0:0:
244,251,20623,2,0,P|312:253|374:281,2,135.000001573563,6|2|2,3:2|0:3|3:0,0:0:0:0:
512,221,21289,5,2,0:0:0:0:
437,243,21511,2,0,P|436:186|454:133,2,112.499997019768,2|2|2,3:1|0:3|3:0,0:0:0:0:
466,21,22178,5,2,0:0:0:0:
404,72,22400,2,0,P|360:70|316:80,2,89.9999976158143,2|2|2,3:1|0:3|3:0,0:0:0:0:
241,51,23067,5,2,0:3:0:0:
241,51,23178,1,2,0:3:0:0:
241,51,23289,2,0,P|238:85|244:118,1,67.5000007867814,0|2,3:0|0:3,0:0:0:0:
311,159,23734,5,2,3:2:0:0:
160,90,23956,1,2,0:3:0:0:
89,189,24178,5,6,3:2:0:0:
13,176,24400,2,0,P|18:142|27:110,1,67.5000007867814,2|2,0:1|0:3,0:0:0:0:
89,189,24622,2,0,B|110:38|146:142|168:1,1,202.500002360344,6|2,3:2|0:3,0:0:0:0:
92,0,25067,1,2,3:2:0:0:
92,0,25289,1,2,0:3:0:0:
160,90,25511,6,0,P|226:93|274:138,1,135.000001573563,2|2,3:2|0:3,0:0:0:0:
275,139,25845,1,2,0:3:0:0:
275,139,25956,5,6,3:2:0:0:
357,158,26178,2,0,P|352:191|343:223,1,67.5000007867814,2|2,0:1|0:3,0:0:0:0:
282,146,26400,2,0,P|267:211|242:274,1,135.000001573563,6|2,3:2|0:3,0:0:0:0:
159,384,26845,1,2,3:2:0:0:
159,384,27067,1,2,0:3:0:0:
159,384,27289,6,0,P|178:357|211:351,1,67.5000007867814,8|8,3:2|0:0,0:0:0:0:
177,256,27511,2,0,P|213:252|242:274,1,74.2499987411499,8|8,0:0|0:0,0:0:0:0:
311,355,27734,6,0,P|322:288|342:224,1,135.000001573563,12|2,3:2|0:3,0:0:0:0:
389,362,28178,2,0,P|400:295|420:231,1,135.000001573563,8|2,0:0|0:3,0:0:0:0:
330,85,28622,1,12,0:0:0:0:
385,159,28845,5,2,3:0:0:0:
385,159,29067,1,8,0:0:0:0:
418,6,29289,5,2,3:0:0:0:
418,6,29511,1,12,0:0:0:0:
330,85,29734,6,0,P|263:96|199:116,2,135.000001573563,2|10|2,0:0|0:0|0:0,0:0:0:0:
385,159,30400,1,12,0:0:0:0:
342,224,30622,6,0,P|275:235|211:255,2,135.000001573563,2|10|2,0:0|0:0|0:0,0:0:0:0:
417,232,31178,1,2,0:0:0:0:
421,236,31289,6,0,P|416:269|414:303,3,67.5000007867814,14|0|2|0,0:0|0:0|0:3|0:0,0:0:0:0:
365,362,31734,2,0,P|331:362|297:367,3,67.5000007867814,10|0|2|0,0:0|0:0|0:3|0:0,0:0:0:0:
267,249,32178,6,0,P|238:251|211:255,3,56.2499985098839,14|0|2|0,0:0|0:0|0:3|0:0,0:0:0:0:
149,302,32622,2,0,P|120:304|94:308,3,56.2499985098839,10|0|2|0,0:0|0:0|0:3|0:0,0:0:0:0:
2,224,33067,6,0,P|2:201|-1:179,3,44.9999988079071,14|0|2|0,0:0|0:0|0:3|0:0,0:0:0:0:
73,172,33511,2,0,P|76:194|76:217,3,44.9999988079071,10|0|2|0,0:0|0:0|0:3|0:0,0:0:0:0:
149,302,33956,6,0,P|165:302|182:301,3,33.7500003933907,14|0|2|0,0:0|0:0|0:3|0:0,0:0:0:0:
257,317,34400,2,0,P|258:301|258:284,1,33.7500003933907,10|0,0:0|0:0,0:0:0:0:
239,210,34622,1,2,3:0:0:0:
163,227,34845,5,6,3:1:0:0:
222,122,35067,2,0,P|227:166|239:210,1,89.9999976158143,2|2,0:1|0:3,0:0:0:0:
257,317,35289,2,0,B|106:296|210:260|50:240,1,224.999994039536,14|0,0:0|3:0,0:0:0:0:
17,44,35734,2,0,B|168:65|64:101|223:122,2,224.999994039536,14|0|8,0:0|3:0|0:0,0:0:0:0:
130,144,36400,2,0,P|174:133|219:126,1,89.9999976158143,2|2,3:1|0:3,0:0:0:0:
302,153,36622,5,6,3:1:0:0:
359,0,36845,2,0,P|347:43|341:88,1,89.9999976158143,2|2,0:1|0:3,0:0:0:0:
214,130,37067,2,0,B|365:109|261:73|421:53,1,224.999994039536,14|0,0:0|3:0,0:0:0:0:
508,201,37511,6,0,P|452:207|397:221,1,112.499997019768,14|0,0:0|0:0,0:0:0:0:
394,225,37734,2,0,P|399:180|408:136,1,89.9999976158143,2|0,3:2|0:0,0:0:0:0:
420,53,37956,6,0,P|453:47|486:43,1,67.5000007867814,14|0,0:0|0:0,0:0:0:0:
491,47,38178,2,0,P|494:24|499:2,1,44.9999988079071,2|0,3:2|0:0,0:0:0:0:
363,4,38400,5,14,0:0:0:0:
363,4,38622,1,2,3:1:0:0:
267,74,38845,5,10,0:0:0:0:
267,74,39067,1,2,3:1:0:0:
280,167,39289,5,10,0:0:0:0:
280,167,39511,1,2,3:1:0:0:
344,223,39734,5,10,0:0:0:0:
344,223,39956,1,2,3:1:0:0:
418,224,40178,6,0,L|422:190,3,33.7500003933907,8|2|2|2,0:0|0:3|0:3|0:3,0:0:0:0:
512,290,40622,6,0,L|445:299,1,67.5000007867814,14|2,3:2|0:3,0:0:0:0:
442,303,40845,2,0,L|375:312,1,67.5000007867814,2|2,3:2|0:3,0:0:0:0:
301,384,41067,6,0,L|211:372,1,89.9999976158143,10|2,3:2|0:3,0:0:0:0:
208,368,41289,2,0,L|118:356,1,89.9999976158143,2|2,3:2|0:3,0:0:0:0:
45,339,41511,5,14,3:2:0:0:
67,298,41622,1,10,3:2:0:0:
123,265,41734,1,10,0:0:0:0:
187,262,41845,1,10,0:0:0:0:
256,288,41956,1,6,3:1:0:0:
256,192,52274,12,2,53910,0:3:0:0:
256,288,54019,6,0,B|262:353|475:386|331:20|213:277|178:-117|591:-35|580:50|498:219|361:32|412:264,1,629.9999833107,6|0,3:2|0:0,0:0:0:0:
407,205,54873,2,0,P|415:207|422:211,28,16.8750001966953,6|2|2|2|2|2|2|2|2|2|2|2|2|2|2|2|2|2|2|2|2|2|2|2|2|2|2|2|2,0:0|0:1|0:1|0:1|0:1|0:1|0:1|0:1|0:1|0:1|0:1|0:1|0:1|0:1|0:1|0:1|0:1|0:1|0:1|0:1|0:1|0:1|0:1|0:1|0:1|0:1|0:1|0:1|0:1,0:0:0:0:
416,124,55727,6,0,P|328:138|253:186,2,179.999995231629,6|2|8,3:1|0:3|0:0,0:0:0:0:
495,238,56365,5,2,0:0:0:0:
495,314,56578,2,0,P|406:328|331:376,1,179.999995231629,2|2,3:2|0:3,0:0:0:0:
327,380,56897,1,8,0:0:0:0:
323,384,57003,2,0,P|284:361|239:361,1,89.9999976158143,0|0,3:0|0:0,0:0:0:0:
180,217,57216,5,10,0:0:0:0:
163,292,57429,2,0,P|74:306|-1:354,1,179.999995231629,2|2,3:2|0:3,0:0:0:0:
3,358,57748,1,8,0:0:0:0:
7,362,57854,2,0,P|51:362|90:384,1,89.9999976158143,0|0,3:0|0:0,0:0:0:0:
240,361,58067,5,10,0:0:0:0:
165,376,58280,2,0,P|151:287|103:212,1,179.999995231629,2|2,3:2|0:3,0:0:0:0:
99,216,58599,1,8,0:0:0:0:
95,220,58705,2,0,P|95:176|117:137,1,89.9999976158143,2|0,3:2|0:0,0:0:0:0:
193,162,58918,2,0,P|193:206|171:245,1,89.9999976158143,2|0,3:2|0:0,0:0:0:0:
112,302,59131,5,2,3:1:0:0:
112,302,59344,2,0,B|276:288|161:248|320:233,2,224.999994039536,14|2|10,0:0|3:0|0:0,0:0:0:0:
193,162,59982,5,4,3:2:0:0:
201,154,60088,2,0,L|245:160,2,44.9999988079071,8|2|8,0:0|0:3|0:0,0:0:0:0:
189,77,60407,2,0,L|234:83,1,44.9999988079071,0|2,3:0|0:3,0:0:0:0:
319,98,60620,5,10,0:0:0:0:
76,94,60833,1,2,3:1:0:0:
76,94,61046,2,0,B|240:80|125:40|284:25,2,224.999994039536,14|2|10,0:0|3:0|0:0,0:0:0:0:
201,154,61684,6,0,L|246:160,3,44.9999988079071,6|2|2|2,3:2|0:3|0:3|0:3,0:0:0:0:
331,187,62109,2,0,L|319:97,1,89.9999976158143,10|2,0:0|0:3,0:0:0:0:
323,94,62322,2,0,L|233:82,1,89.9999976158143,10|2,0:0|0:3,0:0:0:0:
158,73,62535,5,6,3:1:0:0:
382,41,62748,6,0,B|485:85|450:222|450:222|438:198|408:185,2,270.000003147125,14|0|10,0:0|3:0|0:0,0:0:0:0:
331,187,63386,1,2,3:1:0:0:
280,332,63599,6,0,B|176:288|211:151|211:151|223:175|253:188,2,270.000003147125,14|0|10,0:0|3:0|0:0,0:0:0:0:
331,187,64237,1,2,3:1:0:0:
280,332,64450,6,0,B|267:362|244:373|244:373|379:409|423:306,2,270.000003147125,14|0|10,0:0|3:0|0:0,0:0:0:0:
407,227,65088,1,2,3:1:0:0:
476,161,65301,6,0,B|489:131|512:120|512:120|376:84|331:187,1,270.000003147125,14|0,0:0|3:0,0:0:0:0:
424,304,65727,2,0,L|479:296,1,56.2499985098839,10|2,0:0|0:3,0:0:0:0:
512,229,65939,1,6,3:1:0:0:
349,278,66152,5,10,0:0:0:0:
348,281,66258,1,8,0:0:0:0:
347,285,66365,1,6,3:2:0:0:
278,244,66578,5,10,0:0:0:0:
276,251,66684,1,8,0:0:0:0:
275,259,66790,1,6,3:2:0:0:
202,219,67003,5,10,0:0:0:0:
199,234,67109,1,8,0:0:0:0:
197,250,67216,1,6,3:2:0:0:
128,189,67429,5,8,0:0:0:0:
124,221,67535,1,8,0:0:0:0:
120,253,67641,2,0,P|67:262|0:384,1,202.500002360344,6|2,3:1|0:3,0:0:0:0:
104,329,68067,6,0,P|151:343|185:379,1,101.250001180172,6|2,3:1|0:3,0:0:0:0:
190,384,68492,6,0,P|198:294|223:207,1,179.999995231629,6|0,3:2|0:0,0:0:0:0:
209,133,68705,2,0,P|177:145|156:170,10,67.5000007867814,6|2|2|2|2|2|2|2|2|2|2,3:2|0:1|0:1|0:1|0:1|0:1|0:1|0:1|0:1|0:1|0:1,0:0:0:0:
202,288,69344,6,0,P|267:275|301:219,1,134.999996423721,6|2,3:2|0:3,0:0:0:0:
429,159,69769,2,0,B|283:171|159:303|159:303|181:289|202:288,1,359.999990463257,6|2,3:1|0:0,0:0:0:0:
301,220,70195,6,0,P|345:268|410:269,1,134.999996423721,6|2,3:2|0:3,0:0:0:0:
508,337,70620,2,0,B|441:230|266:190|266:190|290:201|300:219,1,337.49999910593,6|2,3:1|0:0,0:0:0:0:
264,113,71046,6,0,P|327:98|360:43,1,134.999996423721,6|2,3:2|0:3,0:0:0:0:
448,0,71471,2,0,B|320:9|221:128|221:128|241:113|262:113,1,314.999994659424,6|2,3:1|0:0,0:0:0:0:
153,66,71897,6,0,P|197:113|261:114,1,134.999996423721,6|2,3:2|0:3,0:0:0:0:
332,152,72322,2,0,B|252:47|120:38|120:38|143:48|154:67,1,292.500000619888,6|2,3:1|0:0,0:0:0:0:
228,288,72748,6,0,P|238:198|264:112,1,179.999995231629,6|2,3:1|0:3,0:0:0:0:
362,49,73173,2,0,P|350:183|303:309,1,270.000003147125,6|2,3:2|0:3,0:0:0:0:
246,364,73599,6,0,P|188:296|103:268,1,179.999995231629,6|0,3:1|0:0,0:0:0:0:
100,272,73812,2,0,P|62:312|9:321,1,112.499997019768,6|0,3:1|0:0,0:0:0:0:
4,317,74024,6,0,L|9:284,6,33.7500003933907,2|2|2|2|2|2|2,0:0|0:1|0:1|0:1|0:1|0:1|0:1,0:0:0:0:
32,209,74450,6,0,P|122:219|208:245,1,179.999995231629,6|2,3:1|0:3,0:0:0:0:
269,343,74875,2,0,P|135:331|9:284,1,270.000003147125,6|8,3:2|0:0,0:0:0:0:
36,213,75195,1,8,0:0:0:0:
36,213,75301,6,0,P|104:155|132:70,1,179.999995231629,6|0,3:1|0:0,0:0:0:0:
136,75,75514,2,0,P|174:115|227:124,1,112.499997019768,6|0,3:1|0:0,0:0:0:0:
233,128,75727,6,0,L|227:161,6,33.7500003933907,2|2|2|2|2|2|2,0:0|0:1|0:1|0:1|0:1|0:1|0:1,0:0:0:0:
284,212,76152,6,0,P|327:201|372:194,1,89.9999976158143,0|2,3:0|0:3,0:0:0:0:
449,261,76578,2,0,P|381:268|315:283,1,135.000001573563,0|2,3:0|0:3,0:0:0:0:
43,284,77003,6,0,P|32:194|14:106,1,179.999995231629,0|2,3:0|0:3,0:0:0:0:
75,15,77429,2,0,P|102:147|119:281,1,270.000003147125,6|2,3:1|0:3,0:0:0:0:
383,384,77854,6,0,B|404:247|427:158|427:158|420:151|326:154|319:158|319:158|315:166|303:211|296:257|296:257|292:261|247:266|187:269,1,540.000006294251,6|0,3:1|0:0,0:0:0:0:
131,359,78492,5,2,3:0:0:0:
131,359,78599,1,2,3:0:0:0:
52,370,78705,2,0,P|69:236|95:103,1,270.000003147125,6|2,3:1|0:3,0:0:0:0:
165,72,79344,1,2,3:0:0:0:
235,104,79556,6,0,P|267:136|310:145,1,89.9999976158143,6|0,3:1|0:0,0:0:0:0:
370,94,79982,6,0,B|101:137|324:168|45:224,1,359.999990463257,6|0,3:2|0:0,0:0:0:0:
39,362,80407,6,0,P|8:330|-1:287,1,89.9999976158143,6|0,3:1|0:0,0:0:0:0:
45,224,80833,6,0,B|313:267|91:298|370:354,1,359.999990463257,6|0,3:2|0:0,0:0:0:0:
512,350,81258,6,0,P|480:318|437:309,1,89.9999976158143,6|0,3:1|0:0,0:0:0:0:
371,354,81684,6,0,B|328:85|297:308|241:29,1,359.999990463257,6|0,3:2|0:0,0:0:0:0:
90,0,82109,6,0,P|121:32|164:41,1,89.9999976158143,6|0,3:1|0:0,0:0:0:0:
241,29,82535,6,0,B|199:298|167:75|111:354,1,359.999990463257,6|0,3:2|0:0,0:0:0:0:
299,381,82961,6,0,B|342:112|373:335|429:56,1,359.999990463257,6|0,3:2|0:0,0:0:0:0:
488,366,83918,6,0,B|126:303|442:292|45:224,1,472.50000550747,6|10,3:1|3:2,0:0:0:0:
36,175,84769,1,10,3:2:0:0:
80,144,84875,1,10,3:2:0:0:
131,163,84982,1,6,3:1:0:0:
