osu file format v14

[General]
AudioFilename: audio.mp3
AudioLeadIn: 0
PreviewTime: 54019
Countdown: 0
SampleSet: Soft
StackLeniency: 0.7
Mode: 2
LetterboxInBreaks: 0
WidescreenStoryboard: 1

[Editor]
Bookmarks: 73173
DistanceSpacing: 1
BeatDivisor: 4
GridSize: 4
TimelineZoom: 2.5

[Metadata]
Title:Let's Go, Crimson Knight!
TitleUnicode:真红骑士,出发!
Artist:Yu-Peng Chen @HOYO-MiX
ArtistUnicode:陈致逸 @HOYO-MiX
Creator:[_-Kukkai-_]
Version:Salad
Source:Genshin Impact
Tags:Moecho -Hex- 真紅の騎士、出発! 原神 米哈游 MiHoYo Klee 可莉 Keli クレー Kuree 클레 Keulle 角色演示 キャラクター実戦紹介 New Character Demo 闪耀的群星 輝く星々 OST Album The Stellar Moments 陈致逸 苑迪萌 Dimeng Yuan 龙之艺四重奏 Art of Dragon Quartet 夏之炜 Zhiwei Xia Video Game Instrumental Orchestra
BeatmapID:2956710
BeatmapSetID:1435970

[Difficulty]
HPDrainRate:3
CircleSize:3
OverallDifficulty:7
ApproachRate:7
SliderMultiplier:2
SliderTickRate:1

[Events]
//Background and Video events
0,0,"bgg.jpg",0,0
//Break Periods
//Storyboard Layer 0 (Background)
//Storyboard Layer 1 (Fail)
//Storyboard Layer 2 (Pass)
//Storyboard Layer 3 (Foreground)
//Storyboard Layer 4 (Overlay)
//Storyboard Sound Samples
Sample,10652,0,"audio/voc0.ogg",75
Sample,42400,0,"audio/voc1.ogg",75
Sample,54873,0,"audio/voc2.ogg",75
Sample,84875,0,"audio/voc3.ogg",75

[TimingPoints]
417,465.116279069767,4,2,1,75,1,0
417,-100,4,2,1,75,0,0
649,-100,4,2,1,75,0,0
1114,-100,4,2,1,75,0,0
1347,-100,4,2,1,75,0,0
1825,472.44094488189,4,2,1,75,1,0
2287,465.116279069767,4,2,1,75,1,0
2287,-100,4,2,1,75,0,0
2519,-100,4,2,1,75,0,0
2984,-100,4,2,1,75,0,0
3217,-100,4,2,1,75,0,0
3682,-100,4,2,1,75,0,0
4147,-100,4,2,1,75,0,0
4612,-100,4,2,1,75,0,0
5077,-100,4,2,1,75,0,0
5542,-100,4,2,1,75,0,0
5891,-100,4,2,1,75,0,0
6356,-100,4,2,1,5,0,0
6466,465.116279069767,4,2,1,75,1,0
7861,-100,4,2,1,75,0,0
8210,-100,4,2,1,5,0,0
8326,-100,4,2,1,75,0,0
8559,-100,4,2,1,75,0,0
8907,-100,4,2,1,5,0,0
9024,-100,4,2,1,75,0,0
9256,-100,4,2,1,75,0,0
10186,-100,4,2,1,40,0,0
12503,468.75,4,2,1,30,1,0
14387,465.116279069767,4,2,1,30,1,0
19730,444.444444444444,4,2,1,35,1,0
20174,441.176470588235,4,2,1,35,1,0
20623,444.444444444444,4,2,1,40,1,0
27734,-100,4,2,1,50,0,0
34845,-100,4,2,1,55,0,0
38400,-100,4,2,1,60,0,0
41845,-100,4,2,1,5,0,0
41956,-100,4,2,1,60,0,0
42845,-100,4,2,1,20,0,0
45603,444.444444444444,4,2,1,15,1,0
49602,-100,4,2,1,20,0,0
50047,-200,4,2,1,20,0,0
50158,-100,4,2,1,5,0,0
51825,-100,4,2,1,25,0,0
52267,436.363636363636,4,2,1,30,1,0
52703,-100,4,2,1,40,0,0
53139,-100,4,2,1,50,0,0
53576,-100,4,2,1,60,0,0
54019,427.046263345196,4,2,1,75,1,0
54019,-100,4,2,1,75,0,0
54125,-100,4,2,1,5,0,0
54873,-100,4,2,1,75,0,0
54899,-100,4,2,1,20,0,0
55727,425.531914893617,4,2,1,75,1,1
67641,-100,4,2,1,75,0,1
67961,-100,4,2,1,5,0,1
68067,-100,4,2,1,75,0,1
68386,-100,4,2,1,5,0,1
68492,-100,4,2,1,75,0,1
68705,-100,4,2,1,75,0,1
69344,-100,4,2,1,75,0,1
69663,-100,4,2,1,5,0,1
69769,-100,4,2,1,75,0,1
70195,-100,4,2,1,75,0,1
70514,-100,4,2,1,5,0,1
70620,-100,4,2,1,75,0,1
71046,-100,4,2,1,75,0,1
71365,-100,4,2,1,5,0,1
71471,-100,4,2,1,75,0,1
71897,-100,4,2,1,75,0,1
72216,-100,4,2,1,5,0,1
72322,-100,4,2,1,75,0,1
72748,-100,4,2,1,75,0,1
73067,-100,4,2,1,5,0,1
73173,-100,4,2,1,75,0,1
73492,-100,4,2,1,5,0,1
73599,-100,4,2,1,75,0,1
74450,-100,4,2,1,75,0,1
74769,-100,4,2,1,5,0,1
74875,-100,4,2,1,75,0,1
75195,-100,4,2,1,5,0,1
75301,-100,4,2,1,75,0,1
76152,-100,4,2,1,75,0,1
76578,-100,4,2,1,75,0,1
77004,-100,4,2,1,75,0,1
77430,-100,4,2,1,75,0,1
77854,-100,4,2,1,75,0,1
79556,-100,4,2,1,75,0,1
79875,-100,4,2,1,5,0,1
79982,-100,4,2,1,75,0,1
80407,-100,4,2,1,75,0,1
80727,-100,4,2,1,5,0,1
80833,-100,4,2,1,75,0,1
81258,-100,4,2,1,75,0,1
81578,-100,4,2,1,5,0,1
81684,-100,4,2,1,75,0,1
82109,-100,4,2,1,75,0,1
82429,-100,4,2,1,5,0,1
82535,-100,4,2,1,75,0,1
82961,-100,4,2,1,75,0,0
83918,-100,4,2,1,75,0,0
84663,-100,4,2,1,75,0,0
85088,-100,4,2,1,5,0,0

[Colours]
Combo1 : 225,104,54
Combo2 : 201,74,56
Combo3 : 232,255,102
Combo4 : 205,170,156

[HitObjects]
438,345,417,6,0,L|438:169,1,166.666666666667,12|0,0:0|0:0,0:0:0:0:
274,185,1114,2,0,L|94:185,1,166.666666666667,12|0,0:0|0:0,0:0:0:0:
274,185,1825,6,0,L|274:63,1,100,8|8,0:0|0:0,0:0:0:0:
72,328,2287,6,0,P|56:252|100:152,1,166.666666666667,12|0,0:0|0:0,0:0:0:0:
252,168,2984,2,0,L|424:168,1,166.666666666667,12|0,0:0|0:0,0:0:0:0:
252,168,3682,6,0,L|252:32,1,100,8|8,0:0|0:0,0:0:0:0:
452,356,4147,6,0,L|452:128,1,200,12|12,0:0|0:0,0:0:0:0:
215,187,5077,2,0,L|448:188,1,200,12|12,0:0|0:0,0:0:0:0:
112,364,5891,6,0,P|60:304|136:196,1,200,12|0,0:0|0:0,0:0:0:0:
168,204,6466,2,0,L|312:204,1,100,0|0,1:0|1:0,0:0:0:0:
168,204,6931,2,0,L|168:88,1,100,0|0,1:0|1:0,0:0:0:0:
380,104,7396,2,0,L|312:104,1,50,8|8,0:0|0:0,0:0:0:0:
176,368,7861,6,0,P|116:336|200:256,1,200,12|2,0:0|0:0,0:0:0:0:
304,240,8559,2,0,P|356:208|296:104,1,200,12|2,0:0|0:0,0:0:0:0:
88,108,9256,2,0,L|88:28,1,50,8|8,0:0|0:0,0:0:0:0:
352,64,10186,5,2,0:0:0:0:
476,348,12503,5,2,0:0:0:0:
204,348,13206,1,2,0:0:0:0:
312,348,13440,1,2,0:0:0:0:
40,352,14143,1,2,0:0:0:0:
152,352,14387,6,0,L|152:232,1,100,2|2,0:0|0:0,0:0:0:0:
40,248,14852,1,2,0:0:0:0:
224,364,15084,2,0,P|296:272|204:140,1,300,2|2,0:0|0:0,0:0:0:0:
112,136,16014,1,2,0:0:0:0:
20,136,16247,5,2,0:0:0:0:
112,136,16480,2,0,B|316:136|316:136|316:292|316:292|316:40,1,600,2|2,0:0|0:0,0:0:0:0:
136,56,18107,6,0,L|137:207,1,133.333333333333,2|2,0:0|0:0,0:0:0:0:
260,352,19730,6,0,L|260:248,1,100,2|2,0:0|0:0,0:0:0:0:
156,268,20174,2,0,L|156:159,1,100,2|2,0:0|0:0,0:0:0:0:
368,352,20623,6,0,P|408:308|348:192,1,200,6|0,0:0|0:0,0:0:0:0:
268,200,21289,1,2,0:0:0:0:
180,200,21511,2,0,P|136:136|200:32,1,200,2|0,0:0|0:0,0:0:0:0:
276,36,22178,1,2,0:0:0:0:
364,36,22400,6,0,L|120:36,1,200,2|0,0:0|0:0,0:0:0:0:
72,40,23067,1,2,0:0:0:0:
160,40,23289,2,0,L|368:40,1,200,2|2,0:0|0:0,0:0:0:0:
268,40,23956,1,2,0:0:0:0:
56,364,24178,6,0,L|56:248,1,100,2|2,0:0|0:0,0:0:0:0:
144,264,24622,2,0,L|356:264,2,200,0|0|2,0:0|0:0|0:0,0:0:0:0:
368,264,25956,6,0,L|368:140,1,100,2|2,0:0|0:0,0:0:0:0:
280,168,26400,2,0,L|76:168,2,200,0|0|8,0:0|0:0|0:0,0:0:0:0:
380,172,27511,1,8,0:0:0:0:
160,352,27734,5,12,0:0:0:0:
160,352,28178,1,8,0:0:0:0:
380,268,28622,1,8,0:0:0:0:
180,268,29067,1,8,0:0:0:0:
412,188,29511,5,8,0:0:0:0:
412,188,29956,1,8,0:0:0:0:
192,236,30400,1,8,0:0:0:0:
392,236,30845,1,8,0:0:0:0:
88,348,31289,6,0,P|44:268|112:172,1,200,8|8,0:0|0:0,0:0:0:0:
292,176,32178,2,0,L|500:176,1,200,8|8,0:0|0:0,0:0:0:0:
292,176,33067,6,0,L|68:176,1,200,8|8,0:0|0:0,0:0:0:0:
292,172,33956,2,0,P|368:116|300:16,1,200,8|8,0:0|0:0,0:0:0:0:
232,28,34622,1,0,0:0:0:0:
28,36,34845,6,0,L|28:152,1,100,14|2,0:0|0:0,0:0:0:0:
128,132,35289,1,8,0:0:0:0:
328,128,35734,2,0,L|328:252,1,100,8|0,0:0|0:0,0:0:0:0:
228,220,36178,2,0,L|104:220,1,100,8|2,0:0|0:0,0:0:0:0:
340,80,36622,6,0,L|456:80,2,100,14|2|8,0:0|0:0|0:0,0:0:0:0:
148,356,37511,1,10,0:0:0:0:
44,316,37733,1,2,0:0:0:0:
42,222,37955,1,10,0:0:0:0:
142,181,38177,1,2,0:0:0:0:
364,356,38400,6,0,L|364:244,1,100,12|0,0:0|0:0,0:0:0:0:
264,264,38845,2,0,L|264:164,1,100,8|0,0:0|0:0,0:0:0:0:
164,168,39289,2,0,L|164:284,1,100,8|0,0:0|0:0,0:0:0:0:
64,268,39734,2,0,L|64:152,1,100,8|0,0:0|0:0,0:0:0:0:
164,176,40178,5,8,0:0:0:0:
472,348,40622,2,0,B|256:348,1,200,12|0,0:0|0:0,0:0:0:0:
180,348,41289,1,0,0:0:0:0:
92,348,41511,1,8,0:0:0:0:
427,87,41956,1,12,0:0:0:0:
152,324,42845,5,2,0:0:0:0:
440,180,43734,1,2,0:0:0:0:
128,352,45603,5,2,0:0:0:0:
332,272,46047,1,2,0:0:0:0:
56,228,47825,1,2,0:0:0:0:
408,176,49602,1,2,0:0:0:0:
192,376,50047,6,0,P|160:316|216:-4,1,400,2|0,0:0|1:0,0:0:0:0:
336,272,52267,5,0,1:0:0:0:
196,276,52703,1,0,1:0:0:0:
364,272,53139,1,0,1:0:0:0:
168,276,53576,1,0,1:0:0:0:
480,200,54019,1,2,1:2:0:0:
256,192,54446,12,0,55300,0:0:0:0:
160,380,55727,6,0,P|124:288|180:196,1,200,6|8,1:2|0:0,0:0:0:0:
260,204,56365,1,2,0:0:0:0:
352,204,56578,2,0,P|396:120|336:16,1,200,2|8,1:2|0:0,0:0:0:0:
268,28,57216,1,2,0:0:0:0:
176,28,57429,6,0,L|400:28,1,200,2|8,1:2|0:0,0:0:0:0:
468,28,58067,1,2,0:0:0:0:
376,28,58280,2,0,L|164:28,1,200,2|10,1:2|0:0,0:0:0:0:
176,28,58918,1,2,0:0:0:0:
376,296,59131,6,0,L|516:296,2,100,2|2|8,1:2|0:0|0:0,0:0:0:0:
176,312,59982,2,0,L|64:312,2,100,0|0|8,1:0|0:0|0:0,0:0:0:0:
276,312,60620,1,2,0:0:0:0:
76,256,60833,6,0,L|76:136,1,100,2|2,1:2|0:0,0:0:0:0:
176,152,61258,1,8,0:0:0:0:
376,148,61684,2,0,L|376:268,1,100,0|2,1:0|0:0,0:0:0:0:
272,252,62109,2,0,L|160:252,1,100,10|2,0:0|0:0,0:0:0:0:
372,184,62535,5,6,1:2:0:0:
472,180,62748,2,0,B|472:364|472:364|472:308,1,200,0|2,0:0|0:0,0:0:0:0:
372,364,63386,1,2,1:2:0:0:
272,368,63599,2,0,L|68:368,1,200,0|2,0:0|0:0,0:0:0:0:
172,368,64237,5,2,1:2:0:0:
272,368,64450,2,0,P|320:288|248:200,1,200,0|2,0:0|0:0,0:0:0:0:
168,208,65088,1,2,1:2:0:0:
68,208,65301,1,0,0:0:0:0:
64,108,65514,1,10,0:2:0:0:
168,108,65727,1,2,0:2:0:0:
372,356,65939,6,0,P|408:304|352:184,1,200,2|2,1:2|1:2,0:0:0:0:
132,200,66790,2,0,P|96:140|152:20,1,200,2|2,1:2|1:2,0:0:0:0:
464,360,67641,6,0,L|464:120,1,200,12|12,1:2|1:2,0:0:0:0:
260,156,68492,2,0,L|480:156,1,200,12|0,1:2|0:0,0:0:0:0:
152,360,69344,6,0,P|116:280|172:176,1,200,6|10,1:2|0:0,0:0:0:0:
252,184,69982,1,2,0:0:0:0:
344,184,70195,2,0,L|120:184,1,200,0|10,1:0|0:0,0:0:0:0:
144,184,70833,1,2,0:0:0:0:
344,360,71046,6,0,P|388:304|328:200,1,200,0|10,1:0|0:0,0:0:0:0:
244,204,71684,1,2,0:0:0:0:
152,204,71897,2,0,P|108:144|168:32,1,200,0|10,1:0|0:0,0:0:0:0:
244,40,72535,1,2,0:0:0:0:
444,360,72748,6,0,L|444:128,1,200,6|2,1:2|1:2,0:0:0:0:
136,168,73599,2,0,L|32:168,1,100,14|10,0:0|0:0,0:0:0:0:
312,356,74450,6,0,L|104:356,1,200,6|2,1:2|1:2,0:0:0:0:
424,272,75301,2,0,L|424:164,1,100,10|10,0:0|0:0,0:0:0:0:
156,364,76152,6,0,L|156:132,1,200,2|10,0:0|0:0,0:0:0:0:
352,168,77003,1,2,0:0:0:0:
156,168,77429,1,10,0:0:0:0:
456,360,77854,6,0,P|480:296|416:56,1,300,14|2,0:0|0:0,0:0:0:0:
253,363,78705,2,0,P|209:327|261:115,1,300,14|0,0:0|0:0,0:0:0:0:
363,106,79556,6,0,L|363:246,1,100,4|0,1:2|0:0,0:0:0:0:
176,216,79982,1,10,0:0:0:0:
336,220,80407,2,0,L|204:220,1,100,0|0,1:0|0:0,0:0:0:0:
420,136,80833,1,10,0:0:0:0:
252,140,81258,6,0,L|252:28,1,100,0|0,1:0|0:0,0:0:0:0:
432,36,81684,1,10,0:0:0:0:
264,352,82109,2,0,L|380:352,1,100,0|0,1:0|0:0,0:0:0:0:
184,264,82535,1,10,0:0:0:0:
384,184,82961,5,10,1:2:0:0:
132,376,83918,6,0,P|64:344|160:144,1,350,12|2,0:0|0:0,0:0:0:0:
392,144,84929,1,14,0:0:0:0:
256,192,85301,12,0,87641,0:0:0:0:
