osu file format v14

[General]
AudioFilename: audio.mp3
AudioLeadIn: 0
PreviewTime: 54019
Countdown: 0
SampleSet: Soft
StackLeniency: 0.7
Mode: 2
LetterboxInBreaks: 0
WidescreenStoryboard: 1

[Editor]
Bookmarks: 73173
DistanceSpacing: 1
BeatDivisor: 12
GridSize: 4
TimelineZoom: 2.5

[Metadata]
Title:Let's Go, Crimson Knight!
TitleUnicode:真红骑士,出发!
Artist:Yu-Peng Chen @HOYO-MiX
ArtistUnicode:陈致逸 @HOYO-MiX
Creator:[_-Kukkai-_]
Version:Rain
Source:Genshin Impact
Tags:Moecho -Hex- 真紅の騎士、出発! 原神 米哈游 MiHoYo Klee 可莉 Keli クレー Kuree 클레 Keulle 角色演示 キャラクター実戦紹介 New Character Demo 闪耀的群星 輝く星々 OST Album The Stellar Moments 陈致逸 苑迪萌 Dimeng Yuan 龙之艺四重奏 Art of Dragon Quartet 夏之炜 Zhiwei Xia Video Game Instrumental Orchestra
BeatmapID:2954832
BeatmapSetID:1435970

[Difficulty]
HPDrainRate:5
CircleSize:3.8
OverallDifficulty:9
ApproachRate:9
SliderMultiplier:2.8
SliderTickRate:2

[Events]
//Background and Video events
0,0,"bgg.jpg",0,0
//Break Periods
//Storyboard Layer 0 (Background)
//Storyboard Layer 1 (Fail)
//Storyboard Layer 2 (Pass)
//Storyboard Layer 3 (Foreground)
//Storyboard Layer 4 (Overlay)
//Storyboard Sound Samples
Sample,10652,0,"audio/voc0.ogg",75
Sample,42400,0,"audio/voc1.ogg",75
Sample,54873,0,"audio/voc2.ogg",75
Sample,84875,0,"audio/voc3.ogg",75

[TimingPoints]
417,465.116279069767,4,2,1,75,1,0
417,-100,4,2,1,75,0,0
649,-100,4,2,1,75,0,0
1114,-100,4,2,1,75,0,0
1347,-100,4,2,1,75,0,0
1825,472.44094488189,4,2,1,75,1,0
2287,465.116279069767,4,2,1,75,1,0
2287,-100,4,2,1,75,0,0
2519,-100,4,2,1,75,0,0
2984,-100,4,2,1,75,0,0
3217,-100,4,2,1,75,0,0
3682,-100,4,2,1,75,0,0
4147,-100,4,2,1,75,0,0
4612,-100,4,2,1,75,0,0
5077,-100,4,2,1,75,0,0
5542,-100,4,2,1,75,0,0
5891,-100,4,2,1,75,0,0
6356,-100,4,2,1,5,0,0
6466,465.116279069767,4,2,1,75,1,0
7861,-100,4,2,1,75,0,0
8210,-100,4,2,1,5,0,0
8326,-100,4,2,1,75,0,0
8559,-100,4,2,1,75,0,0
8907,-100,4,2,1,5,0,0
9024,-100,4,2,1,75,0,0
9256,-100,4,2,1,75,0,0
10186,-100,4,2,1,40,0,0
12503,468.75,4,2,1,30,1,0
14387,465.116279069767,4,2,1,30,1,0
19730,444.444444444444,4,2,1,35,1,0
20174,441.176470588235,4,2,1,35,1,0
20623,444.444444444444,4,2,1,40,1,0
27734,-100,4,2,1,50,0,0
34845,-100,4,2,1,55,0,0
38400,-100,4,2,1,60,0,0
41845,-100,4,2,1,5,0,0
41956,-100,4,2,1,60,0,0
42845,-100,4,2,1,20,0,0
45603,444.444444444444,4,2,1,15,1,0
49602,-100,4,2,1,20,0,0
50158,-100,4,2,1,5,0,0
51827,-100,4,2,1,25,0,0
52267,436.363636363636,4,2,1,30,1,0
52703,-100,4,2,1,40,0,0
53139,-100,4,2,1,50,0,0
53576,-100,4,2,1,60,0,0
54019,427.046263345196,4,2,1,75,1,0
54019,-100,4,2,1,75,0,0
54125,-100,4,2,1,5,0,0
54873,-100,4,2,1,75,0,0
54899,-100,4,2,1,20,0,0
55727,425.531914893617,4,2,1,75,1,1
67641,-100,4,2,1,75,0,1
67961,-100,4,2,1,5,0,1
68067,-100,4,2,1,75,0,1
68386,-100,4,2,1,5,0,1
68492,-100,4,2,1,75,0,1
68705,-100,4,2,1,75,0,1
68758,-100,4,2,1,20,0,1
69344,-100,4,2,1,75,0,1
69663,-100,4,2,1,5,0,1
69769,-100,4,2,1,75,0,1
70195,-100,4,2,1,75,0,1
70514,-100,4,2,1,5,0,1
70620,-100,4,2,1,75,0,1
71046,-100,4,2,1,75,0,1
71365,-100,4,2,1,5,0,1
71471,-100,4,2,1,75,0,1
71897,-100,4,2,1,75,0,1
72216,-100,4,2,1,5,0,1
72322,-100,4,2,1,75,0,1
72748,-100,4,2,1,75,0,1
73067,-100,4,2,1,5,0,1
73173,-100,4,2,1,75,0,1
73492,-100,4,2,1,5,0,1
73599,-100,4,2,1,75,0,1
74450,-100,4,2,1,75,0,1
74769,-100,4,2,1,5,0,1
74875,-100,4,2,1,75,0,1
75195,-100,4,2,1,5,0,1
75301,-100,4,2,1,75,0,1
76152,-100,4,2,1,75,0,1
76578,-100,4,2,1,75,0,1
77004,-100,4,2,1,75,0,1
77430,-100,4,2,1,75,0,1
77854,-100,4,2,1,75,0,1
79556,-100,4,2,1,75,0,1
79875,-100,4,2,1,5,0,1
79982,-100,4,2,1,75,0,1
80407,-100,4,2,1,75,0,1
80727,-100,4,2,1,5,0,1
80833,-100,4,2,1,75,0,1
81258,-100,4,2,1,75,0,1
81578,-100,4,2,1,5,0,1
81684,-100,4,2,1,75,0,1
82109,-100,4,2,1,75,0,1
82429,-100,4,2,1,5,0,1
82535,-100,4,2,1,75,0,1
82961,-100,4,2,1,75,0,0
83918,-100,4,2,1,75,0,0
84663,-100,4,2,1,75,0,0
85088,-100,4,2,1,5,0,0

[Colours]
Combo1 : 225,104,54
Combo2 : 201,74,56
Combo3 : 232,255,102
Combo4 : 205,170,156

[HitObjects]
308,360,417,6,0,L|72:360,1,233.333333333333,12|0,0:0|0:0,0:0:0:0:
28,360,882,1,0,1:0:0:0:
352,260,1114,2,0,P|408:200|316:112,1,233.333333333333,12|0,0:0|0:0,0:0:0:0:
268,116,1579,1,0,1:0:0:0:
60,120,1825,6,0,L|60:280,1,140,8|8,0:0|0:0,0:0:0:0:
408,376,2287,6,0,P|472:328|372:244,1,233.333333333333,12|0,0:0|0:0,0:0:0:0:
340,240,2752,1,0,1:0:0:0:
28,72,2984,2,0,L|272:72,1,233.333333333333,12|0,0:0|0:0,0:0:0:0:
312,72,3449,1,0,1:0:0:0:
96,308,3682,6,0,L|96:152,1,140,8|8,0:0|0:0,0:0:0:0:
396,364,4147,6,0,L|396:200,1,140,12|0,0:0|0:0,0:0:0:0:
80,324,4612,2,0,L|36:188,1,140,12|0,0:0|0:0,0:0:0:0:
360,188,5077,2,0,L|504:112,1,140,12|0,0:0|0:0,0:0:0:0:
168,168,5542,2,0,L|16:168,1,140,12|0,0:0|0:0,0:0:0:0:
264,356,5891,6,0,P|332:316|252:172,1,280,12|0,0:0|0:0,0:0:0:0:
192,176,6466,1,0,1:0:0:0:
332,176,6698,1,0,1:0:0:0:
192,176,6931,1,0,1:0:0:0:
332,176,7163,1,0,1:0:0:0:
24,180,7396,2,0,L|24:92,1,70,8|8,0:0|0:0,0:0:0:0:
296,104,7861,6,0,L|60:104,1,210,12|0,0:0|0:0,0:0:0:0:
86,104,8326,1,2,0:0:0:0:
420,368,8559,2,0,P|480:304|388:232,1,210,12|0,0:0|0:0,0:0:0:0:
340,232,9024,1,2,0:0:0:0:
48,232,9256,2,0,L|48:144,1,70,8|8,0:0|0:0,0:0:0:0:
392,92,10186,5,2,0:0:0:0:
420,344,12503,6,0,L|104:344,1,280,2|0,0:0|0:0,0:0:0:0:
280,344,13206,1,2,0:0:0:0:
140,348,13440,2,0,P|60:248|160:148,1,280,2|0,0:0|0:0,0:0:0:0:
284,144,14143,1,2,0:0:0:0:
484,344,14387,6,0,L|336:344,2,140,2|2|2,0:0|0:0|0:0,0:0:0:0:
292,344,15084,2,0,P|200:304|300:68,1,420,2|2,0:0|0:0,0:0:0:0:
428,68,16014,1,2,0:0:0:0:
232,64,16247,5,2,0:0:0:0:
92,68,16480,2,0,B|92:348|92:348|372:348|372:348|372:36,1,840,2|2,0:0|0:0,0:0:0:0:
232,80,18107,5,2,0:0:0:0:
440,76,18340,2,0,L|516:76,1,46.6666666666667,2|2,0:0|0:0,0:0:0:0:
40,372,19730,6,0,L|40:216,1,140,2|2,0:0|0:0,0:0:0:0:
108,236,20063,1,0,0:0:0:0:
176,236,20174,1,2,0:0:0:0:
36,236,20394,1,2,0:0:0:0:
348,232,20623,6,0,L|496:232,2,140,6|0|0,0:0|0:0|0:0,0:0:0:0:
152,236,21289,1,2,0:0:0:0:
348,240,21511,2,0,L|348:60,1,140,2|0,0:0|0:0,0:0:0:0:
216,104,21956,1,0,0:0:0:0:
412,104,22178,1,2,0:0:0:0:
216,104,22400,6,0,L|60:104,2,140,2|0|0,0:0|0:0|0:0,0:0:0:0:
412,112,23067,1,2,0:0:0:0:
216,112,23289,2,0,L|216:300,1,140,2|0,0:0|0:0,0:0:0:0:
412,248,23734,2,0,L|248:248,1,140,2|2,0:0|0:0,0:0:0:0:
468,252,24178,5,2,0:0:0:0:
160,248,24400,1,2,0:0:0:0:
356,256,24622,2,0,L|356:88,1,140,0|0,0:0|0:0,0:0:0:0:
220,124,25067,2,0,L|64:124,1,140,0|0,0:0|0:0,0:0:0:0:
276,124,25511,2,0,L|280:304,1,140,2|0,0:0|0:0,0:0:0:0:
84,264,25956,5,2,0:0:0:0:
404,264,26178,1,2,0:0:0:0:
208,268,26400,2,0,L|208:96,1,140,0|0,0:0|0:0,0:0:0:0:
348,124,26845,2,0,L|207:127,1,140,0|0,0:0|0:0,0:0:0:0:
404,120,27289,1,8,0:0:0:0:
476,152,27400,1,8,0:0:0:0:
476,216,27511,1,8,0:0:0:0:
413,255,27622,1,8,0:0:0:0:
196,256,27734,5,12,0:0:0:0:
56,256,27956,1,0,0:0:0:0:
256,256,28178,1,8,0:0:0:0:
280,244,28400,1,0,0:0:0:0:
80,152,28622,1,8,0:0:0:0:
60,124,28845,1,0,0:0:0:0:
272,104,29067,1,8,0:0:0:0:
128,56,29289,1,0,0:0:0:0:
452,356,29511,5,8,0:0:0:0:
476,324,29734,1,0,0:0:0:0:
280,308,29956,1,8,0:0:0:0:
252,280,30178,1,0,0:0:0:0:
448,232,30400,1,8,0:0:0:0:
448,232,30622,1,0,0:0:0:0:
248,192,30845,1,8,0:0:0:0:
388,124,31067,1,0,0:0:0:0:
60,352,31289,6,0,L|60:188,1,140,8|0,0:0|0:0,0:0:0:0:
256,212,31734,2,0,L|96:212,1,140,8|0,0:0|0:0,0:0:0:0:
436,216,32178,2,0,L|444:40,1,140,8|0,0:0|0:0,0:0:0:0:
248,72,32622,2,0,L|452:72,1,140,8|0,0:0|0:0,0:0:0:0:
76,360,33067,6,0,L|236:360,1,140,8|0,0:0|0:0,0:0:0:0:
352,356,33511,2,0,L|360:192,1,140,8|0,0:0|0:0,0:0:0:0:
72,208,33956,2,0,L|72:40,1,140,8|0,0:0|0:0,0:0:0:0:
204,68,34400,1,8,0:0:0:0:
72,68,34622,1,0,0:0:0:0:
384,328,34845,5,14,0:0:0:0:
188,332,35067,2,0,L|188:176,1,140,2|8,0:0|0:0,0:0:0:0:
328,196,35511,2,0,L|180:196,1,140,0|8,0:0|0:0,0:0:0:0:
328,196,35956,2,0,L|328:56,1,140,0|8,0:0|0:0,0:0:0:0:
132,60,36400,1,2,0:0:0:0:
440,344,36622,5,14,0:0:0:0:
240,348,36845,2,0,L|240:192,1,140,2|8,0:0|0:0,0:0:0:0:
372,208,37289,1,0,0:0:0:0:
64,220,37511,2,0,L|240:220,1,140,10|2,0:0|0:0,0:0:0:0:
400,216,37956,2,0,L|400:44,1,140,10|2,0:0|0:0,0:0:0:0:
44,368,38400,6,0,L|28:208,1,140,12|0,0:0|0:0,0:0:0:0:
344,240,38845,2,0,L|368:88,1,140,8|0,0:0|0:0,0:0:0:0:
40,96,39289,2,0,L|180:96,1,140,8|0,0:0|0:0,0:0:0:0:
484,84,39734,2,0,L|316:84,1,140,8|0,0:0|0:0,0:0:0:0:
44,356,40178,2,0,L|44:204,1,140,8|0,0:0|0:0,0:0:0:0:
352,368,40622,6,0,L|80:256,1,280,12|0,0:0|0:0,0:0:0:0:
93,261,41289,1,0,0:0:0:0:
400,244,41511,2,0,P|464:196|372:120,1,210,8|0,0:0|0:0,0:0:0:0:
172,120,41956,5,12,0:0:0:0:
408,56,42845,5,2,0:0:0:0:
84,72,43734,1,2,0:0:0:0:
336,220,45603,5,2,0:0:0:0:
166,221,46047,1,2,0:0:0:0:
452,136,47825,1,2,0:0:0:0:
104,340,49602,5,2,0:0:0:0:
312,348,50047,2,0,P|276:-32|212:352,1,1120,2|0,0:0|1:0,0:0:0:0:
352,344,52267,5,0,1:0:0:0:
172,348,52703,1,0,1:0:0:0:
384,344,53139,1,0,1:0:0:0:
144,348,53576,1,0,1:0:0:0:
466,357,54019,6,0,B|178:353|178:353|179:222|179:222|326:277,1,560,2|0,1:2|0:0,0:0:0:0:
346,276,54926,1,0,0:0:0:0:
381,271,54979,1,0,0:0:0:0:
413,258,55033,1,0,0:0:0:0:
441,237,55086,1,0,0:0:0:0:
462,210,55139,1,0,0:0:0:0:
476,177,55193,1,0,0:0:0:0:
481,143,55246,1,0,0:0:0:0:
477,108,55300,1,0,0:0:0:0:
464,76,55353,1,0,0:0:0:0:
444,48,55406,1,0,0:0:0:0:
417,26,55460,1,0,0:0:0:0:
385,11,55513,1,0,0:0:0:0:
350,6,55566,1,0,0:0:0:0:
315,9,55620,1,0,0:0:0:0:
116,276,55727,5,6,1:2:0:0:
256,276,55939,2,0,L|364:276,2,70,0|0|8,0:0|0:0|0:0,0:0:0:0:
64,208,56365,1,2,0:0:0:0:
392,208,56578,1,2,1:2:0:0:
252,208,56790,2,0,L|252:96,1,70,0|0,0:0|0:0,0:0:0:0:
324,136,57003,1,8,0:0:0:0:
136,104,57216,1,2,0:0:0:0:
464,344,57429,5,2,1:2:0:0:
324,348,57641,1,0,0:0:0:0:
254,348,57747,1,0,0:0:0:0:
184,348,57853,1,8,0:0:0:0:
376,248,58067,1,2,0:0:0:0:
96,256,58280,1,2,1:2:0:0:
33,235,58386,1,0,0:0:0:0:
31,169,58492,1,0,0:0:0:0:
92,145,58599,1,0,0:0:0:0:
284,148,58705,2,0,L|448:148,1,140,10|2,0:0|0:0,0:0:0:0:
116,344,59131,5,2,1:2:0:0:
300,344,59344,1,2,0:0:0:0:
300,274,59450,1,0,0:0:0:0:
300,204,59556,1,8,0:0:0:0:
160,200,59769,1,0,0:0:0:0:
356,104,59982,1,0,1:0:0:0:
418,126,60088,1,0,0:0:0:0:
425,192,60194,1,0,0:0:0:0:
370,228,60301,1,0,0:0:0:0:
300,232,60407,1,8,0:0:0:0:
440,232,60620,1,2,0:0:0:0:
140,168,60833,5,2,1:2:0:0:
324,168,61046,2,0,L|424:168,2,70,2|0|8,0:0|0:0|0:0,0:0:0:0:
184,168,61471,1,0,0:0:0:0:
368,328,61684,2,0,L|368:252,1,70,0|0,1:0|0:0,0:0:0:0:
296,260,61897,2,0,L|384:260,1,70,2|0,0:0|0:0,0:0:0:0:
296,260,62109,2,0,L|140:260,1,140,10|2,0:0|0:0,0:0:0:0:
440,192,62535,5,6,1:2:0:0:
160,184,62748,2,0,L|60:184,2,70,0|0|8,0:0|0:0|0:0,0:0:0:0:
300,188,63173,1,2,0:0:0:0:
112,108,63386,1,2,1:2:0:0:
392,108,63599,2,0,L|488:108,2,70,0|0|8,0:0|0:0|0:0,0:0:0:0:
252,104,64024,1,2,0:0:0:0:
444,48,64237,5,2,1:2:0:0:
144,368,64450,2,0,L|144:272,1,70,0|0,0:0|0:0,0:0:0:0:
216,304,64663,1,8,0:0:0:0:
356,300,64875,1,2,0:0:0:0:
168,232,65088,1,2,1:2:0:0:
476,228,65301,1,0,0:0:0:0:
406,228,65407,1,0,0:0:0:0:
336,228,65513,1,10,0:2:0:0:
476,228,65727,1,2,0:2:0:0:
160,176,65939,5,2,1:2:0:0:
300,176,66152,2,0,L|384:176,2,70,2|0|2,1:2|1:2|1:2,0:0:0:0:
144,104,66578,2,0,L|68:104,2,70,2|0|2,1:2|1:2|1:2,0:0:0:0:
328,104,67003,2,0,L|400:104,2,70,2|0|2,1:2|1:2|1:2,0:0:0:0:
144,104,67429,2,0,L|64:104,1,70,2|0,1:2|1:2,0:0:0:0:
292,360,67641,6,0,P|360:304|256:256,1,210,12|0,1:2|0:0,0:0:0:0:
104,244,68067,2,0,P|40:200|124:108,1,210,12|0,1:2|0:0,0:0:0:0:
312,360,68492,2,0,L|160:360,1,140,12|0,1:2|0:0,0:0:0:0:
137,354,68758,1,0,0:0:0:0:
106,339,68811,1,0,0:0:0:0:
81,314,68864,1,0,0:0:0:0:
66,283,68917,1,0,0:0:0:0:
60,248,68970,1,0,0:0:0:0:
66,214,69024,1,0,0:0:0:0:
83,183,69077,1,0,0:0:0:0:
108,159,69130,1,0,0:0:0:0:
128,148,69166,1,0,0:0:0:0:
152,140,69202,1,0,0:0:0:0:
176,140,69237,1,0,0:0:0:0:
388,304,69344,6,0,P|452:232|356:176,1,210,6|0,1:2|0:0,0:0:0:0:
204,356,69769,2,0,L|364:356,1,140,10|2,0:0|0:0,0:0:0:0:
160,292,70195,2,0,P|104:248|176:148,1,210,0|0,1:0|0:0,0:0:0:0:
364,64,70620,2,0,L|196:64,1,140,10|2,0:0|0:0,0:0:0:0:
412,356,71046,6,0,P|476:312|396:240,1,210,0|0,1:0|0:0,0:0:0:0:
208,240,71471,2,0,L|352:240,1,140,10|2,0:0|0:0,0:0:0:0:
152,240,71897,2,0,P|88:196|176:116,1,210,0|0,1:0|0:0,0:0:0:0:
352,104,72322,2,0,L|352:248,1,140,10|2,0:0|0:0,0:0:0:0:
48,352,72748,6,0,L|280:240,1,210,6|0,1:2|0:0,0:0:0:0:
237,260,73173,2,0,L|47:351,1,210,2|0,1:2|0:0,0:0:0:0:
292,352,73599,1,14,0:0:0:0:
152,352,73811,1,10,0:0:0:0:
456,368,74450,6,0,L|248:268,1,210,6|0,1:2|0:0,0:0:0:0:
266,277,74875,2,0,L|455:367,1,210,2|0,1:2|0:0,0:0:0:0:
240,192,75301,1,10,0:0:0:0:
380,192,75513,1,10,0:0:0:0:
208,352,76152,5,2,0:0:0:0:
352,284,76578,1,10,0:0:0:0:
136,216,77003,1,2,0:0:0:0:
416,220,77429,1,10,0:0:0:0:
156,344,77854,6,0,P|88:308|180:48,1,420,14|2,0:0|0:0,0:0:0:0:
244,48,78599,1,2,0:0:0:0:
416,372,78705,2,0,P|448:280|208:128,1,420,14|0,0:0|0:0,0:0:0:0:
408,320,79556,6,0,P|440:244|360:116,1,210,4|0,1:2|0:0,0:0:0:0:
180,140,79982,1,10,0:0:0:0:
392,232,80407,2,0,L|160:232,1,210,0|0,1:0|0:0,0:0:0:0:
396,152,80833,1,10,0:0:0:0:
184,332,81258,6,0,P|120:288|204:196,1,210,0|0,1:0|0:0,0:0:0:0:
384,196,81684,1,10,0:0:0:0:
184,116,82109,2,0,L|408:116,1,210,0|0,1:0|0:0,0:0:0:0:
184,56,82535,1,10,0:0:0:0:
424,64,82961,5,10,1:2:0:0:
160,360,83918,6,0,P|76:324|184:36,1,490,12|2,0:0|0:0,0:0:0:0:
248,36,84769,1,2,0:0:0:0:
248,36,84849,1,2,0:0:0:0:
88,152,84929,1,14,0:0:0:0:
256,192,85088,12,0,87641,0:0:0:0:
