osu file format v14

[General]
AudioFilename: audio.mp3
AudioLeadIn: 0
PreviewTime: 54019
Countdown: 0
SampleSet: Soft
StackLeniency: 0.7
Mode: 2
LetterboxInBreaks: 0
WidescreenStoryboard: 1

[Editor]
Bookmarks: 73173
DistanceSpacing: 1
BeatDivisor: 4
GridSize: 4
TimelineZoom: 2.6

[Metadata]
Title:Let's Go, Crimson Knight!
TitleUnicode:真红骑士,出发!
Artist:Yu-Peng Chen @HOYO-MiX
ArtistUnicode:陈致逸 @HOYO-MiX
Creator:[_-Kukkai-_]
Version:Hex's Platter
Source:Genshin Impact
Tags:Moecho -Hex- 真紅の騎士、出発! 原神 米哈游 MiHoYo Klee 可莉 Keli クレー Kuree 클레 Keulle 角色演示 キャラクター実戦紹介 New Character Demo 闪耀的群星 輝く星々 OST Album The Stellar Moments 陈致逸 苑迪萌 Dimeng Yuan 龙之艺四重奏 Art of Dragon Quartet 夏之炜 Zhiwei Xia Video Game Instrumental Orchestra
BeatmapID:2958552
BeatmapSetID:1435970

[Difficulty]
HPDrainRate:4
CircleSize:3.4
OverallDifficulty:8
ApproachRate:8
SliderMultiplier:2.4
SliderTickRate:1

[Events]
//Background and Video events
0,0,"bgg.jpg",0,0
//Break Periods
//Storyboard Layer 0 (Background)
//Storyboard Layer 1 (Fail)
//Storyboard Layer 2 (Pass)
//Storyboard Layer 3 (Foreground)
//Storyboard Layer 4 (Overlay)
//Storyboard Sound Samples
Sample,10652,0,"audio/voc0.ogg",75
Sample,42400,0,"audio/voc1.ogg",75
Sample,54873,0,"audio/voc2.ogg",75
Sample,84875,0,"audio/voc3.ogg",75

[TimingPoints]
417,465.116279069767,4,2,1,75,1,0
417,-100,4,2,1,75,0,0
649,-100,4,2,1,75,0,0
1114,-100,4,2,1,75,0,0
1347,-100,4,2,1,75,0,0
1825,472.44094488189,4,2,1,75,1,0
2287,465.116279069767,4,2,1,75,1,0
2287,-100,4,2,1,75,0,0
2519,-100,4,2,1,75,0,0
2984,-100,4,2,1,75,0,0
3217,-100,4,2,1,75,0,0
3682,-100,4,2,1,75,0,0
4147,-100,4,2,1,75,0,0
4612,-100,4,2,1,75,0,0
5077,-100,4,2,1,75,0,0
5542,-100,4,2,1,75,0,0
5891,-100,4,2,1,75,0,0
6356,-100,4,2,1,5,0,0
6466,465.116279069767,4,2,1,75,1,0
7861,-100,4,2,1,75,0,0
8210,-100,4,2,1,5,0,0
8326,-100,4,2,1,75,0,0
8559,-100,4,2,1,75,0,0
8907,-100,4,2,1,5,0,0
9024,-100,4,2,1,75,0,0
9256,-100,4,2,1,75,0,0
10186,-100,4,2,1,40,0,0
12503,468.75,4,2,1,30,1,0
14387,465.116279069767,4,2,1,30,1,0
19730,444.444444444444,4,2,1,35,1,0
20174,441.176470588235,4,2,1,35,1,0
20623,444.444444444444,4,2,1,40,1,0
27734,-100,4,2,1,50,0,0
34845,-100,4,2,1,55,0,0
38400,-100,4,2,1,60,0,0
41845,-100,4,2,1,5,0,0
41956,-100,4,2,1,60,0,0
42845,-100,4,2,1,20,0,0
45603,444.444444444444,4,2,1,15,1,0
49602,-100,4,2,1,20,0,0
50158,-100,4,2,1,5,0,0
51825,-100,4,2,1,25,0,0
52267,436.363636363636,4,2,1,30,1,0
52703,-100,4,2,1,40,0,0
53139,-100,4,2,1,50,0,0
53576,-100,4,2,1,60,0,0
54019,427.046263345196,4,2,1,75,1,0
54019,-100,4,2,1,75,0,0
54125,-100,4,2,1,5,0,0
54873,-100,4,2,1,75,0,0
54899,-100,4,2,1,20,0,0
55727,425.531914893617,4,2,1,75,1,1
67641,-100,4,2,1,75,0,1
67961,-100,4,2,1,5,0,1
68067,-100,4,2,1,75,0,1
68386,-100,4,2,1,5,0,1
68492,-100,4,2,1,75,0,1
68705,-100,4,2,1,75,0,1
69344,-100,4,2,1,75,0,1
69663,-100,4,2,1,5,0,1
69769,-100,4,2,1,75,0,1
70195,-100,4,2,1,75,0,1
70514,-100,4,2,1,5,0,1
70620,-100,4,2,1,75,0,1
71046,-100,4,2,1,75,0,1
71365,-100,4,2,1,5,0,1
71471,-100,4,2,1,75,0,1
71897,-100,4,2,1,75,0,1
72216,-100,4,2,1,5,0,1
72322,-100,4,2,1,75,0,1
72748,-100,4,2,1,75,0,1
73067,-100,4,2,1,5,0,1
73173,-100,4,2,1,75,0,1
73492,-100,4,2,1,5,0,1
73599,-100,4,2,1,75,0,1
74450,-100,4,2,1,75,0,1
74769,-100,4,2,1,5,0,1
74875,-100,4,2,1,75,0,1
75195,-100,4,2,1,5,0,1
75301,-100,4,2,1,75,0,1
76152,-100,4,2,1,75,0,1
76578,-100,4,2,1,75,0,1
77004,-100,4,2,1,75,0,1
77430,-100,4,2,1,75,0,1
77854,-100,4,2,1,75,0,1
79556,-100,4,2,1,75,0,1
79875,-100,4,2,1,5,0,1
79982,-100,4,2,1,75,0,1
80407,-100,4,2,1,75,0,1
80727,-100,4,2,1,5,0,1
80833,-100,4,2,1,75,0,1
81258,-100,4,2,1,75,0,1
81578,-100,4,2,1,5,0,1
81684,-100,4,2,1,75,0,1
82109,-100,4,2,1,75,0,1
82429,-100,4,2,1,5,0,1
82535,-100,4,2,1,75,0,1
82961,-100,4,2,1,75,0,0
83918,-100,4,2,1,75,0,0
84663,-100,4,2,1,75,0,0
85088,-100,4,2,1,5,0,0

[Colours]
Combo1 : 225,104,54
Combo2 : 201,74,56
Combo3 : 232,255,102
Combo4 : 205,170,156

[HitObjects]
144,342,417,6,0,P|103:295|175:185,1,200,12|0,0:0|0:0,0:0:0:0:
201,180,882,1,0,1:0:0:0:
416,330,1114,2,0,P|457:283|385:173,1,200,12|0,0:0|0:0,0:0:0:0:
360,167,1579,1,0,1:0:0:0:
242,68,1825,1,8,0:0:0:0:
362,62,2061,1,8,0:0:0:0:
64,338,2287,6,0,L|45:126,1,200,12|0,0:0|0:0,0:0:0:0:
89,107,2752,1,0,1:0:0:0:
307,352,2984,2,0,L|119:255,1,200,12|0,0:0|0:0,0:0:0:0:
170,202,3449,1,0,1:0:0:0:
292,63,3682,1,8,0:0:0:0:
172,67,3914,1,8,0:0:0:0:
485,360,4147,6,0,L|502:100,1,240,12|12,0:0|0:0,0:0:0:0:
264,91,5077,2,0,L|249:229,1,120,12|0,0:0|0:0,0:0:0:0:
431,235,5542,1,12,0:0:0:0:
124,363,5891,6,0,P|93:271|207:188,1,240,12|0,0:0|0:0,0:0:0:0:
254,192,6466,1,0,1:0:0:0:
307,111,6698,1,0,1:0:0:0:
281,21,6931,1,0,1:0:0:0:
173,13,7163,1,0,1:0:0:0:
471,336,7396,2,0,L|484:247,1,60,8|8,0:0|0:0,0:0:0:0:
281,101,7861,6,0,L|471:160,1,180,12|0,0:0|0:0,0:0:0:0:
397,206,8326,1,2,0:0:0:0:
193,351,8559,2,0,P|189:263|295:243,1,180,12|0,0:0|0:0,0:0:0:0:
318,228,9024,1,2,0:0:0:0:
18,267,9256,2,0,L|15:192,1,60,8|8,0:0|0:0,0:0:0:0:
256,193,10186,5,2,0:0:0:0:
258,193,12503,5,2,0:0:0:0:
416,192,13206,1,2,0:0:0:0:
416,192,13440,1,2,0:0:0:0:
126,195,14143,1,2,0:0:0:0:
235,193,14387,1,2,0:0:0:0:
126,195,14619,1,2,0:0:0:0:
235,193,14852,1,2,0:0:0:0:
19,273,15084,6,0,L|15:29,1,240,2|0,0:0|0:0,0:0:0:0:
118,24,15782,1,2,0:0:0:0:
219,22,16014,1,2,0:0:0:0:
118,24,16247,1,2,0:0:0:0:
335,116,16480,6,0,B|-55:178|157:194|565:239|220:355|60:314,1,600,2|0,0:0|0:0,0:0:0:0:
211,342,17875,1,2,0:0:0:0:
428,347,18107,2,0,P|469:300|426:264,1,120,2|2,0:0|0:0,0:0:0:0:
396,262,18418,1,2,0:0:0:0:
156,333,19730,5,2,0:0:0:0:
47,252,19952,1,2,0:0:0:0:
46,121,20174,1,2,0:0:0:0:
154,67,20394,1,2,0:0:0:0:
451,34,20623,6,0,L|464:162,1,120,6|0,0:0|0:0,0:0:0:0:
355,158,21067,1,0,0:0:0:0:
463,153,21289,1,2,0:0:0:0:
258,327,21511,2,0,L|113:325,1,120,2|0,0:0|0:0,0:0:0:0:
247,234,21956,1,0,0:0:0:0:
137,233,22178,1,2,0:0:0:0:
442,244,22400,6,0,P|473:184|427:136,1,120,2|0,0:0|0:0,0:0:0:0:
338,135,22845,1,0,0:0:0:0:
445,133,23067,1,2,0:0:0:0:
239,356,23289,2,0,L|227:236,1,120,2|0,0:0|0:0,0:0:0:0:
431,194,23734,2,0,L|270:198,1,120,2|2,0:0|0:0,0:0:0:0:
419,81,24178,5,2,0:0:0:0:
115,41,24400,2,0,P|44:80|146:172,1,240,2|0,0:0|0:0,0:0:0:0:
225,188,25067,2,0,L|231:331,1,120,0|0,0:0|0:0,0:0:0:0:
121,347,25511,2,0,L|280:344,1,120,2|0,0:0|0:0,0:0:0:0:
135,261,25956,5,2,0:0:0:0:
422,273,26178,2,0,P|488:211|385:115,1,240,2|0,0:0|0:0,0:0:0:0:
304,106,26845,2,0,L|171:107,1,120
389,261,27289,2,0,L|459:260,2,60,8|8|8,0:0|0:0|0:0,0:0:0:0:
96,348,27734,6,0,L|72:225,1,120,12|0,0:0|0:0,0:0:0:0:
275,228,28178,2,0,L|289:86,1,120,8|0,0:0|0:0,0:0:0:0:
485,354,28622,5,8,0:0:0:0:
376,353,28844,1,0,0:0:0:0:
268,352,29066,1,8,0:0:0:0:
160,349,29288,1,0,0:0:0:0:
455,273,29511,6,0,L|470:149,1,120,8|0,0:0|0:0,0:0:0:0:
277,205,29956,2,0,L|258:78,1,120,8|0,0:0|0:0,0:0:0:0:
69,322,30399,5,8,0:0:0:0:
178,321,30621,1,0,0:0:0:0:
178,221,30845,1,8,0:0:0:0:
69,322,31067,1,0,0:0:0:0:
367,312,31289,6,0,L|381:177,1,120,8|0,0:0|0:0,0:0:0:0:
185,203,31734,2,0,L|42:204,1,120,8|0,0:0|0:0,0:0:0:0:
261,362,32178,1,8,0:0:0:0:
245,244,32400,1,0,0:0:0:0:
167,155,32622,1,8,0:0:0:0:
52,124,32844,1,0,0:0:0:0:
360,70,33067,6,0,L|500:71,1,120,8|0,0:0|0:0,0:0:0:0:
277,187,33511,2,0,L|263:328,1,120,8|0,0:0|0:0,0:0:0:0:
470,363,33956,1,8,0:0:0:0:
362,357,34178,1,0,0:0:0:0:
360,263,34400,1,8,0:0:0:0:
467,168,34622,1,0,0:0:0:0:
156,130,34845,5,14,0:0:0:0:
47,207,35067,2,0,L|177:209,2,120,2|8|0,0:0|0:0|0:0,0:0:0:0:
251,356,35734,2,0,L|267:222,1,120,8|0,0:0|0:0,0:0:0:0:
160,228,36178,2,0,L|29:218,1,120,8|2,0:0|0:0,0:0:0:0:
345,59,36622,5,14,0:0:0:0:
455,148,36845,2,0,L|322:142,2,120,2|8|0,0:0|0:0|0:0,0:0:0:0:
256,353,37511,2,0,L|246:221,1,120,10|2,0:0|0:0,0:0:0:0:
451,220,37956,2,0,L|461:90,1,120,10|2,0:0|0:0,0:0:0:0:
164,344,38400,5,12,0:0:0:0:
81,342,38622,1,0,0:0:0:0:
178,238,38845,1,8,0:0:0:0:
71,222,39067,1,0,0:0:0:0:
275,127,39289,1,8,0:0:0:0:
383,127,39511,1,0,0:0:0:0:
275,127,39734,1,8,0:0:0:0:
383,127,39956,1,0,0:0:0:0:
167,365,40178,6,0,L|30:347,1,120,8|0,0:0|0:0,0:0:0:0:
371,233,40622,1,12,0:0:0:0:
479,232,40845,1,0,0:0:0:0:
371,233,41067,2,0,L|357:105,1,120,0|0,0:0|0:0,0:0:0:0:
153,151,41511,2,0,L|139:299,1,120,8|0,0:0|0:0,0:0:0:0:
442,353,41956,5,12,0:0:0:0:
258,192,42845,1,2,0:0:0:0:
64,193,43734,1,2,0:0:0:0:
480,279,45603,6,0,P|480:197|358:84,1,240,2|2,0:0|0:0,0:0:0:0:
96,194,47825,1,2,0:0:0:0:
256,191,49602,5,2,0:0:0:0:
472,189,50047,2,0,P|361:322|467:142,1,840,2|0,0:0|0:0,0:0:0:0:
379,172,51825,5,0,1:0:0:0:
206,175,52267,1,0,1:0:0:0:
26,182,52703,1,0,1:0:0:0:
218,181,53139,1,0,1:0:0:0:
422,182,53576,1,0,1:0:0:0:
32,349,54019,5,2,1:2:0:0:
256,192,54232,12,0,55300,0:0:0:0:
169,326,55727,6,0,L|152:205,1,120,6|0,1:2|0:0,0:0:0:0:
248,165,56152,1,8,0:0:0:0:
343,162,56365,1,2,0:0:0:0:
154,61,56578,2,0,L|17:59,1,120,2|0,1:2|0:0,0:0:0:0:
132,156,57003,1,8,0:0:0:0:
35,160,57216,1,2,0:0:0:0:
320,348,57429,6,0,L|456:350,1,120,2|0,1:2|0:0,0:0:0:0:
343,274,57854,1,8,0:0:0:0:
247,273,58067,1,2,0:0:0:0:
439,222,58280,2,0,L|441:93,1,120,2|0,1:2|0:0,0:0:0:0:
254,93,58705,2,0,L|393:92,1,120,10|2,0:0|0:0,0:0:0:0:
477,91,59131,5,2,1:2:0:0:
159,308,59344,2,0,P|91:245|195:164,1,240,2|0,0:0|0:0,0:0:0:0:
271,156,59982,2,0,L|125:151,1,120,0|0,1:0|0:0,0:0:0:0:
247,335,60407,2,0,L|264:194,1,120,8|2,0:0|0:0,0:0:0:0:
164,187,60833,5,2,1:2:0:0:
465,208,61046,2,0,P|471:118|334:21,1,240,2|0,0:0|0:0,0:0:0:0:
271,18,61684,2,0,L|415:21,1,120,0|2,1:0|0:0,0:0:0:0:
189,285,62109,2,0,L|60:285,1,120,10|2,0:0|0:0,0:0:0:0:
388,178,62535,5,6,1:2:0:0:
482,94,62748,2,0,L|320:91,1,120,0|8,0:0|0:0,0:0:0:0:
266,95,63173,1,2,0:0:0:0:
364,94,63386,1,2,1:2:0:0:
174,164,63599,2,0,L|167:293,1,120,0|8,0:0|0:0,0:0:0:0:
264,267,64024,1,2,0:0:0:0:
166,266,64237,1,2,1:2:0:0:
456,355,64450,6,0,L|470:225,1,120,0|8,0:0|0:0,0:0:0:0:
371,212,64875,1,2,0:0:0:0:
466,211,65088,1,2,1:2:0:0:
273,81,65301,1,0,0:0:0:0:
368,83,65513,1,10,0:2:0:0:
464,86,65726,1,2,0:2:0:0:
166,337,65939,5,2,1:2:0:0:
69,275,66152,2,0,L|66:204,2,60,2|0|2,1:2|1:2|1:2,0:0:0:0:
165,98,66578,1,2,1:2:0:0:
357,39,66790,5,2,1:2:0:0:
251,38,67003,2,0,L|187:55,2,60,2|0|2,1:2|1:2|1:2,0:0:0:0:
357,39,67429,1,2,1:2:0:0:
65,146,67641,6,0,L|45:278,1,120,12|0,1:2|0:0,0:0:0:0:
227,360,68067,2,0,L|93:313,1,120,12|0,1:2|0:0,0:0:0:0:
427,281,68492,2,0,P|484:227|369:106,1,240,12|0,1:2|0:0,0:0:0:0:
376,61,69024,1,0,0:0:0:0:
319,44,69130,1,0,0:0:0:0:
30,27,69344,6,0,L|11:171,1,120,6|0,1:2|0:0,0:0:0:0:
291,297,69769,2,0,L|456:297,1,120,10|2,0:0|0:0,0:0:0:0:
226,356,70195,2,0,L|211:235,1,120,0|0,1:0|0:0,0:0:0:0:
488,174,70620,2,0,P|489:110|429:58,1,120,10|2,0:0|0:0,0:0:0:0:
280,246,71046,6,0,L|407:204,1,120,0|0,1:0|0:0,0:0:0:0:
59,255,71471,2,0,P|37:200|64:124,1,120,10|2,0:0|0:0,0:0:0:0:
223,70,71897,2,0,L|100:27,1,120,0|0,1:0|0:0,0:0:0:0:
393,362,72322,2,0,L|512:293,1,120,10|2,0:0|0:0,0:0:0:0:
171,269,72748,6,0,P|136:208|214:141,1,180,6|0,1:2|0:0,0:0:0:0:
254,141,73173,2,0,L|394:137,1,120,2|0,1:2|0:0,0:0:0:0:
77,191,73599,2,0,L|61:324,1,120,14|10,0:0|0:0,0:0:0:0:
354,354,74450,6,0,P|408:315|337:248,1,180,6|0,1:2|0:0,0:0:0:0:
294,246,74875,2,0,L|164:236,1,120,2|0,1:2|0:0,0:0:0:0:
484,218,75301,2,0,L|494:98,1,120,10|10,0:0|0:0,0:0:0:0:
173,354,76152,6,0,L|294:312,1,120,2|0,0:0|0:0,0:0:0:0:
195,270,76578,2,0,L|68:219,1,120,10|0,0:0|0:0,0:0:0:0:
264,159,77003,2,0,L|391:95,1,120,2|0,0:0|0:0,0:0:0:0:
179,71,77429,2,0,L|59:122,1,120,10|0,0:0|0:0,0:0:0:0:
367,346,77854,6,0,P|475:312|338:202,1,360,14|2,0:0|0:0,0:0:0:0:
235,191,78599,1,2,0:0:0:0:
115,193,78705,2,0,P|102:94|247:53,1,240,14|0,0:0|0:0,0:0:0:0:
310,33,79344,1,0,0:0:0:0:
126,337,79556,6,0,L|115:207,1,120,4|0,1:2|0:0,0:0:0:0:
409,153,79982,1,10,0:0:0:0:
262,310,80407,2,0,L|408:313,1,120,0|0,1:0|0:0,0:0:0:0:
98,149,80833,1,10,0:0:0:0:
241,321,81258,6,0,L|118:316,1,120,0|0,1:0|0:0,0:0:0:0:
430,128,81684,1,10,0:0:0:0:
279,313,82109,2,0,L|413:312,1,120,0|0,1:0|0:0,0:0:0:0:
121,121,82535,2,0,L|112:246,1,120,10|0,0:0|0:0,0:0:0:0:
397,326,82961,5,10,1:2:0:0:
126,335,83918,2,0,P|117:230|377:108,1,420,12|2,0:0|0:0,0:0:0:0:
305,94,84769,1,2,0:0:0:0:
72,93,84929,5,14,0:0:0:0:
256,192,85301,12,0,87641,0:0:0:0:
