osu file format v14

[General]
AudioFilename: audio.mp3
AudioLeadIn: 0
PreviewTime: 54019
Countdown: 0
SampleSet: Soft
StackLeniency: 0.7
Mode: 2
LetterboxInBreaks: 0
WidescreenStoryboard: 1

[Editor]
Bookmarks: 73173
DistanceSpacing: 1
BeatDivisor: 4
GridSize: 4
TimelineZoom: 1.9

[Metadata]
Title:Let's Go, Crimson Knight!
TitleUnicode:真红骑士,出发!
Artist:Yu-Peng Chen @HOYO-MiX
ArtistUnicode:陈致逸 @HOYO-MiX
Creator:[_-Kukkai-_]
Version:Cup
Source:Genshin Impact
Tags:Moecho -Hex- 真紅の騎士、出発! 原神 米哈游 MiHoYo Klee 可莉 Keli クレー Kuree 클레 Keulle 角色演示 キャラクター実戦紹介 New Character Demo 闪耀的群星 輝く星々 OST Album The Stellar Moments 陈致逸 苑迪萌 Dimeng Yuan 龙之艺四重奏 Art of Dragon Quartet 夏之炜 Zhiwei Xia Video Game Instrumental Orchestra
BeatmapID:2956772
BeatmapSetID:1435970

[Difficulty]
HPDrainRate:2
CircleSize:2
OverallDifficulty:6
ApproachRate:6
SliderMultiplier:1.9
SliderTickRate:1

[Events]
//Background and Video events
0,0,"bgg.jpg",0,0
//Break Periods
//Storyboard Layer 0 (Background)
//Storyboard Layer 1 (Fail)
//Storyboard Layer 2 (Pass)
//Storyboard Layer 3 (Foreground)
//Storyboard Layer 4 (Overlay)
//Storyboard Sound Samples
Sample,10652,0,"audio/voc0.ogg",75
Sample,42400,0,"audio/voc1.ogg",75
Sample,54873,0,"audio/voc2.ogg",75
Sample,84875,0,"audio/voc3.ogg",75

[TimingPoints]
417,465.116279069767,4,2,1,75,1,0
417,-100,4,2,1,75,0,0
649,-100,4,2,1,75,0,0
1114,-100,4,2,1,75,0,0
1347,-100,4,2,1,75,0,0
1825,472.44094488189,4,2,1,75,1,0
2287,465.116279069767,4,2,1,75,1,0
2287,-100,4,2,1,75,0,0
2519,-100,4,2,1,75,0,0
2984,-100,4,2,1,75,0,0
3217,-100,4,2,1,75,0,0
3682,-100,4,2,1,75,0,0
4147,-100,4,2,1,75,0,0
4612,-100,4,2,1,75,0,0
5077,-100,4,2,1,75,0,0
5542,-100,4,2,1,75,0,0
5891,-100,4,2,1,75,0,0
6356,-100,4,2,1,5,0,0
6466,465.116279069767,4,2,1,75,1,0
7861,-100,4,2,1,75,0,0
8210,-100,4,2,1,5,0,0
8326,-100,4,2,1,75,0,0
8559,-100,4,2,1,75,0,0
8907,-100,4,2,1,5,0,0
9024,-100,4,2,1,75,0,0
9256,-100,4,2,1,75,0,0
10186,-100,4,2,1,40,0,0
12503,468.75,4,2,1,30,1,0
14387,465.116279069767,4,2,1,30,1,0
19730,444.444444444444,4,2,1,35,1,0
20174,441.176470588235,4,2,1,35,1,0
20623,444.444444444444,4,2,1,40,1,0
20623,-111.111111111111,4,2,1,40,0,0
27734,-100,4,2,1,50,0,0
34845,-100,4,2,1,55,0,0
38400,-100,4,2,1,60,0,0
41845,-100,4,2,1,5,0,0
41956,-100,4,2,1,60,0,0
42845,-100,4,2,1,20,0,0
45603,444.444444444444,4,2,1,15,1,0
49602,-100,4,2,1,20,0,0
50047,-200,4,2,1,20,0,0
50158,-100,4,2,1,5,0,0
51825,-100,4,2,1,25,0,0
52267,436.363636363636,4,2,1,30,1,0
52703,-100,4,2,1,40,0,0
53139,-100,4,2,1,50,0,0
53576,-100,4,2,1,60,0,0
54019,427.046263345196,4,2,1,75,1,0
54019,-100,4,2,1,75,0,0
54125,-100,4,2,1,5,0,0
54873,-100,4,2,1,75,0,0
54899,-100,4,2,1,20,0,0
55727,425.531914893617,4,2,1,75,1,1
67641,-100,4,2,1,75,0,1
67961,-100,4,2,1,5,0,1
68067,-100,4,2,1,75,0,1
68386,-100,4,2,1,5,0,1
68492,-100,4,2,1,75,0,1
68705,-100,4,2,1,75,0,1
68758,-100,4,2,1,20,0,1
69344,-100,4,2,1,75,0,1
69663,-100,4,2,1,5,0,1
69769,-100,4,2,1,75,0,1
70195,-100,4,2,1,75,0,1
70514,-100,4,2,1,5,0,1
70620,-100,4,2,1,75,0,1
71046,-100,4,2,1,75,0,1
71365,-100,4,2,1,5,0,1
71471,-100,4,2,1,75,0,1
71897,-100,4,2,1,75,0,1
72216,-100,4,2,1,5,0,1
72322,-100,4,2,1,75,0,1
72748,-100,4,2,1,75,0,1
73067,-100,4,2,1,5,0,1
73173,-100,4,2,1,75,0,1
73492,-100,4,2,1,5,0,1
73599,-100,4,2,1,75,0,1
74450,-100,4,2,1,75,0,1
74769,-100,4,2,1,5,0,1
74875,-100,4,2,1,75,0,1
75195,-100,4,2,1,5,0,1
75301,-100,4,2,1,75,0,1
76152,-100,4,2,1,75,0,1
76578,-100,4,2,1,75,0,1
77004,-100,4,2,1,75,0,1
77430,-100,4,2,1,75,0,1
77854,-100,4,2,1,75,0,1
79556,-100,4,2,1,75,0,1
79875,-100,4,2,1,5,0,1
79982,-100,4,2,1,75,0,1
80407,-100,4,2,1,75,0,1
80727,-100,4,2,1,5,0,1
80833,-100,4,2,1,75,0,1
81258,-100,4,2,1,75,0,1
81578,-100,4,2,1,5,0,1
81684,-100,4,2,1,75,0,1
82109,-100,4,2,1,75,0,1
82429,-100,4,2,1,5,0,1
82535,-100,4,2,1,75,0,1
82961,-100,4,2,1,75,0,0
83918,-100,4,2,1,75,0,0
84663,-100,4,2,1,75,0,0
85088,-100,4,2,1,5,0,0

[Colours]
Combo1 : 225,104,54
Combo2 : 201,74,56
Combo3 : 232,255,102
Combo4 : 205,170,156

[HitObjects]
208,352,417,6,0,L|48:352,1,158.333333333333,12|0,0:0|0:0,0:0:0:0:
176,356,1114,2,0,L|348:356,1,158.333333333333,12|0,0:0|0:0,0:0:0:0:
204,352,1825,6,0,L|204:220,1,95,8|8,0:0|0:0,0:0:0:0:
320,260,2287,6,0,L|484:260,1,158.333333333333,12|0,0:0|0:0,0:0:0:0:
346,257,2984,2,0,L|176:256,1,158.333333333333,12|0,0:0|0:0,0:0:0:0:
320,260,3682,6,0,L|320:380,1,95,8|8,0:0|0:0,0:0:0:0:
208,352,4147,6,0,P|172:292|224:172,1,190,12|12,0:0|0:0,0:0:0:0:
396,160,5077,2,0,P|424:96|384:-16,1,190,12|12,0:0|0:0,0:0:0:0:
216,348,5891,2,0,P|168:300|236:204,1,190,12|0,0:0|0:0,0:0:0:0:
264,204,6466,5,0,1:0:0:0:
360,204,6698,1,0,1:0:0:0:
360,108,6931,1,0,1:0:0:0:
264,108,7163,1,0,1:0:0:0:
168,116,7396,2,0,L|76:116,1,47.5,8|8,0:0|0:0,0:0:0:0:
272,296,7861,5,12,0:0:0:0:
84,300,8326,2,0,L|84:180,1,95,2|12,0:0|0:0,0:0:0:0:
272,192,9024,2,0,L|408:192,1,95,2|8,0:0|0:0,0:0:0:0:
416,192,9372,1,8,0:0:0:0:
136,72,10186,5,2,0:0:0:0:
100,348,12503,5,2,0:0:0:0:
356,348,13206,2,0,L|468:348,1,95,2|2,0:0|0:0,0:0:0:0:
168,344,14143,1,2,0:0:0:0:
72,344,14387,1,2,0:0:0:0:
72,344,14619,1,2,0:0:0:0:
168,344,14852,1,2,0:0:0:0:
264,344,15084,1,2,0:0:0:0:
472,348,15782,6,0,L|472:228,1,95,2|2,0:0|0:0,0:0:0:0:
376,256,16247,1,2,0:0:0:0:
280,256,16480,1,2,0:0:0:0:
96,272,17875,6,0,L|96:152,1,95,2|2,0:0|0:0,0:0:0:0:
224,176,18418,1,2,0:0:0:0:
352,356,19730,5,2,0:0:0:0:
436,356,19952,1,2,0:0:0:0:
436,356,20174,1,2,0:0:0:0:
352,356,20394,1,2,0:0:0:0:
256,360,20623,6,0,L|64:360,1,170.999994781494,6|0,0:0|0:0,0:0:0:0:
172,364,21289,1,2,0:0:0:0:
256,360,21511,2,0,P|288:288|244:196,1,170.999994781494,2|0,0:0|0:0,0:0:0:0:
84,220,22400,6,0,P|56:152|116:52,1,170.999994781494,2|0,0:0|0:0,0:0:0:0:
180,68,23067,1,2,0:0:0:0:
264,68,23289,2,0,L|72:68,1,170.999994781494,2|2,0:0|0:0,0:0:0:0:
296,328,24178,6,0,L|412:328,2,85.4999973907472,2|2|0,0:0|0:0|0:0,0:0:0:0:
124,324,25067,2,0,L|124:140,1,170.999994781494,0|2,0:0|0:0,0:0:0:0:
312,140,25956,5,2,0:0:0:0:
228,140,26178,1,2,0:0:0:0:
144,140,26400,1,0,0:0:0:0:
308,360,26845,2,0,P|324:296|292:184,1,170.999994781494,0|8,0:0|0:0,0:0:0:0:
92,364,27734,5,12,0:0:0:0:
92,364,28178,1,8,0:0:0:0:
280,368,28622,1,8,0:0:0:0:
280,368,29067,1,8,0:0:0:0:
468,364,29511,5,8,0:0:0:0:
468,364,29956,1,8,0:0:0:0:
280,364,30400,1,8,0:0:0:0:
280,364,30845,1,8,0:0:0:0:
484,348,31289,6,0,L|484:132,1,190,8|8,0:0|0:0,0:0:0:0:
292,164,32178,2,0,L|500:164,1,190,8|8,0:0|0:0,0:0:0:0:
292,172,33067,6,0,L|76:172,1,190,8|8,0:0|0:0,0:0:0:0:
292,176,33956,2,0,P|316:232|288:372,1,190,8|8,0:0|0:0,0:0:0:0:
68,356,34845,6,0,L|68:232,1,95,14|2,0:0|0:0,0:0:0:0:
164,260,35289,1,8,0:0:0:0:
356,256,35734,2,0,L|152:256,1,190,8|8,0:0|0:0,0:0:0:0:
260,256,36400,1,2,0:0:0:0:
356,256,36622,6,0,L|356:128,1,95,14|2,0:0|0:0,0:0:0:0:
260,160,37067,1,8,0:0:0:0:
72,164,37511,2,0,P|32:104|80:8,1,190,10|10,0:0|0:0,0:0:0:0:
176,4,38178,1,2,0:0:0:0:
272,4,38400,6,0,L|480:4,2,190,12|8|8,0:0|0:0|0:0,0:0:0:0:
80,12,39734,1,8,0:0:0:0:
280,320,40178,5,8,0:0:0:0:
76,332,40622,2,0,P|52:272|92:148,1,190,12|0,0:0|0:0,0:0:0:0:
180,156,41289,1,0,0:0:0:0:
276,156,41511,1,8,0:0:0:0:
84,156,41956,5,12,0:0:0:0:
376,328,42845,5,2,0:0:0:0:
176,332,43734,1,2,0:0:0:0:
360,328,45603,5,2,0:0:0:0:
172,328,46047,1,2,0:0:0:0:
432,208,47825,5,2,0:0:0:0:
96,220,49602,1,2,0:0:0:0:
312,360,50047,6,0,P|368:292|296:28,1,380,2|0,0:0|1:0,0:0:0:0:
212,36,52267,5,0,1:0:0:0:
80,40,52703,1,0,1:0:0:0:
232,40,53139,1,0,1:0:0:0:
388,44,53576,1,0,1:0:0:0:
176,252,54019,1,2,1:2:0:0:
256,192,54446,12,0,55300,0:0:0:0:
392,368,55727,6,0,P|432:312|368:200,1,190,6|8,1:2|0:0,0:0:0:0:
292,212,56365,1,2,0:0:0:0:
196,212,56578,1,2,1:2:0:0:
384,212,57003,6,0,L|500:212,2,95,8|2|2,0:0|0:0|1:2,0:0:0:0:
192,216,57854,2,0,L|68:216,2,95,8|2|2,0:0|0:0|1:2,0:0:0:0:
380,228,58705,2,0,L|380:112,1,95,10|2,0:0|0:0,0:0:0:0:
284,140,59131,5,2,1:2:0:0:
188,144,59344,2,0,P|128:180|192:352,1,285,2|0,0:0|1:0,0:0:0:0:
372,348,60407,5,8,0:0:0:0:
277,348,60619,1,2,0:0:0:0:
182,348,60832,1,2,1:2:0:0:
276,348,61046,2,0,P|336:304|256:144,1,285,2|0,0:0|1:0,0:0:0:0:
72,160,62109,2,0,L|72:44,1,95,10|2,0:0|0:0,0:0:0:0:
168,64,62535,6,0,L|288:64,1,95,6|0,1:2|0:0,0:0:0:0:
452,72,63173,2,0,L|452:172,1,95,2|2,0:0|1:2,0:0:0:0:
356,172,63599,1,0,0:0:0:0:
168,176,64024,6,0,L|64:176,2,95,2|2|0,0:0|1:2|0:0,0:0:0:0:
372,176,64875,1,2,0:0:0:0:
277,176,65087,1,2,1:2:0:0:
182,176,65300,1,0,0:0:0:0:
277,176,65514,1,10,0:2:0:0:
476,364,65939,6,0,L|276:364,1,190,2|2,1:2|1:2,0:0:0:0:
476,364,66790,2,0,L|475:163,1,190,2|2,1:2|1:2,0:0:0:0:
304,176,67641,5,12,1:2:0:0:
125,51,68067,1,12,1:2:0:0:
317,51,68492,6,0,P|377:71|305:307,1,380,12|6,1:2|1:2,0:0:0:0:
113,299,69769,2,0,L|1:299,2,95,10|2|0,0:0|0:0|1:0,0:0:0:0:
305,303,70620,6,0,L|425:303,2,95,10|2|0,0:0|0:0|1:0,0:0:0:0:
113,299,71471,1,10,0:0:0:0:
208,299,71683,1,2,0:0:0:0:
303,299,71896,1,0,1:0:0:0:
113,299,72322,2,0,L|113:187,1,95,10|2,0:0|0:0,0:0:0:0:
209,199,72748,6,0,L|405:199,1,190,6|2,1:2|1:2,0:0:0:0:
209,207,73599,2,0,L|209:83,1,95,14|10,0:0|0:0,0:0:0:0:
401,111,74450,6,0,L|189:111,1,190,6|2,1:2|1:2,0:0:0:0:
401,111,75301,2,0,L|401:215,1,95,10|10,0:0|0:0,0:0:0:0:
117,343,76152,6,0,L|117:127,1,190,2|10,0:0|0:0,0:0:0:0:
309,155,77003,2,0,L|89:155,1,190,2|10,0:0|0:0,0:0:0:0:
313,347,77854,2,0,P|353:295|293:183,1,190,14|0,0:0|0:0,0:0:0:0:
213,195,78492,1,2,0:0:0:0:
117,195,78705,2,0,L|333:195,1,190,14|0,0:0|0:0,0:0:0:0:
105,331,79556,6,0,P|57:283|133:183,1,190,4|10,1:2|0:0,0:0:0:0:
297,187,80407,2,0,L|77:187,1,190,0|10,1:0|0:0,0:0:0:0:
297,195,81258,6,0,P|337:139|273:35,1,190,0|10,1:0|0:0,0:0:0:0:
97,43,82109,2,0,L|293:43,1,190,0|10,1:0|0:0,0:0:0:0:
81,127,82961,5,10,1:2:0:0:
317,355,83918,6,0,P|361:331|297:103,1,332.5,12|2,0:0|0:0,0:0:0:0:
177,111,84929,1,14,0:0:0:0:
256,192,85301,12,0,87641,0:0:0:0:
