osu file format v14

[General]
AudioFilename: audio.mp3
AudioLeadIn: 0
PreviewTime: 31434
Countdown: 0
SampleSet: Soft
StackLeniency: 0.7
Mode: 2
LetterboxInBreaks: 0
WidescreenStoryboard: 1

[Editor]
DistanceSpacing: 1
BeatDivisor: 7
GridSize: 16
TimelineZoom: 3.699998

[Metadata]
Title:Exclusive Specialty
TitleUnicode:独家特调
Artist:Yu-Peng Chen @HOYO-MiX
ArtistUnicode:陈致逸 @HOYO-MiX
Creator:Stompy_
Version:Stardust Prism's Platter
Source:Genshin Impact
Tags:mniam stardust prism saka gacha game mihoyo vgm video game music instrumental diona character theme 迪奥娜 Kätzlein HoYoverse Mondstadt The Stellar Moments Demo ost soundtrack
BeatmapID:3618655
BeatmapSetID:1767840

[Difficulty]
HPDrainRate:4
CircleSize:4
OverallDifficulty:7.5
ApproachRate:7.5
SliderMultiplier:2.2
SliderTickRate:2

[Events]
//Background and Video events
0,0,"7WPSues.jpeg",0,0
//Break Periods
//Storyboard Layer 0 (Background)
//Storyboard Layer 1 (Fail)
//Storyboard Layer 2 (Pass)
//Storyboard Layer 3 (Foreground)
//Storyboard Layer 4 (Overlay)
//Storyboard Sound Samples

[TimingPoints]
174,560.747663551402,4,2,1,40,1,0
4659,-100,4,2,1,45,0,0
7183,731.707317073171,4,2,1,45,1,0
7365,645.161290322581,4,2,1,45,1,0
8010,566.037735849057,4,2,1,45,1,0
9142,-100,4,2,1,40,0,0
9145,560.747663551402,4,2,1,40,1,0
16808,-100,4,2,2,40,0,0
16855,-100,4,2,2,40,0,0
16995,560.747663551402,4,2,2,60,1,0
23723,-100,4,2,2,50,0,0
25966,-100,4,2,2,60,0,0
30452,-100,4,2,2,65,0,0
31574,530.973451327434,4,2,2,75,1,0
40069,-100,4,2,2,75,0,1
48034,-100,4,2,2,75,0,0
48565,-100,4,2,2,75,0,1
52812,-100,4,2,3,65,0,0
53874,-100,4,2,2,50,0,0
54140,-100,4,2,2,50,0,0
54273,-100,4,2,2,40,0,0

[Colours]
Combo1 : 255,183,219
Combo2 : 128,191,255
Combo3 : 255,217,179
Combo4 : 250,154,169

[HitObjects]
327,237,174,6,0,L|145:237,2,165,2|2|2,0:0|0:0|0:0,0:0:0:0:
130,230,1435,1,2,0:0:0:0:
295,211,1856,2,0,P|319:154|281:124,1,110,2|2,0:0|0:0,0:0:0:0:
70,183,2416,6,0,L|257:183,2,165,2|2|2,0:0|0:0|0:0,0:0:0:0:
236,145,3678,1,2,0:0:0:0:
71,269,4099,2,0,L|70:144,1,110,2|2,0:0|0:0,0:0:0:0:
312,263,4659,6,0,L|118:263,1,165,6|2,0:0|0:0,0:0:0:0:
312,273,5501,2,0,P|359:208|288:166,1,165,2|2,0:0|0:0,0:0:0:0:
141,152,6342,1,2,0:0:0:0:
384,128,6622,1,6,0:0:0:0:
276,324,6902,5,2,0:0:0:0:
230,272,7043,1,2,0:0:0:0:
267,224,7183,1,2,0:0:0:0:
327,214,7365,1,2,0:0:0:0:
437,201,7687,1,2,0:0:0:0:
317,160,8010,1,2,0:0:0:0:
458,121,8434,1,2,0:0:0:0:
182,202,9142,5,6,0:0:0:0:
256,192,9425,12,2,15313,0:0:0:0:
327,207,16084,5,0,0:0:0:0:
349,207,16154,1,2,0:0:0:0:
327,207,16247,1,2,0:0:0:0:
180,224,16434,1,6,0:0:0:0:
174,310,16808,1,0,1:3:0:0:
424,338,16995,6,0,P|497:265|395:222,1,220,6|10,0:0|0:0,0:0:0:0:
292,243,17836,1,2,1:0:0:0:
479,224,18116,2,0,L|479:89,1,110,2|2,1:0|0:0,0:0:0:0:
347,143,18677,2,0,L|494:143,1,110,10|2,0:0|1:0,0:0:0:0:
270,323,19237,6,0,P|210:281|293:191,1,220,2|10,1:2|0:0,0:0:0:0:
394,185,20079,1,2,0:0:0:0:
207,197,20359,2,0,L|206:38,1,110,2|2,1:0|0:0,0:0:0:0:
339,60,20920,2,0,L|222:60,1,110,8|2,0:0|0:0,0:0:0:0:
416,302,21480,6,0,P|489:226|385:190,1,220,2|10,1:0|0:0,0:0:0:0:
307,174,22322,1,2,1:0:0:0:
495,318,22602,2,0,L|495:197,1,110,2|0,1:0|0:0,0:0:0:0:
363,175,23163,2,0,L|477:175,1,110,10|0,0:0|1:0,0:0:0:0:
110,218,23723,1,6,1:2:0:0:
266,221,24284,1,12,0:0:0:0:
265,200,24720,5,0,0:0:0:0:
265,200,24765,1,0,0:0:0:0:
265,200,24845,1,2,0:0:0:0:
135,247,25266,2,0,L|84:248,2,27.5,2|2|2,0:0|0:0|0:0,0:0:0:0:
273,233,25726,1,0,0:0:0:0:
301,232,25806,1,0,0:0:0:0:
79,313,25966,6,0,P|31:291|113:186,1,220,6|10,1:2|0:0,0:0:0:0:
212,185,26808,1,2,1:0:0:0:
25,342,27088,2,0,P|91:293|10:208,1,220,2|10,1:0|0:0,0:0:0:0:
140,187,27929,1,2,1:0:0:0:
491,321,28209,6,0,B|269:320|269:320|497:321,1,440,6|2,1:2|0:0,0:0:0:0:
484,350,29892,1,2,0:0:0:0:
243,359,30452,1,2,0:0:0:0:
218,346,30522,1,0,0:0:0:0:
203,324,30592,1,0,0:0:0:0:
199,297,30662,1,0,0:0:0:0:
207,271,30732,1,2,0:0:0:0:
227,252,30802,1,0,0:0:0:0:
253,244,30872,1,0,0:0:0:0:
453,232,31013,6,0,P|509:180|443:145,1,165,6|0,0:0|0:0,0:0:0:0:
234,270,31574,5,6,1:2:0:0:
344,260,31839,2,0,L|344:194,1,55,2|2,0:0|1:0,0:0:0:0:
234,254,32104,2,0,P|181:213|252:169,1,165,10|2,0:0|1:0,0:0:0:0:
405,119,32901,2,0,L|285:119,2,110,2|10|2,1:0|0:0|1:0,0:0:0:0:
74,323,33697,6,0,L|74:202,1,110,2|2,1:0|0:0,0:0:0:0:
130,200,34096,1,2,0:0:0:0:
240,138,34228,2,0,L|74:138,1,165,10|2,0:0|1:0,0:0:0:0:
257,267,35025,2,0,L|258:146,1,110,2|10,0:0|0:0,0:0:0:0:
391,125,35556,1,2,1:0:0:0:
62,326,35821,5,2,1:0:0:0:
173,309,36087,2,0,L|173:235,1,55,2|2,0:0|1:0,0:0:0:0:
60,252,36352,2,0,P|11:187|80:144,1,165,10|0,0:0|1:0,0:0:0:0:
248,242,37149,2,0,L|248:114,1,110,2|10,0:0|0:0,0:0:0:0:
135,121,37680,1,2,1:0:0:0:
464,326,37945,6,0,P|510:301|449:233,1,165,2|2,1:0|1:0,0:0:0:0:
337,326,38476,1,10,0:0:0:0:
216,327,38742,1,2,0:0:0:0:
150,324,38874,2,0,P|101:276|170:222,1,165,2|10,1:0|0:0,0:0:0:0:
351,282,39538,1,10,0:0:0:0:
461,223,39803,1,10,0:0:0:0:
393,197,39936,1,8,0:0:0:0:
200,305,40069,6,0,P|139:254|211:158,1,220,4|10,1:2|0:0,0:0:0:0:
329,164,40866,1,0,0:0:0:0:
208,280,41131,2,0,L|208:170,1,110,2|0,0:0|0:0,0:0:0:0:
329,143,41662,1,10,0:0:0:0:
274,139,41794,1,2,0:0:0:0:
219,136,41927,1,2,1:0:0:0:
219,136,42060,1,2,0:0:0:0:
412,330,42193,6,0,P|484:264|388:208,1,220,2|8,1:0|0:0,0:0:0:0:
299,192,42989,1,0,0:0:0:0:
112,287,43255,2,0,L|112:153,1,110,2|0,0:0|1:0,0:0:0:0:
221,113,43786,2,0,L|103:112,1,110,8|0,0:0|0:0,0:0:0:0:
442,338,44317,6,0,P|512:271|417:215,1,220,2|8,1:0|0:0,0:0:0:0:
326,209,45113,1,0,1:0:0:0:
221,223,45379,2,0,L|221:95,1,110,0|2,0:0|0:0,0:0:0:0:
334,85,45910,2,0,L|447:85,1,110,10|2,0:0|1:0,0:0:0:0:
112,275,46441,6,0,P|43:212|148:184,1,220,2|10,1:0|0:0,0:0:0:0:
247,268,47237,1,2,0:0:0:0:
299,261,47369,1,2,0:0:0:0:
324,214,47502,1,0,1:0:0:0:
301,167,47635,1,10,0:0:0:0:
249,158,47767,1,2,0:0:0:0:
72,309,48034,1,10,0:0:0:0:
17,282,48166,1,0,1:0:0:0:
17,282,48299,1,2,0:0:0:0:
71,200,48432,1,0,0:0:0:0:
275,189,48565,6,0,L|274:62,1,110,6|2,1:2|0:0,0:0:0:0:
87,89,49096,1,10,0:0:0:0:
197,91,49361,2,0,L|274:91,1,55,10|2,0:0|1:0,0:0:0:0:
140,225,49759,1,0,1:0:0:0:
140,225,49892,1,2,0:0:0:0:
327,219,50158,2,0,L|445:219,1,110,10|2,0:0|0:0,0:0:0:0:
106,217,50689,6,0,L|106:82,1,110,2|2,1:0|0:0,0:0:0:0:
293,87,51220,1,10,0:0:0:0:
183,78,51485,2,0,L|126:78,1,55,10|6,0:0|1:2,0:0:0:0:
238,164,51883,1,10,0:0:0:0:
238,164,52016,1,2,1:0:0:0:
425,218,52281,2,0,L|303:218,1,110,10|2,0:0|0:0,0:0:0:0:
201,210,52812,5,8,0:0:0:0:
201,210,53078,1,8,0:0:0:0:
28,161,53476,1,8,0:0:0:0:
495,161,53874,1,6,1:2:0:0:
256,192,54140,12,2,57326,0:0:0:0:
