osu file format v14

[General]
AudioFilename: audio.mp3
AudioLeadIn: 0
PreviewTime: 31434
Countdown: 0
SampleSet: Soft
StackLeniency: 0.7
Mode: 2
LetterboxInBreaks: 0
WidescreenStoryboard: 1

[Editor]
DistanceSpacing: 1.2
BeatDivisor: 4
GridSize: 16
TimelineZoom: 1

[Metadata]
Title:Exclusive Specialty
TitleUnicode:独家特调
Artist:Yu-Peng Chen @HOYO-MiX
ArtistUnicode:陈致逸 @HOYO-MiX
Creator:Stompy_
Version:Salad
Source:Genshin Impact
Tags:mniam stardust prism saka gacha game mihoyo vgm video game music instrumental diona character theme 迪奥娜 Kätzlein HoYoverse Mondstadt The Stellar Moments Demo ost soundtrack
BeatmapID:3618654
BeatmapSetID:1767840

[Difficulty]
HPDrainRate:3.5
CircleSize:3.5
OverallDifficulty:6.5
ApproachRate:6.5
SliderMultiplier:1
SliderTickRate:1

[Events]
//Background and Video events
0,0,"bgcat.jpg",0,0
//Break Periods
2,9345,16020
//Storyboard Layer 0 (Background)
//Storyboard Layer 1 (Fail)
//Storyboard Layer 2 (Pass)
//Storyboard Layer 3 (Foreground)
//Storyboard Layer 4 (Overlay)
//Storyboard Sound Samples

[TimingPoints]
174,560.747663551402,4,2,1,40,1,0
174,-45.662100456621,4,2,1,40,0,0
4659,-45.662100456621,4,2,1,45,0,0
7183,731.707317073171,4,2,1,45,1,0
7365,645.161290322581,4,2,1,45,1,0
8010,566.037735849057,4,2,1,45,1,0
9142,-100,4,2,1,40,0,0
9145,560.747663551402,4,2,1,40,1,0
16808,-100,4,2,2,40,0,0
16854,-100,4,2,2,40,0,0
16995,560.747663551402,4,2,2,60,1,0
16995,-45.662100456621,4,2,2,60,0,0
23723,-45.662100456621,4,2,2,50,0,0
25966,-45.662100456621,4,2,2,60,0,0
30452,-45.662100456621,4,2,2,65,0,0
31574,530.973451327434,4,2,2,75,1,0
31574,-48.0769230769231,4,2,2,75,0,0
40069,-48.0769230769231,4,2,2,75,0,1
48034,-48.0769230769231,4,2,2,75,0,0
48565,-48.0769230769231,4,2,2,75,0,1
52812,-48.0769230769231,4,2,3,65,0,0
53874,-48.0769230769231,4,2,2,50,0,0
54140,-48.0769230769231,4,2,2,50,0,0
54273,-48.0769230769231,4,2,2,40,0,0

[Colours]
Combo1 : 255,183,219
Combo2 : 128,191,255
Combo3 : 255,217,179
Combo4 : 250,154,169

[HitObjects]
197,83,174,6,0,L|13:83,2,164.249995363426,2|2|2,0:0|0:0|0:0,0:0:0:0:
361,83,1435,1,2,0:0:0:0:
197,83,1856,1,2,0:0:0:0:
306,83,2136,1,2,0:0:0:0:
164,269,2416,6,0,L|165:89,1,164.249995363426,2|2,0:0|0:0,0:0:0:0:
329,105,3258,1,2,0:0:0:0:
164,104,3678,1,2,0:0:0:0:
329,105,4099,2,0,L|448:105,1,109.499996908951,2|2,0:0|0:0,0:0:0:0:
220,100,4659,6,0,P|172:140|220:212,1,164.249995363426,6|2,0:0|0:0,0:0:0:0:
400,214,5501,1,2,0:0:0:0:
219,211,5921,1,2,0:0:0:0:
400,214,6342,2,0,L|521:213,1,109.499996908951,2|6,0:0|0:0,0:0:0:0:
66,231,9145,1,6,0:0:0:0:
91,37,16995,6,0,P|24:108|91:185,1,218.999993817902,6|10,0:0|0:0,0:0:0:0:
222,186,17836,1,2,1:0:0:0:
91,185,18116,2,0,L|215:186,1,109.499996908951,2|2,1:0|0:0,0:0:0:0:
68,186,18677,2,0,L|68:317,1,109.499996908951,10|2,0:0|1:0,0:0:0:0:
309,312,19237,6,0,P|376:238|309:163,1,218.999993817902,2|10,1:2|0:0,0:0:0:0:
176,158,20079,1,2,0:0:0:0:
309,163,20359,2,0,L|174:162,1,109.499996908951,2|2,1:0|0:0,0:0:0:0:
331,164,20920,2,0,L|331:291,1,109.499996908951,8|2,0:0|0:0,0:0:0:0:
90,284,21480,6,0,P|23:210|90:135,1,218.999993817902,2|10,1:0|0:0,0:0:0:0:
221,136,22322,1,2,1:0:0:0:
89,135,22602,2,0,L|330:134,1,218.999993817902,2|10,1:0|0:0,0:0:0:0:
176,134,23443,1,0,1:0:0:0:
417,128,23723,5,6,1:2:0:0:
417,128,24284,1,12,0:0:0:0:
413,344,25966,6,0,P|480:270|413:195,1,218.999993817902,6|10,1:2|0:0,0:0:0:0:
281,194,26808,1,2,1:0:0:0:
412,196,27088,2,0,L|286:196,1,109.499996908951,2|0,1:0|0:0,0:0:0:0:
182,117,27649,2,0,L|298:116,1,109.499996908951,10|2,0:0|1:0,0:0:0:0:
73,115,28209,6,0,P|6:189|73:263,1,218.999993817902,6|2,1:2|0:0,0:0:0:0:
292,266,29331,2,0,P|359:192|292:117,1,218.999993817902,2|2,0:0|0:0,0:0:0:0:
29,120,30452,2,0,L|257:120,1,218.999993817902,2|6,0:0|0:0,0:0:0:0:
115,119,31294,1,0,0:0:0:0:
356,75,31574,6,0,P|428:126|356:194,1,207.999998730469,6|10,1:2|0:0,0:0:0:0:
237,190,32370,2,0,L|175:190,1,51.9999996826172,0|2,0:0|1:0,0:0:0:0:
310,188,32768,1,2,1:0:0:0:
372,191,32901,2,0,L|482:191,2,103.999999365234,2|10|2,1:0|0:0|1:0,0:0:0:0:
143,334,33697,6,0,P|76:270|149:214,1,207.999998730469,2|10,1:0|0:0,0:0:0:0:
272,209,34494,2,0,L|345:208,1,51.9999996826172,0|2,0:0|1:0,0:0:0:0:
198,209,34892,1,0,1:0:0:0:
135,207,35025,2,0,L|-2:207,2,103.999999365234,2|10|2,0:0|0:0|1:0,0:0:0:0:
364,86,35821,6,0,P|435:143|368:206,1,207.999998730469,2|10,1:0|0:0,0:0:0:0:
241,205,36618,2,0,L|155:206,1,51.9999996826172,2|0,1:0|1:0,0:0:0:0:
314,207,37016,1,2,1:0:0:0:
376,205,37149,2,0,L|493:205,2,103.999999365234,2|10|2,0:0|0:0|1:0,0:0:0:0:
147,327,37945,6,0,P|79:265|150:207,1,207.999998730469,2|10,1:0|0:0,0:0:0:0:
275,211,38742,2,0,L|344:211,1,51.9999996826172,2|2,0:0|1:0,0:0:0:0:
201,209,39140,1,2,1:0:0:0:
263,209,39273,1,10,0:0:0:0:
35,211,39538,2,0,L|36:91,1,103.999999365234,10|10,0:0|0:0,0:0:0:0:
265,58,40069,6,0,L|487:58,2,207.999998730469,4|10|2,1:2|0:0|0:0,0:0:0:0:
139,58,41397,1,0,0:0:0:0:
265,58,41662,2,0,L|357:58,2,51.9999996826172,10|2|2,0:0|0:0|1:0,0:0:0:0:
139,58,42193,6,0,P|68:116|136:178,1,207.999998730469,2|8,1:0|0:0,0:0:0:0:
260,181,42989,1,0,0:0:0:0:
384,186,43255,2,0,P|454:244|386:306,1,207.999998730469,2|8,0:0|0:0,0:0:0:0:
260,301,44051,1,0,0:0:0:0:
31,194,44317,6,0,L|248:193,1,207.999998730469,2|8,1:0|0:0,0:0:0:0:
113,192,45113,1,0,1:0:0:0:
238,193,45379,2,0,L|236:77,1,103.999999365234,0|2,0:0|0:0,0:0:0:0:
113,63,45910,2,0,L|19:64,2,51.9999996826172,10|0|2,0:0|0:0|1:0,0:0:0:0:
342,62,46441,6,0,L|116:62,1,207.999998730469,2|10,1:0|0:0,0:0:0:0:
259,65,47237,1,2,0:0:0:0:
134,62,47503,2,0,L|46:63,2,51.9999996826172,0|10|2,1:0|0:0|0:0,0:0:0:0:
259,163,48034,2,0,L|121:163,1,103.999999365234,10|2,0:0|0:0,0:0:0:0:
384,164,48565,6,0,P|454:226|381:280,1,207.999998730469,6|10,1:2|0:0,0:0:0:0:
258,279,49361,2,0,L|170:281,1,51.9999996826172,10|2,0:0|1:0,0:0:0:0:
393,284,49892,2,0,L|499:284,2,103.999999365234,2|10|2,0:0|0:0|0:0,0:0:0:0:
163,300,50689,6,0,P|94:239|164:180,1,207.999998730469,2|10,1:0|0:0,0:0:0:0:
288,171,51485,2,0,L|372:173,1,51.9999996826172,10|6,0:0|1:2,0:0:0:0:
152,169,52016,2,0,L|20:170,2,103.999999365234,2|10|2,1:0|0:0|0:0,0:0:0:0:
381,178,52812,5,8,0:0:0:0:
277,181,53078,2,0,L|395:180,1,103.999999365234,8|4,0:0|0:0,0:0:0:0:
379,117,53476,1,8,0:0:0:0:
36,183,53874,1,6,1:2:0:0:
256,192,54140,12,2,57326,0:0:0:0:
