osu file format v14

[General]
AudioFilename: audio.mp3
AudioLeadIn: 0
PreviewTime: 97523
Countdown: 0
SampleSet: Soft
StackLeniency: 0.5
Mode: 0
LetterboxInBreaks: 0
WidescreenStoryboard: 1

[Editor]
DistanceSpacing: 1
BeatDivisor: 4
GridSize: 32
TimelineZoom: 2.1

[Metadata]
Title:Contemplation in Snow
TitleUnicode:白皑中的冥想
Artist:Yu-Peng Chen @HOYO-MiX
ArtistUnicode:陈致逸 @HOYO-MiX
Creator:Jennifer
Version:Normal
Source:Genshin Impact
Tags:純白での瞑想 阿贝多 原神 albedo Kreideprinz chalk prince Theme The Stellar Moments Mihoyo OST video game instrumental gacha Mondstadt Geo jennglebells foxygrandpa
BeatmapID:2986559
BeatmapSetID:1406827

[Difficulty]
HPDrainRate:4
CircleSize:3.2
OverallDifficulty:4
ApproachRate:5
SliderMultiplier:1
SliderTickRate:1

[Events]
//Background and Video events
0,0,"albedo.png",0,0
//Break Periods
2,68390,77656
//Storyboard Layer 0 (Background)
//Storyboard Layer 1 (Fail)
//Storyboard Layer 2 (Pass)
//Storyboard Layer 3 (Foreground)
//Storyboard Layer 4 (Overlay)
//Storyboard Sound Samples

[TimingPoints]
2655,427.807486631016,4,2,1,60,1,0
14633,427.046263345196,4,2,1,60,1,0
16234,-100,4,2,1,5,0,0
16341,441.176470588235,4,2,1,60,1,0
18105,444.444444444444,4,2,1,60,1,0
19438,439.56043956044,4,2,1,60,1,0
20317,441.176470588235,4,2,1,30,1,0
20758,-100,4,2,1,40,0,0
21199,-100,4,2,1,60,0,0
21640,-100,4,2,1,80,0,0
22081,443.62292051756,4,2,1,60,1,0
23411,441.176470588235,4,2,1,60,1,0
23852,441.176470588235,4,2,1,60,1,0
26940,444.444444444444,4,2,1,60,1,0
26940,-99.8003992015968,4,2,1,60,0,0
28273,441.176470588235,4,2,1,60,1,0
29155,441.663599558336,4,2,1,60,1,0
41521,444.444444444444,4,2,1,60,1,0
43298,451.127819548872,4,2,1,60,1,0
43974,444.444444444444,4,2,1,60,1,0
44196,444.444444444444,4,2,1,60,1,0
45084,446.096654275093,4,2,1,60,1,0
46868,442.314780685588,4,2,1,60,1,0
48637,443.131462333826,4,2,1,60,1,0
50409,444.444444444444,4,2,1,60,1,0
52186,483.870967741935,4,2,1,60,1,0
52427,437.956204379562,4,2,1,60,1,0
53521,447.761194029851,4,2,1,60,1,0
53968,444.444444444444,4,2,1,60,1,0
53968,-100,4,2,1,60,0,0
68190,-100,4,2,1,45,0,0
78634,-100,4,2,1,45,0,0
78856,-100,4,2,2,50,0,0
82412,-100,4,2,1,55,0,0
84856,-100,4,2,1,55,0,0
85079,-100,4,2,1,55,0,0
87523,-100,4,2,1,55,0,0
87745,-100,4,2,1,55,0,0
93523,-100,7,2,1,40,0,0
93968,-100,7,2,1,50,0,0
94412,-100,7,2,1,60,0,0
94856,-100,7,2,1,65,0,0
95301,-100,7,2,1,70,0,0
95745,-100,7,2,1,75,0,0
96190,-100,3,2,1,60,0,0
97412,-100,3,2,1,60,0,0
97523,444.444444444444,4,2,1,75,1,1
97523,-83.3333333333333,4,2,1,75,0,1
108634,447.093889716841,4,2,1,75,1,0
109975,-100,4,2,1,5,0,0
110307,-100,4,2,1,5,0,0
110422,458.015267175573,4,2,1,60,1,0
110651,439.56043956044,4,2,1,60,1,0
112409,441.176470588235,4,2,1,60,1,0
113070,508.474576271186,4,2,1,60,1,0
113959,495.867768595041,4,2,1,60,1,0
114206,441.176470588235,4,2,1,60,1,0
114426,468.75,4,2,1,60,1,0
114660,571.428571428571,4,2,1,60,1,0
114945,789.473684210526,4,2,1,60,1,0
116523,387.096774193548,4,2,1,60,1,0
116716,582.52427184466,4,2,1,60,1,0

[Colours]
Combo1 : 255,222,140
Combo2 : 238,184,83
Combo3 : 93,103,198
Combo4 : 50,49,106
Combo5 : 227,216,201

[HitObjects]
256,192,14633,5,2,0:0:0:0:
256,192,16341,12,4,21199,0:0:0:0:
92,128,22081,6,0,L|192:119,1,100,4|0,3:1|0:0,0:0:0:0:
217,162,22746,2,0,L|316:153,1,100,2|0,0:0|0:0,0:0:0:0:
365,143,23411,2,0,B|312:250|416:334|416:334|317:283|239:354,1,400,2|0,0:0|0:0,0:0:0:0:
215,318,25396,5,2,0:0:0:0:
215,318,25616,2,0,L|224:203,1,99.908088235294,6|0,0:0|0:0,0:0:0:0:
181,190,26278,2,0,P|143:216|79:226,1,99.908088235294,2|0,0:0|0:0,0:0:0:0:
48,199,26940,2,0,P|27:60|205:119,1,400,2|2,0:0|0:0,0:0:0:0:
252,142,28934,5,2,0:0:0:0:
252,142,29155,2,0,L|370:132,1,100.018402649981,0|0,3:0|3:0,0:0:0:0:
396,223,30038,2,0,L|278:233,1,100.018402649981,0|0,3:0|3:0,0:0:0:0:
199,250,30921,2,0,P|191:334|218:384,1,100.018402649981,0|0,3:0|3:0,0:0:0:0:
285,303,31804,1,0,3:0:0:0:
390,342,32246,5,0,3:0:0:0:
390,342,32467,1,2,0:0:0:0:
390,342,32688,2,0,B|396:292|396:292|388:228,1,100.018402649981,0|0,3:0|3:0,0:0:0:0:
317,164,33571,2,0,B|311:114|311:114|319:50,1,100.018402649981,0|0,3:0|3:0,0:0:0:0:
230,15,34454,2,0,L|115:22,1,100.018402649981,0|0,3:0|3:0,0:0:0:0:
142,120,35338,2,0,L|42:113,1,100.018402649981,0|0,3:0|3:0,0:0:0:0:
6,206,36221,5,4,3:1:0:0:
62,288,36663,1,8,3:0:0:0:
160,272,37104,2,0,P|244:264|294:291,1,100.018402649981,0|10,3:0|0:3,0:0:0:0:
292,311,37767,1,2,0:3:0:0:
292,311,37988,2,0,P|376:319|426:292,1,100.018402649981,0|10,3:0|0:3,0:0:0:0:
440,228,38871,1,0,3:0:0:0:
399,148,39313,5,10,0:3:0:0:
399,148,39534,1,2,0:3:0:0:
399,148,39754,2,0,B|347:134|347:134|280:137,1,100.018402649981,0|10,3:0|0:3,0:0:0:0:
214,187,40638,2,0,L|226:310,1,100.018402649981,0|10,3:0|0:3,0:0:0:0:
129,264,41521,2,0,L|119:364,1,100,2|2,3:2|3:2,0:0:0:0:
30,316,42409,2,0,L|36:255,1,50.324074074074,2|8,3:2|0:3,0:0:0:0:
2,227,42854,2,0,L|8:166,1,50.324074074074,8|8,3:0|3:0,0:0:0:0:
48,149,43298,6,0,P|113:183|191:178,1,149.775416666667,4|2,3:1|0:0,0:0:0:0:
296,75,44640,1,0,0:0:0:0:
427,146,45307,1,2,0:0:0:0:
296,75,45976,2,0,L|286:181,1,100.185873605948,2|2,0:0|0:0,0:0:0:0:
199,248,46868,6,0,P|273:245|342:279,2,150.112291666667,6|2|4,0:0|0:0|0:0,0:0:0:0:
199,248,49523,2,0,P|138:280|85:277,1,99.9261447562777,2|2,0:0|0:0,0:0:0:0:
126,183,50409,6,0,P|56:162|-22:145,2,150,6|2|2,0:2|0:0|0:0,0:0:0:0:
207,49,52427,5,6,0:2:0:0:
321,145,53083,2,0,L|301:263,1,100,2|2,0:0|0:0,0:0:0:0:
398,208,53968,6,0,P|450:191|507:199,1,100,0|10,3:0|0:3,0:0:0:0:
506,294,54856,2,0,P|454:311|395:304,1,100,0|10,3:0|0:3,0:0:0:0:
322,346,55745,1,0,3:0:0:0:
322,346,55968,1,10,0:3:0:0:
322,346,56190,2,0,L|251:335,1,50,10|2,0:3|0:3,0:0:0:0:
233,307,56634,2,0,L|248:208,1,100,0|10,3:0|0:3,0:0:0:0:
163,154,57523,6,0,L|173:96,1,50,0|2,3:0|0:3,0:0:0:0:
207,70,57968,1,10,0:3:0:0:
292,121,58412,2,0,P|342:141|403:137,1,100,0|10,3:0|0:3,0:0:0:0:
439,129,59079,1,2,0:3:0:0:
439,129,59301,2,0,P|459:179|455:240,1,100,0|10,3:0|0:3,0:0:0:0:
430,266,59968,1,2,0:3:0:0:
430,266,60190,2,0,L|328:275,1,100,0|10,3:0|0:3,0:0:0:0:
236,309,61079,6,0,P|180:286|132:283,1,100,0|10,3:0|0:3,0:0:0:0:
97,301,61745,1,2,0:3:0:0:
97,301,61968,2,0,L|105:201,1,100,0|10,3:0|0:3,0:0:0:0:
179,134,62856,1,0,3:0:0:0:
179,134,63079,1,10,0:3:0:0:
179,134,63301,2,0,L|251:129,1,50,10|2,0:3|0:3,0:0:0:0:
277,119,63745,2,0,P|321:158|392:140,1,100,0|10,3:0|0:3,0:0:0:0:
451,118,64634,6,0,L|442:221,1,100,2|10,3:2|0:3,0:0:0:0:
400,242,65301,1,2,0:3:0:0:
400,242,65523,2,0,L|407:331,1,50,2|2,3:2|0:0,0:0:0:0:
417,340,65968,2,0,L|506:333,1,50,10|2,0:3|0:3,0:0:0:0:
505,304,66412,5,2,3:2:0:0:
505,304,66634,1,2,0:2:0:0:
505,304,66856,2,0,L|510:254,1,50,10|2,3:2|0:0,0:0:0:0:
479,230,67301,1,2,3:2:0:0:
479,230,67523,1,2,3:2:0:0:
479,230,67745,2,0,L|474:180,1,50,8|8,1:3|1:3,0:0:0:0:
456,133,68190,5,4,0:1:0:0:
205,88,78856,6,0,P|159:163|162:291,2,200,0|2|0,3:0|0:0|3:0,0:0:0:0:
205,88,81523,1,0,3:0:0:0:
289,141,81968,1,0,3:0:0:0:
231,222,82412,6,0,L|127:237,1,100,6|2,0:0|0:0,0:0:0:0:
79,322,83301,1,2,0:0:0:0:
132,236,83745,1,2,0:0:0:0:
218,286,84190,5,2,0:0:0:0:
403,210,85079,1,2,0:0:0:0:
350,124,85523,1,2,0:0:0:0:
264,174,85968,1,2,0:0:0:0:
238,276,87745,6,0,P|186:268|102:261,1,100,4|2,0:0|0:0,0:0:0:0:
88,176,88634,2,0,P|140:168|224:161,1,100,2|2,0:0|0:0,0:0:0:0:
256,90,89523,1,2,0:0:0:0:
327,159,89968,1,2,0:0:0:0:
423,132,90412,2,0,P|411:201|400:335,2,200,6|2|2,0:0|0:0|0:0,0:0:0:0:
256,192,93079,12,4,96190,0:0:0:0:
347,139,97523,6,0,L|218:125,1,120,4|10,3:1|0:3,0:0:0:0:
169,140,98189,1,2,0:0:0:0:
169,140,98411,2,0,P|160:186|155:232,1,60,2|2,3:0|0:3,0:0:0:0:
205,236,98856,1,10,0:3:0:0:
158,346,99300,6,0,P|89:365|24:321,1,120,2|10,3:0|0:3,0:0:0:0:
27,295,99967,1,2,0:0:0:0:
27,295,100189,2,0,P|18:249|13:203,1,60,2|2,3:0|0:3,0:0:0:0:
54,189,100634,1,10,0:3:0:0:
10,76,101078,6,0,L|170:65,1,120,2|10,3:0|0:3,0:0:0:0:
190,90,101745,1,2,0:0:0:0:
190,90,101967,2,0,L|181:23,2,60,2|2|8,3:0|0:0|0:0,0:0:0:0:
237,135,102634,5,2,0:0:0:0:
237,135,102856,2,0,P|247:193|240:253,1,120,2|10,3:0|3:0,0:0:0:0:
277,300,103523,2,0,P|267:341|265:373,2,60,2|2|10,0:0|3:2|3:2,0:0:0:0:
331,274,104189,2,0,L|400:264,1,60,8|8,0:3|1:0,0:0:0:0:
424,216,104634,5,4,3:2:0:0:
354,118,105078,2,0,L|255:106,1,90,10|2,0:3|0:0,0:0:0:0:
189,154,105745,1,2,0:0:0:0:
189,154,105967,2,0,P|188:183|195:213,1,60,2|10,3:2|0:0,0:0:0:0:
164,264,106411,6,0,P|219:241|278:245,1,120,2|10,3:0|3:0,0:0:0:0:
311,301,107078,1,0,0:0:0:0:
311,301,107300,2,0,L|378:293,1,60,0|8,3:0|0:3,0:0:0:0:
393,238,107745,2,0,L|460:230,1,60,2|8,3:0|0:0,0:0:0:0:
358,107,108634,6,0,P|300:87|270:207,1,200
256,192,110422,1,4,1:0:0:0:
256,192,110651,1,4,1:0:0:0:
