osu file format v14

[General]
AudioFilename: audio.mp3
AudioLeadIn: 0
PreviewTime: 97461
Countdown: 0
SampleSet: Soft
StackLeniency: 0.4
Mode: 0
LetterboxInBreaks: 0
WidescreenStoryboard: 1

[Editor]
Bookmarks: 29142,36207,43605,43828,43939,44050,44272,44384,44495,44717,44829,44940,45162,45273,45385,45607,45718,45941,46052,46163,46386,46608,46719,46830,47053,47164,47387,47498,47720,47831,48054,48165,48388,48610,48721,48944,49055,49277,49389,49611,49722,49945,50056,50278,50501,50612,50834,51057,51168,51390,51613,51724,51947,52169,61061,68175,72065,72288,72399,72510,72621,72843,72955,73066,73288,73399,73510,73733,73844,73955,74177,74288,74400,74622,74733,74844,75066,75178,75289,75511,75622,75844,75956,76067,76178,76400,76511,76734,76845,76956,77067,77178,77401,77512,77734,77845,78068,78179,78290,78512,78623,78846,82402,96184,105739
DistanceSpacing: 1.2
BeatDivisor: 4
GridSize: 8
TimelineZoom: 1.7

[Metadata]
Title:Contemplation in Snow
TitleUnicode:白皑中的冥想
Artist:Yu-Peng Chen @HOYO-MiX
ArtistUnicode:陈致逸 @HOYO-MiX
Creator:- ascended -
Version:Insane
Source:Genshin Impact
Tags:純白での瞑想 阿贝多 原神 albedo Kreideprinz chalk prince Theme The Stellar Moments Mihoyo OST original sound track soundtrack video game videogame instrumental electronic gacha Mondstadt Geo Princeps Cretaceus -ascended-
BeatmapID:2969498
BeatmapSetID:1442494

[Difficulty]
HPDrainRate:4.6
CircleSize:4.2
OverallDifficulty:7
ApproachRate:8.2
SliderMultiplier:1.89999990463257
SliderTickRate:1

[Events]
//Background and Video events
0,0,"sucrose be like mmmm yess ohhhhhh yes alchemy omg knowledge oh my god ascension.jpg",0,0
//Break Periods
2,43498,51707
2,71945,78136
//Storyboard Layer 0 (Background)
//Storyboard Layer 1 (Fail)
//Storyboard Layer 2 (Pass)
//Storyboard Layer 3 (Foreground)
//Storyboard Layer 4 (Overlay)
//Storyboard Sound Samples

[TimingPoints]
2655,427.807486631016,4,2,1,60,1,0
2655,-100,4,2,1,60,0,0
14633,427.046263345196,4,2,1,25,1,0
14633,-250,4,2,1,25,0,0
15914,-250,4,2,1,10,0,0
16341,441.176470588235,4,2,1,25,1,0
16341,-133.333333333333,4,2,1,25,0,0
18105,444.444444444444,4,2,1,25,1,0
18105,-133.333333333333,4,2,1,25,0,0
19438,439.56043956044,4,2,1,25,1,0
19438,-100,4,2,1,25,0,0
19877,-105.263157894737,4,2,1,25,0,0
20317,441.176470588235,4,2,1,25,1,0
20317,-111.111111111111,4,2,1,25,0,0
20758,-99.9999999999999,4,2,1,35,0,0
21199,-90.9090909090909,4,2,1,45,0,0
21640,-83.3333333333333,4,2,1,44,0,0
22081,443.62292051756,4,2,1,55,1,0
22081,-111.111111111111,4,2,1,55,0,0
23411,441.176470588235,4,2,1,55,1,0
23411,-222.222222222222,4,2,1,55,0,0
23852,441.176470588235,4,2,1,55,1,0
23852,-100,4,2,1,55,0,0
25616,-111.111111111111,4,2,1,55,0,0
26940,444.444444444444,4,2,1,55,1,0
26940,-221.729490022173,4,2,1,55,0,0
28273,441.176470588235,4,2,1,55,1,0
28273,-100,4,2,1,55,0,0
29155,441.663599558336,4,2,1,55,1,0
29155,-100,4,2,1,55,0,0
36221,-100,4,2,1,60,0,0
41521,444.444444444444,4,2,1,60,1,0
41521,-83.3333333333333,4,2,1,60,0,0
43298,451.127819548872,4,2,1,60,1,0
43298,-100,4,2,1,60,0,0
43974,444.444444444444,4,2,1,60,1,0
43974,-100,4,2,1,60,0,0
44196,444.444444444444,4,2,1,60,1,0
44196,-100,4,2,1,60,0,0
45084,446.096654275093,4,2,1,60,1,0
45084,-100,4,2,1,60,0,0
46868,442.314780685588,4,2,1,60,1,0
46868,-100,4,2,1,60,0,0
48637,443.131462333826,4,2,1,60,1,0
48637,-100,4,2,1,60,0,0
50409,444.444444444444,4,2,1,60,1,0
50409,-100,4,2,1,60,0,0
52186,483.870967741935,4,2,1,60,1,0
52186,-100,4,2,1,60,0,0
52427,437.956204379562,4,2,1,60,1,0
52427,-181.818181818182,4,2,1,60,0,0
53521,447.761194029851,4,2,1,60,1,0
53521,-100,4,2,1,60,0,0
53968,444.444444444444,4,2,1,50,1,0
53968,-100,4,2,1,50,0,0
54412,-83.3333333333333,4,2,1,50,0,0
68190,-222.222222222222,4,2,1,50,0,0
78856,-133.333333333333,4,2,1,40,0,0
93079,-100,4,2,1,40,0,0
94856,-83.3333333333333,4,2,1,40,0,0
96190,-166.666666666667,4,2,1,60,0,0
97523,444.444444444444,4,2,1,75,1,1
97523,-66.6666666666667,4,2,1,75,0,1
97967,-71.4285714285714,4,2,1,75,0,1
99300,-66.6666666666667,4,2,1,75,0,1
99745,-71.4285714285714,4,2,1,75,0,1
101078,-66.6666666666667,4,2,1,75,0,1
101523,-71.4285714285714,4,2,1,75,0,1
106411,-68.9655172413793,4,2,1,75,0,1
108634,447.093889716841,4,2,1,60,1,0
108634,-111.111111111111,4,2,1,60,0,0
110422,458.015267175573,4,2,1,60,1,0
110422,-100,4,2,1,60,0,0
110651,439.56043956044,4,2,1,60,1,0
110651,-100,4,2,1,60,0,0
112369,441.176470588235,4,2,1,35,1,0
112396,-100,4,2,1,35,0,0
113030,508.474576271186,4,2,1,35,1,0
113061,-100,4,2,1,35,0,0
113917,495.867768595041,4,2,1,35,1,0
113947,-100,4,2,1,35,0,0
114164,441.176470588235,4,2,1,35,1,0
114219,-100,4,2,1,35,0,0
114396,468.75,4,2,1,35,1,0
114425,-100,4,2,1,35,0,0
114630,571.428571428571,4,2,1,35,1,0
114665,-100,4,2,1,35,0,0
114905,789.473684210526,4,2,1,35,1,0
114954,-100,4,2,1,35,0,0
116503,387.096774193548,4,2,1,35,1,0
116527,-100,4,2,1,35,0,0
116696,582.52427184466,4,2,1,35,1,0
116732,-100,4,2,1,35,0,0

[Colours]
Combo1 : 255,51,51
Combo2 : 253,227,138
Combo3 : 248,196,39
Combo4 : 140,140,255
Combo5 : 89,101,242
Combo6 : 218,218,218
Combo7 : 168,168,168
Combo8 : 255,128,128

[HitObjects]
89,105,14633,22,0,B|106:88|117:60|117:60|99:34|67:23|67:23|40:41|30:70|30:70|45:100|67:103,1,227.999988555908,4|0,2:3|0:0,2:0:0:0:
32,283,16341,38,0,P|73:266|105:262,1,71.2499964237215,0|2,0:0|2:0,0:0:0:0:
138,268,16671,1,2,2:0:0:0:
138,268,16782,1,2,2:0:0:0:
332,368,18105,6,0,P|370:315|369:290,1,71.2499964237215,0|2,0:0|2:0,0:0:0:0:
363,273,18438,1,2,2:0:0:0:
363,273,18549,1,2,2:0:0:0:
259,42,19877,102,0,P|211:51|163:55,1,90.2499954700469,0|2,0:0|2:0,0:0:0:0:
123,36,20207,1,2,2:0:0:0:
123,36,20317,86,0,P|103:51|93:86,1,42.7499978542329,2|0,2:0|0:0,0:0:0:0:
22,71,20537,2,0,P|18:95|35:128,1,42.7499978542329,2|0,2:0|0:0,0:0:0:0:
90,206,20758,6,0,P|91:173|96:149,1,47.4999976158143,2|0,2:0|0:0,0:0:0:0:
162,215,20978,2,0,P|163:182|168:158,1,47.4999976158143,2|0,2:0|0:0,0:0:0:0:
239,126,21199,102,0,P|265:122|299:140,1,52.2499973773957,2|0,2:0|0:0,0:0:0:0:
337,75,21419,2,0,P|358:91|368:127,1,52.2499973773957,2|0,2:0|0:0,0:0:0:0:
422,242,21640,6,0,P|421:209|416:185,1,56.9999971389771,2|0,2:0|0:0,0:0:0:0:
350,251,21861,2,0,P|349:218|344:194,1,56.9999971389771,2|0,2:0|0:0,0:0:0:0:
267,356,22081,6,0,B|220:371|183:329|208:317|168:274|115:291,1,170.999991416931,2|0,2:0|0:0,0:0:0:0:
14,332,22746,2,0,P|1:277|93:227,1,170.999991416931,2|0,2:0|0:0,0:0:0:0:
128,365,23411,6,0,P|133:273|176:27,1,341.999972396852,2|0,2:0|0:0,0:0:0:0:
333,120,25396,101,2,2:0:0:0:
333,120,25506,1,2,2:0:0:0:
333,120,25616,2,0,P|346:65|255:13,1,170.999991416931,2|0,2:0|0:0,0:0:0:0:
201,133,26278,2,0,B|245:118|285:161|260:173|297:215|344:200,1,170.999991416931,2|0,2:0|0:0,0:0:0:0:
506,212,26940,6,0,P|414:217|168:260,1,342.192774887175,2|0,2:0|0:0,0:0:0:0:
11,133,29155,69,2,3:2:0:0:
11,133,29265,2,0,P|55:126|85:169,1,94.9999952316285,2|0,2:0|0:0,0:0:0:0:
159,172,29596,2,0,P|161:144|174:69,1,94.9999952316285,2|0,3:2|0:0,0:0:0:0:
285,27,30038,21,2,3:2:0:0:
285,27,30148,2,0,P|319:-4|364:3,1,94.9999952316285,2|0,2:0|0:0,0:0:0:0:
418,56,30479,2,0,P|464:47|511:43,1,94.9999952316285,2|0,3:2|0:0,0:0:0:0:
497,175,30921,85,2,3:2:0:0:
497,175,31032,2,0,B|469:172|456:191|463:197|450:215|416:216,1,94.9999952316285,2|0,2:0|0:0,0:0:0:0:
350,179,31363,2,0,P|346:131|336:85,1,94.9999952316285,2|0,3:2|0:0,0:0:0:0:
201,178,31804,21,2,3:2:0:0:
201,178,31915,2,0,P|173:142|128:149,1,94.9999952316285,2|0,2:0|0:0,0:0:0:0:
62,187,32246,2,0,P|71:233|75:280,1,94.9999952316285,2|0,3:2|0:0,0:0:0:0:
183,384,32688,85,2,3:2:0:0:
183,384,32798,2,0,B|211:387|224:368|217:362|230:344|264:343,1,94.9999952316285,2|0,2:0|0:0,0:0:0:0:
338,369,33129,2,0,P|374:341|367:296,1,94.9999952316285,2|0,3:2|0:0,0:0:0:0:
241,246,33571,21,2,3:2:0:0:
241,246,33682,2,0,P|213:210|168:217,1,94.9999952316285,2|0,2:0|0:0,0:0:0:0:
94,244,34013,2,0,P|90:196|80:150,1,94.9999952316285,2|0,3:2|0:0,0:0:0:0:
175,34,34454,85,2,3:2:0:0:
175,34,34565,2,0,P|203:-2|248:5,1,94.9999952316285,2|0,2:0|0:0,0:0:0:0:
325,19,34896,2,0,P|316:65|312:112,1,94.9999952316285,2|0,3:2|0:0,0:0:0:0:
328,320,35338,21,2,3:2:0:0:
328,320,35448,2,0,B|300:317|287:336|294:342|281:360|247:361,1,94.9999952316285,2|2,2:0|2:0,0:0:0:0:
183,331,35779,2,0,P|188:304|200:273,3,47.4999976158143,2|2|2|2,3:2|2:0|2:0|0:2,0:0:0:0:
107,332,36221,85,2,3:2:0:0:
111,303,36332,1,2,2:0:0:0:
117,275,36442,1,2,2:0:0:0:
124,247,36552,1,0,0:0:0:0:
133,220,36663,1,10,2:0:0:0:
25,330,36884,85,2,2:0:0:0:
29,301,36994,1,2,2:0:0:0:
35,273,37104,1,2,3:2:0:0:
42,245,37215,1,0,0:0:0:0:
51,218,37325,1,2,2:0:0:0:
160,28,37546,54,0,P|181:16|197:-1,3,47.4999976158142,10|2|2|2,2:0|2:0|2:0|2:0,0:0:0:0:
79,3,37988,85,2,3:2:0:0:
88,30,38098,1,2,2:0:0:0:
95,58,38209,1,2,2:0:0:0:
101,86,38319,1,0,0:0:0:0:
105,115,38429,1,10,2:0:0:0:
3,30,38650,85,2,2:0:0:0:
12,57,38761,1,2,2:0:0:0:
19,85,38871,1,2,3:2:0:0:
25,113,38982,1,0,0:0:0:0:
29,142,39092,1,2,2:0:0:0:
194,209,39313,54,0,P|182:188|164:172,3,47.4999976158142,10|2|2|2,2:0|2:0|2:0|2:0,0:0:0:0:
168,290,39754,85,2,3:2:0:0:
194,280,39865,1,2,2:0:0:0:
223,274,39975,1,2,2:0:0:0:
251,268,40086,1,0,0:0:0:0:
280,264,40196,1,10,2:0:0:0:
195,366,40417,85,2,2:0:0:0:
222,357,40527,1,2,2:0:0:0:
250,350,40638,1,2,3:2:0:0:
278,344,40748,1,0,0:0:0:0:
307,340,40859,1,2,2:0:0:0:
452,189,41079,54,0,P|473:177|489:159,3,47.4999976158142,10|2|2|2,2:0|2:0|2:0|2:0,0:0:0:0:
429,109,41521,86,0,P|423:82|408:58,1,56.9999971389771,2|0,3:2|0:0,0:0:0:0:
330,162,41743,5,2,2:0:0:0:
330,162,41854,1,2,2:0:0:0:
330,162,41965,2,0,P|338:134|336:106,1,56.9999971389771,10|0,2:0|0:0,0:0:0:0:
237,47,42187,101,2,2:0:0:0:
237,47,42298,1,2,2:0:0:0:
237,47,42409,2,0,P|261:17|285:13,1,56.9999971389771,2|0,3:2|0:0,0:0:0:0:
117,165,42632,6,0,P|79:159|63:140,1,56.9999971389771,2|2,2:0|2:0,0:0:0:0:
108,26,42854,101,10,3:2:0:0:
139,54,42965,1,0,3:0:0:0:
164,89,43076,1,0,3:0:0:0:
183,127,43187,1,0,3:0:0:0:
194,168,43298,1,0,3:0:0:0:
353,242,52427,102,0,B|377:195|438:209|436:254|419:344|402:390|329:358|334:312,1,261.249994859696,4|0,2:3|0:0,2:0:0:0:
112,136,53968,5,4,2:3:0:0:
61,251,54190,53,2,3:2:0:0:
69,272,54301,1,2,3:2:0:0:
73,290,54412,2,0,B|129:311|164:256|159:245|156:234|190:170|257:198,1,227.999988555908,10|4,3:2|2:3,0:0:0:0:
402,297,55079,1,2,3:2:0:0:
395,319,55190,1,2,3:2:0:0:
377,328,55301,2,0,P|384:237|408:99,1,227.999988555908,10|4,3:2|2:3,0:0:0:0:
322,41,55968,54,0,P|325:88|341:101,1,56.9999971389771,0|0,3:0|0:0,0:0:0:0:
407,102,56190,1,8,3:2:0:0:
249,117,56412,2,0,P|192:106|136:101,1,113.999994277954,0|4,3:0|2:3,0:0:0:0:
39,180,56856,53,2,3:2:0:0:
48,201,56968,1,2,3:2:0:0:
51,225,57079,2,0,P|107:230|163:240,1,113.999994277954,10|0,3:2|3:0,0:0:0:0:
362,203,57523,54,0,P|368:293|267:264,1,227.999988555908,4|8,2:3|3:2,0:0:0:0:
281,154,58190,2,0,P|286:125|289:97,1,56.9999971389771,0|0,3:0|0:0,0:0:0:0:
300,21,58412,1,4,2:3:0:0:
97,103,58634,53,2,3:2:0:0:
107,84,58745,1,2,3:2:0:0:
108,65,58856,2,0,P|164:60|220:50,1,113.999994277954,10|0,3:2|3:0,0:0:0:0:
367,187,59301,54,0,P|327:142|277:157,1,113.999994277954,4|0,2:3|3:0,0:0:0:0:
264,253,59745,2,0,B|320:274|355:219|350:208|347:197|381:133|448:161,1,227.999988555908,8|4,3:2|2:3,0:0:0:0:
507,350,60412,53,2,3:2:0:0:
487,367,60523,1,2,3:2:0:0:
465,367,60634,2,0,P|471:311|481:255,1,113.999990798951,10|0,3:2|0:0,0:0:0:0:
335,373,61079,21,4,2:3:0:0:
335,373,61190,2,0,P|274:376|250:330,1,113.999994277954,2|0,2:0|0:0,0:0:0:0:
182,363,61523,2,0,P|137:323|151:273,1,113.999994277954,10|0,2:0|0:0,0:0:0:0:
264,228,61968,53,4,2:3:0:0:
265,199,62079,1,2,2:0:0:0:
269,171,62190,1,2,2:0:0:0:
273,143,62301,1,2,2:0:0:0:
279,114,62412,2,0,P|218:110|194:156,1,113.999994277954,8|0,2:0|0:0,0:0:0:0:
96,271,62856,53,4,2:3:0:0:
96,271,62968,2,0,P|87:214|73:159,1,113.999994277954,2|0,2:0|0:0,0:0:0:0:
0,178,63301,2,0,P|13:233|22:289,1,113.999994277954,10|0,2:0|0:0,0:0:0:0:
165,316,63745,53,4,2:3:0:0:
203,296,63856,1,2,2:0:0:0:
243,283,63968,1,2,2:0:0:0:
285,275,64079,1,2,2:0:0:0:
328,273,64190,2,0,P|341:316|288:351,1,113.999994277954,8|0,2:0|0:0,0:0:0:0:
200,207,64634,85,4,2:3:0:0:
200,207,64745,1,2,2:0:0:0:
200,207,64856,1,2,2:0:0:0:
180,92,65079,5,8,2:0:0:0:
180,92,65190,1,2,2:0:0:0:
180,92,65301,1,2,2:0:0:0:
292,16,65523,101,4,2:3:0:0:
292,16,65634,1,2,2:0:0:0:
292,16,65745,2,0,P|329:43|333:65,1,56.9999971389771,2|0,2:0|0:0,0:0:0:0:
272,142,65968,5,8,2:0:0:0:
272,142,66079,1,2,2:0:0:0:
272,142,66190,2,0,P|266:107|257:84,1,56.9999971389771,2|0,2:0|0:0,0:0:0:0:
392,254,66412,102,0,P|419:247|448:243,1,56.9999971389771,4|2,2:3|2:0,0:0:0:0:
381,180,66634,2,0,P|408:173|437:169,1,56.9999971389771,2|0,2:0|0:0,0:0:0:0:
301,245,66856,6,0,P|273:238|244:234,1,56.9999971389771,8|2,2:0|2:0,0:0:0:0:
290,319,67079,2,0,P|262:312|233:308,1,56.9999971389771,2|0,2:0|0:0,0:0:0:0:
99,340,67301,102,0,P|104:306|122:283,1,56.9999971389771,4|2,2:3|2:0,0:0:0:0:
59,234,67523,2,0,P|86:214|115:210,1,56.9999971389771,2|2,2:0|2:0,0:0:0:0:
234,129,67745,5,10,2:0:0:0:
277,120,67856,1,2,2:0:0:0:
320,109,67968,1,2,3:2:0:0:
361,95,68079,1,2,3:2:0:0:
414,94,68190,70,0,B|414:35|294:-17|307:61|401:-23|479:32|523:93|468:206|413:165|413:165|410:167|410:167|357:152|301:187|286:239|305:294|368:361|493:247|415:341|386:238,1,683.999965667726,2|0,2:0|0:0,0:0:0:0:
451,142,78856,54,0,P|457:93|465:65,1,71.2499964237215,0|2,3:0|2:0,0:0:0:0:
482,34,79190,1,2,2:0:0:0:
482,34,79301,1,2,2:0:0:0:
352,247,79968,6,0,P|367:205|398:192,1,71.2499964237215,2|2,2:0|2:0,0:0:0:0:
460,221,80412,1,0,3:0:0:0:
397,339,80634,102,0,P|357:327|315:324,1,71.2499964237215,0|2,3:0|2:0,0:0:0:0:
285,331,80968,1,2,2:0:0:0:
285,331,81079,2,0,P|262:295|272:267,1,71.2499964237215,2|0,2:0|3:0,0:0:0:0:
365,200,81523,6,0,P|405:212|447:215,1,71.2499964237215,2|2,2:0|2:0,0:0:0:0:
477,208,81856,1,0,0:0:0:0:
477,208,81968,2,0,P|500:244|490:272,1,71.2499964237215,2|0,2:0|0:0,0:0:0:0:
397,339,82412,101,2,2:0:0:0:
397,339,82856,2,0,P|386:265|362:193,2,142.499992847443,2|2|2,2:0|2:0|2:0,0:0:0:0:
277,374,84190,2,0,B|190:388|165:306|188:300|158:207|66:222,1,284.999985694886,2|2,2:0|2:0,0:0:0:0:
69,221,85523,6,0,P|19:275|42:331,1,142.499992847443,2|2,2:0|2:0,0:0:0:0:
493,123,87745,101,2,2:0:0:0:
493,123,88190,2,0,P|475:58|392:49,1,142.499992847443,2|2,2:0|2:0,0:0:0:0:
335,138,89079,1,2,2:0:0:0:
221,29,89523,6,0,P|245:105|257:177,2,142.499992847443,2|2|2,2:0|2:0|2:0,0:0:0:0:
211,327,91301,2,0,B|296:341|322:259|299:253|329:160|420:175,1,284.999985694886,2|2,2:0|2:0,0:0:0:0:
418,174,93079,70,0,P|439:185|452:213,3,47.4999976158142,2|0|0|0,3:2|3:0|3:0|0:0,0:0:0:0:
399,99,93523,2,0,P|422:92|451:103,3,47.4999976158142,0|0|0|0,3:2|3:0|3:0|0:0,0:0:0:0:
257,138,93968,6,0,P|235:126|223:98,3,47.4999976158142,0|0|0|0,3:0|3:0|3:0|0:0,0:0:0:0:
315,64,94412,2,0,P|307:41|318:12,3,47.4999976158142,0|0|0|0,3:0|3:0|3:0|0:0,0:0:0:0:
419,175,94856,102,0,P|421:206|428:236,1,56.9999971389771,0|0,3:0|3:0,0:0:0:0:
344,192,95079,2,0,P|346:223|353:253,1,56.9999971389771,0|0,3:0|0:0,0:0:0:0:
247,290,95301,6,0,P|252:262|254:233,1,56.9999971389771,0|0,3:0|3:0,0:0:0:0:
172,273,95523,2,0,P|177:245|179:216,1,56.9999971389771,0|0,3:0|3:0,0:0:0:0:
49,116,95745,101,8,3:2:0:0:
69,169,95856,1,8,3:2:0:0:
85,223,95968,1,8,3:2:0:0:
95,280,96079,1,8,3:2:0:0:
75,332,96190,102,0,B|74:358|56:381|56:381|25:381|1:367|1:367|-2:339|15:309|15:309|42:304|72:322,1,227.999988555908,8|0,3:2|0:0,0:0:0:0:
446,345,97523,22,0,B|388:352|355:295|387:287|349:227|283:235,1,213.749989271164,4|0,2:3|0:0,0:0:0:0:
242,365,97967,2,0,P|234:327|212:292,1,66.49999666214,8|0,2:1|0:0,0:0:0:0:
110,209,98189,53,2,2:1:0:0:
133,279,98300,2,0,B|74:307|74:307|46:242,1,132.99999332428,2|0,2:1|0:0,0:0:0:0:
110,209,98634,21,4,2:3:0:0:
162,96,98856,1,8,2:1:0:0:
284,127,99078,1,0,0:0:0:0:
377,258,99300,22,0,P|457:225|434:114,1,213.749989271164,4|0,2:3|0:0,0:0:0:0:
330,198,99745,2,0,P|359:184|393:183,1,66.49999666214,8|0,2:1|0:0,0:0:0:0:
223,169,99967,53,2,2:1:0:0:
198,95,100078,2,0,B|258:67|258:67|288:129,1,132.99999332428,2|0,2:1|0:0,0:0:0:0:
223,169,100411,21,4,2:3:0:0:
216,1,100634,1,8,2:1:0:0:
125,83,100856,1,0,0:0:0:0:
0,0,101078,22,0,P|37:79|72:208,1,213.749989271164,4|0,2:3|0:0,0:0:0:0:
0,324,101523,2,0,P|19:291|48:282,1,66.49999666214,8|0,2:1|0:0,0:0:0:0:
195,308,101745,53,2,2:1:0:0:
220,234,101856,2,0,B|160:206|160:206|130:268,1,132.99999332428,2|0,2:1|0:0,0:0:0:0:
195,308,102189,21,4,2:3:0:0:
304,248,102411,1,8,2:1:0:0:
389,346,102634,1,0,0:0:0:0:
497,211,102856,37,6,2:3:0:0:
486,240,102967,1,2,2:0:0:0:
479,272,103078,1,2,2:0:0:0:
472,303,103189,1,2,2:0:0:0:
469,336,103300,1,8,2:1:0:0:
432,162,103523,53,2,2:3:0:0:
417,207,103634,1,2,2:0:0:0:
406,252,103745,1,4,2:3:0:0:
396,297,103856,1,2,2:0:0:0:
389,346,103967,1,2,2:0:0:0:
509,154,104189,69,8,2:1:0:0:
509,122,104300,1,2,2:0:0:0:
493,93,104411,1,2,2:0:0:0:
464,77,104523,1,2,2:0:0:0:
419,88,104634,86,0,P|341:69|218:56,1,199.49998998642,4|0,2:3|0:0,0:0:0:0:
141,93,105078,37,10,2:1:0:0:
141,93,105189,1,0,0:0:0:0:
154,0,105411,1,2,2:1:0:0:
154,0,105523,1,4,2:3:0:0:
251,138,105745,21,2,2:0:0:0:
128,218,105967,1,8,2:1:0:0:
287,231,106189,1,2,2:0:0:0:
116,359,106411,38,0,P|209:336|323:322,1,206.624989628792,4|0,2:3|0:0,0:0:0:0:
396,369,106856,37,10,2:1:0:0:
396,369,106967,1,0,0:0:0:0:
512,333,107189,1,2,2:1:0:0:
512,333,107300,1,4,2:3:0:0:
467,178,107523,37,2,2:0:0:0:
319,322,107745,1,8,2:1:0:0:
332,162,107967,1,2,2:0:0:0:
332,162,108634,38,0,B|284:168|257:121|283:114|252:65|197:71,1,170.999991416931,2|0,2:0|0:0,0:0:0:0:
127,175,109304,5,2,2:0:0:0:
127,175,109416,1,2,2:0:0:0:
127,175,109528,2,0,P|114:94|87:6,1,170.999991416931,2|0,2:0|0:0,0:0:0:0:
21,309,110422,5,4,2:0:0:0:
263,261,110651,1,4,2:0:0:0:
263,261,112369,85,2,0:2:0:0:
327,306,113030,5,0,0:0:0:0:
335,285,113284,1,2,2:0:0:0:
402,316,113917,101,0,0:0:0:0:
472,286,114164,5,2,0:2:0:0:
457,267,114396,1,0,0:0:0:0:
444,247,114630,1,0,0:0:0:0:
432,226,114905,1,2,0:2:0:0:
432,226,116503,101,2,0:2:0:0:
459,188,116599,1,2,0:2:0:0:
504,183,116696,1,2,0:2:0:0:
504,183,117278,5,0,0:0:0:0:
