osu file format v14

[General]
AudioFilename: audio.mp3
AudioLeadIn: 0
PreviewTime: 11255
Countdown: 0
SampleSet: Soft
StackLeniency: 0.7
Mode: 2
LetterboxInBreaks: 0
WidescreenStoryboard: 1

[Editor]
Bookmarks: 21618
DistanceSpacing: 1
BeatDivisor: 3
GridSize: 16
TimelineZoom: 4.399999

[Metadata]
Title:A New Summer Adventure!
TitleUnicode:夏日新冒险!
Artist:Yu-Peng Chen @HOYO-MiX
ArtistUnicode:陈致逸 @HOYO-MiX
Creator:Stompy_
Version:Stardust Prism's Summer! Islands? Adventure!
Source:Genshin Impact
Tags:stardust prism 可莉 klee pyro ost original sound track soundtrack video game videogame instrumental imaginative the shimmering voyage 珍珠之歌 mihoyo 米哈游网络科技股份有限公司 golden apple archipelago 金苹果群岛 midsummer island adventure 盛夏!海岛?大冒险!Let's Go, Crimson Knight! 真红骑士,出发! Where the Sunlight Flees 童梦历险记 ! lets vgm
BeatmapID:3736404
BeatmapSetID:1820901

[Difficulty]
HPDrainRate:4
CircleSize:3.5
OverallDifficulty:7.5
ApproachRate:7.5
SliderMultiplier:0.999999999999999
SliderTickRate:1

[Events]
//Background and Video events
0,0,"bg.jpg",0,0
//Break Periods
//Storyboard Layer 0 (Background)
//Storyboard Layer 1 (Fail)
//Storyboard Layer 2 (Pass)
//Storyboard Layer 3 (Foreground)
//Storyboard Layer 4 (Overlay)
//Storyboard Sound Samples

[TimingPoints]
350,545.454545454546,4,2,1,35,1,0
350,-43.1034482758621,4,2,1,35,0,0
2531,-43.1034482758621,4,2,1,35,0,0
9258,410.958904109589,4,2,1,35,1,0
9258,-57.1428571428571,4,2,1,35,0,0
9394,545.454545454546,4,2,1,35,1,0
9394,-43.1034482758621,4,2,1,35,0,0
9666,410.958904109589,4,2,1,35,1,0
9666,-57.1428571428571,4,2,1,35,0,0
9803,545.454545454546,4,2,1,35,1,0
9803,-43.1034482758621,4,2,1,35,0,0
10256,454.545454545454,4,2,1,35,1,0
10256,-51.5463917525773,4,2,1,35,0,0
10484,545.454545454546,4,2,1,35,1,0
10484,-43.1034482758621,4,2,1,35,0,0
11255,545.454545454546,4,2,1,35,1,0
11255,-43.1034482758621,4,2,1,35,0,0
22164,-43.1034482758621,4,2,1,55,0,0
33073,-43.1034482758621,4,2,1,5,0,0

[Colours]
Combo1 : 106,106,255
Combo2 : 255,113,113
Combo3 : 113,176,255
Combo4 : 255,255,138

[HitObjects]
391,363,1986,5,2,0:2:0:0:
431,352,2077,1,2,0:2:0:0:
457,323,2168,1,2,0:2:0:0:
458,289,2259,1,2,0:2:0:0:
427,265,2350,1,2,0:2:0:0:
389,255,2440,1,2,0:2:0:0:
261,332,2531,6,0,P|147:213|286:157,1,348.000010620117,2|2,0:0|0:2,0:0:0:0:
380,284,3621,2,0,B|498:284|498:284|391:284,1,193.333339233398,2|2,0:2|0:2,0:0:0:0:
268,271,4440,1,2,0:2:0:0:
37,340,4712,6,0,L|37:91,1,232.000007080078,2|2,0:2|0:2,0:0:0:0:
115,95,5440,1,2,0:2:0:0:
193,90,5622,1,2,0:2:0:0:
154,85,5713,1,2,0:2:0:0:
111,233,5804,6,0,L|45:198,5,38.6666678466797,2|2|2|2|2|2,0:2|0:2|0:2|0:2|0:2|0:2,0:0:0:0:
111,233,6350,2,0,L|73:190,3,38.6666678466797,2|2|2|2,0:2|0:2|0:2|0:2,0:0:0:0:
93,198,6713,1,2,0:2:0:0:
216,252,7440,6,0,L|304:252,2,77.3333356933594,2|2|2,0:2|0:2|0:2,0:0:0:0:
55,276,7985,2,0,L|55:192,1,77.3333356933594,2|2,0:2|0:2,0:0:0:0:
133,190,8349,1,2,0:2:0:0:
296,268,8531,5,2,0:2:0:0:
322,239,8621,1,2,0:2:0:0:
295,207,8712,1,2,0:2:0:0:
253,194,8804,1,2,0:2:0:0:
221,193,8894,1,2,0:2:0:0:
253,194,8986,1,2,0:2:0:0:
297,149,9076,6,0,L|346:149,2,38.6666678466797,2|2|2,0:2|0:2|0:2,0:0:0:0:
157,178,9394,6,0,L|82:178,2,38.6666678466797,2|2|2,0:2|0:2|0:2,0:0:0:0:
199,175,9666,1,2,0:2:0:0:
257,175,9803,2,0,L|291:122,2,58.0000017700195,2|2|2,0:2|0:2|0:2,0:0:0:0:
180,284,10256,1,2,0:2:0:0:
180,284,10369,1,2,0:2:0:0:
180,284,10483,1,2,0:2:0:0:
393,323,11255,6,0,P|440:294|363:246,1,154.666671386719,2|0,0:2|0:2,0:0:0:0:
235,278,11800,1,2,0:2:0:0:
235,278,12164,1,2,0:2:0:0:
158,269,12345,2,0,P|116:214|186:193,1,154.666671386719,2|0,0:2|0:2,0:0:0:0:
308,185,12891,1,2,0:2:0:0:
311,172,13255,5,2,0:2:0:0:
234,174,13436,2,0,P|181:126|258:98,1,174.000005310059,2|2,0:2|0:2,0:0:0:0:
390,262,13982,2,0,P|430:231|380:156,1,154.666671386719,2|2,0:2|0:2,0:0:0:0:
152,178,14891,6,0,L|103:178,2,38.6666678466797,2|2|2,0:2|0:2|0:2,0:0:0:0:
235,177,15255,1,2,0:2:0:0:
321,171,15436,1,2,0:2:0:0:
135,323,15618,6,0,P|94:298|158:245,1,154.666671386719,2|2,0:2|0:2,0:0:0:0:
300,218,16164,2,0,L|63:218,2,232.000007080078,2|2|2,0:2|0:2|0:2,0:0:0:0:
300,218,17618,1,2,0:2:0:0:
143,167,17800,6,0,L|297:167,1,154.666671386719,2|2,0:2|0:2,0:0:0:0:
256,192,18891,12,0,19709,0:0:0:0:
422,329,19982,6,0,L|505:329,2,77.3333356933594,2|2|2,0:2|0:2|0:2,0:0:0:0:
267,289,20527,2,0,L|179:290,2,77.3333356933594,2|2|2,0:2|0:2|0:2,0:0:0:0:
423,244,21073,1,2,0:2:0:0:
346,244,21254,1,2,0:2:0:0:
268,246,21436,1,2,0:2:0:0:
434,325,21618,5,2,0:2:0:0:
468,311,21708,1,2,0:2:0:0:
483,276,21799,1,2,0:2:0:0:
467,242,21890,1,2,0:2:0:0:
432,229,21981,1,2,0:2:0:0:
185,277,22164,6,0,L|86:277,2,87.0000026550293,4|2|2,0:2|0:2|0:2,0:0:0:0:
329,355,22743,2,0,P|377:318|326:245,1,159.500004867554,2|2,0:2|0:2,0:0:0:0:
107,263,23254,5,6,0:2:0:0:
30,270,23435,1,2,0:2:0:0:
107,263,23617,1,2,0:2:0:0:
247,230,23800,2,0,L|80:230,1,154.666671386719,2|2,0:2|0:2,0:0:0:0:
378,181,24345,5,6,0:2:0:0:
456,179,24526,1,2,0:2:0:0:
456,179,24708,1,2,0:2:0:0:
299,258,24891,2,0,L|119:258,1,174.000005310059,2|2,0:2|0:2,0:0:0:0:
338,212,25436,6,0,L|432:212,2,77.3333356933594,2|2|2,0:2|0:2|0:2,0:0:0:0:
182,268,25982,1,2,0:2:0:0:
182,268,26163,1,2,0:2:0:0:
267,269,26345,1,2,0:2:0:0:
19,220,26527,5,6,0:2:0:0:
234,234,27073,1,6,0:2:0:0:
394,206,27436,1,2,0:2:0:0:
394,206,27527,1,2,0:2:0:0:
293,178,27618,2,0,L|120:178,1,154.666671386719,2|2,0:2|0:2,0:0:0:0:
387,308,28709,6,0,P|465:253|365:212,1,232.000007080078,2|2,0:2|0:2,0:0:0:0:
44,218,29527,1,6,0:2:0:0:
256,192,29800,12,0,33073,0:0:0:0:
