osu file format v14

[General]
AudioFilename: audio.mp3
AudioLeadIn: 0
PreviewTime: -1
Countdown: 0
SampleSet: Normal
StackLeniency: 0.7
Mode: 3
LetterboxInBreaks: 0
SpecialStyle: 0
WidescreenStoryboard: 0

[Editor]
DistanceSpacing: 1.4
BeatDivisor: 8
GridSize: 4
TimelineZoom: 2.2

[Metadata]
Title:Sigmoid
TitleUnicode:Sigmoid
Artist:Yu^ta
ArtistUnicode:Yu^ta
Creator:Houraisan-
Version:Phenomena
Source:Strawberry Mint Chocolate BMS Pack
Tags:BMS, LN, UK Hardcore
BeatmapID:1802913
BeatmapSetID:861862

[Difficulty]
HPDrainRate:9
CircleSize:4
OverallDifficulty:9
ApproachRate:5
SliderMultiplier:1.4
SliderTickRate:1

[Events]
//Background and Video events
0,0,"anime-girl-falling-down-cityscape-bird-feathers.png",0,0
//Break Periods
//Storyboard Layer 0 (Background)
//Storyboard Layer 1 (Fail)
//Storyboard Layer 2 (Pass)
//Storyboard Layer 3 (Foreground)
//Storyboard Sound Samples

[TimingPoints]
0,315.789473684211,4,1,0,0,1,0

[HitObjects]
192,192,12947,5,0,0:0:0:0:
320,192,12947,1,0,0:0:0:0:
64,192,13105,128,0,13263:0:0:0:0:
320,192,13263,128,0,13342:0:0:0:0:
192,192,13263,1,0,0:0:0:0:
448,192,13263,1,0,0:0:0:0:
64,192,13421,128,0,13578:0:0:0:0:
320,192,13578,1,0,0:0:0:0:
192,192,13578,1,0,0:0:0:0:
64,192,13736,128,0,13894:0:0:0:0:
320,192,13736,128,0,13815:0:0:0:0:
192,192,13894,1,0,0:0:0:0:
448,192,13894,1,0,0:0:0:0:
320,192,13973,128,0,14052:0:0:0:0:
64,192,14052,128,0,14210:0:0:0:0:
448,192,14131,128,0,14210:0:0:0:0:
320,192,14210,1,0,0:0:0:0:
192,192,14210,1,0,0:0:0:0:
64,192,14368,128,0,14526:0:0:0:0:
320,192,14447,128,0,14526:0:0:0:0:
192,192,14526,1,0,0:0:0:0:
448,192,14526,1,0,0:0:0:0:
64,192,14684,128,0,14842:0:0:0:0:
320,192,14842,1,0,0:0:0:0:
448,192,14842,1,0,0:0:0:0:
64,192,15000,128,0,15157:0:0:0:0:
320,192,15000,128,0,15078:0:0:0:0:
448,192,15157,1,0,0:0:0:0:
192,192,15157,1,0,0:0:0:0:
320,192,15236,128,0,15315:0:0:0:0:
64,192,15315,128,0,15473:0:0:0:0:
448,192,15394,128,0,15473:0:0:0:0:
320,192,15473,1,0,0:0:0:0:
192,192,15473,1,0,0:0:0:0:
192,192,15631,128,0,15789:0:0:0:0:
448,192,15789,128,0,15868:0:0:0:0:
320,192,15789,1,0,0:0:0:0:
64,192,15789,1,0,0:0:0:0:
192,192,15947,128,0,16105:0:0:0:0:
320,192,16105,1,0,0:0:0:0:
448,192,16105,1,0,0:0:0:0:
192,192,16263,128,0,16421:0:0:0:0:
448,192,16263,128,0,16342:0:0:0:0:
320,192,16421,1,0,0:0:0:0:
64,192,16421,1,0,0:0:0:0:
448,192,16500,128,0,16578:0:0:0:0:
192,192,16578,128,0,16736:0:0:0:0:
320,192,16657,128,0,16736:0:0:0:0:
448,192,16736,1,0,0:0:0:0:
64,192,16736,1,0,0:0:0:0:
320,192,16894,128,0,17052:0:0:0:0:
192,192,17052,128,0,17131:0:0:0:0:
448,192,17052,1,0,0:0:0:0:
64,192,17052,1,0,0:0:0:0:
320,192,17210,128,0,17368:0:0:0:0:
192,192,17368,1,0,0:0:0:0:
448,192,17368,1,0,0:0:0:0:
64,192,17526,128,0,17842:0:0:0:0:
320,192,17526,128,0,17684:0:0:0:0:
192,192,17526,128,0,17605:0:0:0:0:
448,192,17684,1,0,0:0:0:0:
192,192,17763,128,0,17842:0:0:0:0:
320,192,17842,128,0,18000:0:0:0:0:
448,192,17921,128,0,18000:0:0:0:0:
192,192,18000,1,0,0:0:0:0:
64,192,18000,1,0,0:0:0:0:
64,192,18157,128,0,18315:0:0:0:0:
320,192,18315,128,0,18394:0:0:0:0:
448,192,18315,1,0,0:0:0:0:
192,192,18315,1,0,0:0:0:0:
64,192,18473,128,0,18631:0:0:0:0:
320,192,18631,1,0,0:0:0:0:
448,192,18631,1,0,0:0:0:0:
64,192,18789,128,0,18947:0:0:0:0:
320,192,18789,128,0,18868:0:0:0:0:
448,192,18947,1,0,0:0:0:0:
192,192,18947,1,0,0:0:0:0:
320,192,19026,128,0,19105:0:0:0:0:
64,192,19105,128,0,19263:0:0:0:0:
448,192,19184,128,0,19263:0:0:0:0:
192,192,19263,1,0,0:0:0:0:
320,192,19263,1,0,0:0:0:0:
64,192,19421,128,0,19578:0:0:0:0:
320,192,19578,128,0,19657:0:0:0:0:
448,192,19578,1,0,0:0:0:0:
192,192,19578,1,0,0:0:0:0:
64,192,19736,128,0,19894:0:0:0:0:
320,192,19894,1,0,0:0:0:0:
448,192,19894,1,0,0:0:0:0:
64,192,20052,128,0,20210:0:0:0:0:
320,192,20052,128,0,20131:0:0:0:0:
448,192,20210,1,0,0:0:0:0:
192,192,20210,1,0,0:0:0:0:
320,192,20289,128,0,20368:0:0:0:0:
64,192,20368,128,0,20526:0:0:0:0:
448,192,20447,128,0,20526:0:0:0:0:
320,192,20526,1,0,0:0:0:0:
192,192,20526,1,0,0:0:0:0:
192,192,20684,128,0,20842:0:0:0:0:
448,192,20842,128,0,20921:0:0:0:0:
320,192,20842,1,0,0:0:0:0:
64,192,20842,1,0,0:0:0:0:
192,192,21000,128,0,21157:0:0:0:0:
320,192,21157,1,0,0:0:0:0:
448,192,21157,1,0,0:0:0:0:
192,192,21315,128,0,21473:0:0:0:0:
448,192,21315,128,0,21394:0:0:0:0:
320,192,21473,1,0,0:0:0:0:
64,192,21473,1,0,0:0:0:0:
448,192,21552,128,0,21631:0:0:0:0:
192,192,21631,128,0,21789:0:0:0:0:
320,192,21710,128,0,21789:0:0:0:0:
64,192,21789,1,0,0:0:0:0:
448,192,21789,1,0,0:0:0:0:
448,192,21947,128,0,22105:0:0:0:0:
192,192,22105,128,0,22184:0:0:0:0:
320,192,22105,1,0,0:0:0:0:
64,192,22105,1,0,0:0:0:0:
448,192,22263,128,0,22421:0:0:0:0:
320,192,22421,1,0,0:0:0:0:
64,192,22421,1,0,0:0:0:0:
192,192,22500,128,0,22578:0:0:0:0:
448,192,22578,128,0,22736:0:0:0:0:
320,192,22578,128,0,22894:0:0:0:0:
192,192,22736,1,0,0:0:0:0:
64,192,22815,128,0,22894:0:0:0:0:
448,192,22894,128,0,23052:0:0:0:0:
192,192,22973,128,0,23052:0:0:0:0:
320,192,23052,128,0,23092:0:0:0:0:
64,192,23052,1,0,0:0:0:0:
192,192,23210,128,0,23250:0:0:0:0:
64,192,23368,128,0,23407:0:0:0:0:
448,192,23368,128,0,23447:0:0:0:0:
192,192,23368,1,0,0:0:0:0:
320,192,23368,1,0,0:0:0:0:
192,192,23526,128,0,23565:0:0:0:0:
64,192,23684,128,0,23723:0:0:0:0:
320,192,23684,1,0,0:0:0:0:
448,192,23684,1,0,0:0:0:0:
320,192,23842,128,0,23881:0:0:0:0:
448,192,23842,128,0,23921:0:0:0:0:
64,192,24000,128,0,24039:0:0:0:0:
192,192,24000,1,0,0:0:0:0:
320,192,24078,128,0,24157:0:0:0:0:
192,192,24157,128,0,24197:0:0:0:0:
448,192,24236,128,0,24315:0:0:0:0:
320,192,24315,128,0,24355:0:0:0:0:
64,192,24315,1,0,0:0:0:0:
192,192,24315,1,0,0:0:0:0:
448,192,24473,128,0,24513:0:0:0:0:
192,192,24631,128,0,24671:0:0:0:0:
64,192,24631,128,0,24710:0:0:0:0:
320,192,24631,1,0,0:0:0:0:
448,192,24631,1,0,0:0:0:0:
320,192,24789,128,0,24828:0:0:0:0:
448,192,24947,128,0,24986:0:0:0:0:
192,192,24947,1,0,0:0:0:0:
320,192,24947,1,0,0:0:0:0:
192,192,25105,128,0,25144:0:0:0:0:
64,192,25105,128,0,25184:0:0:0:0:
320,192,25263,128,0,25302:0:0:0:0:
448,192,25263,1,0,0:0:0:0:
192,192,25342,128,0,25421:0:0:0:0:
448,192,25421,128,0,25460:0:0:0:0:
64,192,25500,128,0,25578:0:0:0:0:
192,192,25578,128,0,25618:0:0:0:0:
320,192,25578,1,0,0:0:0:0:
448,192,25578,1,0,0:0:0:0:
320,192,25736,128,0,25776:0:0:0:0:
448,192,25894,128,0,25934:0:0:0:0:
192,192,25894,1,0,0:0:0:0:
320,192,25894,1,0,0:0:0:0:
64,192,25894,128,0,25973:0:0:0:0:
320,192,26052,128,0,26210:0:0:0:0:
192,192,26210,1,0,0:0:0:0:
448,192,26210,1,0,0:0:0:0:
320,192,26368,128,0,26526:0:0:0:0:
64,192,26368,128,0,26447:0:0:0:0:
448,192,26526,1,0,0:0:0:0:
192,192,26526,1,0,0:0:0:0:
64,192,26605,128,0,26684:0:0:0:0:
320,192,26684,128,0,26842:0:0:0:0:
192,192,26763,128,0,26842:0:0:0:0:
448,192,26842,1,0,0:0:0:0:
64,192,26842,1,0,0:0:0:0:
448,192,27000,128,0,27157:0:0:0:0:
320,192,27157,1,0,0:0:0:0:
64,192,27157,1,0,0:0:0:0:
192,192,27157,128,0,27236:0:0:0:0:
448,192,27315,128,0,27473:0:0:0:0:
192,192,27473,1,0,0:0:0:0:
320,192,27473,1,0,0:0:0:0:
64,192,27631,128,0,27947:0:0:0:0:
448,192,27631,128,0,27789:0:0:0:0:
192,192,27631,128,0,27710:0:0:0:0:
320,192,27789,1,0,0:0:0:0:
192,192,27868,128,0,27947:0:0:0:0:
448,192,27947,128,0,28105:0:0:0:0:
320,192,28026,128,0,28105:0:0:0:0:
192,192,28105,128,0,28144:0:0:0:0:
64,192,28105,1,0,0:0:0:0:
320,192,28263,128,0,28302:0:0:0:0:
64,192,28421,128,0,28460:0:0:0:0:
192,192,28421,128,0,28500:0:0:0:0:
320,192,28421,1,0,0:0:0:0:
448,192,28421,1,0,0:0:0:0:
320,192,28578,128,0,28618:0:0:0:0:
448,192,28736,128,0,28776:0:0:0:0:
192,192,28736,1,0,0:0:0:0:
64,192,28736,1,0,0:0:0:0:
320,192,28894,128,0,28934:0:0:0:0:
192,192,28894,128,0,28973:0:0:0:0:
64,192,29052,128,0,29092:0:0:0:0:
448,192,29052,1,0,0:0:0:0:
320,192,29131,128,0,29210:0:0:0:0:
192,192,29210,128,0,29250:0:0:0:0:
448,192,29289,128,0,29368:0:0:0:0:
320,192,29368,128,0,29407:0:0:0:0:
192,192,29368,1,0,0:0:0:0:
64,192,29368,1,0,0:0:0:0:
448,192,29526,128,0,29565:0:0:0:0:
192,192,29684,128,0,29723:0:0:0:0:
64,192,29684,128,0,29763:0:0:0:0:
320,192,29684,1,0,0:0:0:0:
448,192,29684,1,0,0:0:0:0:
320,192,29842,128,0,29881:0:0:0:0:
448,192,30000,128,0,30039:0:0:0:0:
192,192,30000,1,0,0:0:0:0:
320,192,30000,1,0,0:0:0:0:
192,192,30157,128,0,30197:0:0:0:0:
64,192,30157,128,0,30236:0:0:0:0:
320,192,30315,128,0,30355:0:0:0:0:
448,192,30315,1,0,0:0:0:0:
192,192,30394,128,0,30473:0:0:0:0:
448,192,30473,128,0,30513:0:0:0:0:
320,192,30552,128,0,30631:0:0:0:0:
192,192,30631,1,0,0:0:0:0:
64,192,30631,1,0,0:0:0:0:
448,192,30710,1,0,0:0:0:0:
320,192,30710,1,0,0:0:0:0:
192,192,30789,1,0,0:0:0:0:
64,192,30789,1,0,0:0:0:0:
448,192,30868,1,0,0:0:0:0:
320,192,30868,1,0,0:0:0:0:
64,192,30947,1,0,0:0:0:0:
192,192,30947,128,0,31026:0:0:0:0:
448,192,31026,1,0,0:0:0:0:
320,192,31026,128,0,31105:0:0:0:0:
192,192,31105,1,0,0:0:0:0:
64,192,31105,128,0,31184:0:0:0:0:
448,192,31184,1,0,0:0:0:0:
320,192,31184,1,0,0:0:0:0:
64,192,31263,1,0,0:0:0:0:
192,192,31263,128,0,31342:0:0:0:0:
448,192,31342,1,0,0:0:0:0:
320,192,31342,128,0,31421:0:0:0:0:
64,192,31421,1,0,0:0:0:0:
192,192,31421,128,0,31500:0:0:0:0:
448,192,31500,1,0,0:0:0:0:
320,192,31500,1,0,0:0:0:0:
192,192,31578,1,0,0:0:0:0:
64,192,31578,128,0,31657:0:0:0:0:
320,192,31657,1,0,0:0:0:0:
448,192,31657,128,0,31736:0:0:0:0:
192,192,31736,1,0,0:0:0:0:
64,192,31736,128,0,31815:0:0:0:0:
320,192,31815,1,0,0:0:0:0:
448,192,31815,1,0,0:0:0:0:
64,192,31894,1,0,0:0:0:0:
192,192,31894,128,0,31973:0:0:0:0:
320,192,31973,128,0,32052:0:0:0:0:
448,192,32052,128,0,32131:0:0:0:0:
192,192,32131,1,0,0:0:0:0:
64,192,32131,1,0,0:0:0:0:
64,192,32210,1,0,0:0:0:0:
192,192,32210,1,0,0:0:0:0:
320,192,32210,128,0,32289:0:0:0:0:
448,192,32289,128,0,32368:0:0:0:0:
64,192,32368,1,0,0:0:0:0:
320,192,32368,128,0,32447:0:0:0:0:
192,192,32368,128,0,33157:0:0:0:0:
320,192,33157,128,0,33631:0:0:0:0:
448,192,33157,1,0,0:0:0:0:
64,192,33157,128,0,33236:0:0:0:0:
64,192,33473,128,0,33552:0:0:0:0:
192,192,33473,1,0,0:0:0:0:
448,192,33473,1,0,0:0:0:0:
192,192,33631,128,0,33789:0:0:0:0:
448,192,33631,128,0,33710:0:0:0:0:
320,192,33789,128,0,35210:0:0:0:0:
64,192,33789,1,0,0:0:0:0:
448,192,33789,1,0,0:0:0:0:
192,192,33947,128,0,34026:0:0:0:0:
64,192,34105,128,0,34184:0:0:0:0:
448,192,34105,1,0,0:0:0:0:
192,192,34105,1,0,0:0:0:0:
192,192,34421,128,0,34500:0:0:0:0:
448,192,34421,1,0,0:0:0:0:
64,192,34421,1,0,0:0:0:0:
448,192,34578,128,0,34657:0:0:0:0:
192,192,34736,1,0,0:0:0:0:
448,192,34736,1,0,0:0:0:0:
64,192,34894,128,0,34973:0:0:0:0:
448,192,35052,128,0,35131:0:0:0:0:
192,192,35052,1,0,0:0:0:0:
64,192,35052,1,0,0:0:0:0:
320,192,35368,128,0,35684:0:0:0:0:
192,192,35368,128,0,35447:0:0:0:0:
448,192,35368,1,0,0:0:0:0:
64,192,35368,1,0,0:0:0:0:
192,192,35684,128,0,37105:0:0:0:0:
64,192,35684,128,0,35763:0:0:0:0:
448,192,35684,1,0,0:0:0:0:
320,192,36000,128,0,36078:0:0:0:0:
448,192,36000,1,0,0:0:0:0:
64,192,36000,1,0,0:0:0:0:
448,192,36157,128,0,36236:0:0:0:0:
64,192,36315,1,0,0:0:0:0:
320,192,36315,1,0,0:0:0:0:
320,192,36473,128,0,36552:0:0:0:0:
64,192,36631,128,0,36710:0:0:0:0:
448,192,36631,1,0,0:0:0:0:
320,192,36631,1,0,0:0:0:0:
64,192,36789,128,0,36868:0:0:0:0:
320,192,36947,1,0,0:0:0:0:
448,192,36947,1,0,0:0:0:0:
320,192,37105,128,0,37184:0:0:0:0:
64,192,37263,1,0,0:0:0:0:
448,192,37263,1,0,0:0:0:0:
192,192,37421,128,0,37500:0:0:0:0:
448,192,37578,128,0,37657:0:0:0:0:
320,192,37578,1,0,0:0:0:0:
64,192,37578,1,0,0:0:0:0:
64,192,37894,128,0,37973:0:0:0:0:
192,192,37894,1,0,0:0:0:0:
320,192,37894,1,0,0:0:0:0:
320,192,38210,128,0,38684:0:0:0:0:
448,192,38210,128,0,38289:0:0:0:0:
192,192,38210,1,0,0:0:0:0:
64,192,38210,1,0,0:0:0:0:
192,192,38526,128,0,38605:0:0:0:0:
64,192,38526,1,0,0:0:0:0:
448,192,38526,1,0,0:0:0:0:
192,192,38684,128,0,38842:0:0:0:0:
64,192,38684,128,0,38763:0:0:0:0:
448,192,38842,128,0,40263:0:0:0:0:
320,192,38842,1,0,0:0:0:0:
64,192,38842,1,0,0:0:0:0:
192,192,39000,128,0,39078:0:0:0:0:
320,192,39157,128,0,39236:0:0:0:0:
192,192,39157,1,0,0:0:0:0:
64,192,39157,1,0,0:0:0:0:
320,192,39473,128,0,39552:0:0:0:0:
192,192,39473,1,0,0:0:0:0:
64,192,39473,1,0,0:0:0:0:
192,192,39631,128,0,39710:0:0:0:0:
64,192,39789,1,0,0:0:0:0:
320,192,39789,1,0,0:0:0:0:
192,192,39947,128,0,40026:0:0:0:0:
64,192,40105,128,0,40184:0:0:0:0:
192,192,40105,1,0,0:0:0:0:
320,192,40105,1,0,0:0:0:0:
64,192,40421,128,0,40736:0:0:0:0:
448,192,40421,128,0,40500:0:0:0:0:
320,192,40421,1,0,0:0:0:0:
192,192,40421,1,0,0:0:0:0:
192,192,40736,128,0,42157:0:0:0:0:
320,192,40736,128,0,40815:0:0:0:0:
448,192,40736,1,0,0:0:0:0:
448,192,41052,128,0,41131:0:0:0:0:
320,192,41052,1,0,0:0:0:0:
64,192,41052,1,0,0:0:0:0:
64,192,41210,128,0,41289:0:0:0:0:
448,192,41368,1,0,0:0:0:0:
320,192,41368,1,0,0:0:0:0:
320,192,41526,128,0,41605:0:0:0:0:
448,192,41684,128,0,41763:0:0:0:0:
320,192,41684,1,0,0:0:0:0:
64,192,41684,1,0,0:0:0:0:
448,192,41842,128,0,41921:0:0:0:0:
448,192,42000,1,0,0:0:0:0:
64,192,42000,1,0,0:0:0:0:
320,192,42157,128,0,42236:0:0:0:0:
64,192,42315,1,0,0:0:0:0:
192,192,42315,1,0,0:0:0:0:
320,192,42473,128,0,42552:0:0:0:0:
64,192,42631,128,0,42710:0:0:0:0:
448,192,42631,1,0,0:0:0:0:
320,192,42631,1,0,0:0:0:0:
192,192,42789,128,0,42868:0:0:0:0:
448,192,42868,1,0,0:0:0:0:
64,192,42868,1,0,0:0:0:0:
320,192,42947,128,0,43026:0:0:0:0:
448,192,42947,1,0,0:0:0:0:
64,192,42947,1,0,0:0:0:0:
448,192,43105,128,0,43184:0:0:0:0:
192,192,43105,1,0,0:0:0:0:
64,192,43105,1,0,0:0:0:0:
192,192,43263,128,0,43736:0:0:0:0:
64,192,43263,128,0,43578:0:0:0:0:
320,192,43578,128,0,43657:0:0:0:0:
448,192,43657,128,0,43736:0:0:0:0:
320,192,43736,128,0,43894:0:0:0:0:
64,192,43736,128,0,43815:0:0:0:0:
448,192,43894,128,0,45315:0:0:0:0:
192,192,43894,128,0,43973:0:0:0:0:
64,192,43973,128,0,44052:0:0:0:0:
320,192,44052,128,0,44131:0:0:0:0:
192,192,44210,128,0,44289:0:0:0:0:
320,192,44289,128,0,44368:0:0:0:0:
192,192,44368,128,0,44447:0:0:0:0:
64,192,44526,128,0,44605:0:0:0:0:
192,192,44605,128,0,44684:0:0:0:0:
64,192,44684,128,0,44763:0:0:0:0:
320,192,44842,128,0,44921:0:0:0:0:
64,192,44921,128,0,45000:0:0:0:0:
192,192,45000,128,0,45078:0:0:0:0:
192,192,45157,128,0,45236:0:0:0:0:
320,192,45236,128,0,45315:0:0:0:0:
192,192,45315,128,0,45394:0:0:0:0:
448,192,45473,128,0,45789:0:0:0:0:
64,192,45473,128,0,45552:0:0:0:0:
320,192,45552,128,0,45631:0:0:0:0:
192,192,45631,128,0,45710:0:0:0:0:
192,192,45789,128,0,47210:0:0:0:0:
320,192,45789,128,0,45868:0:0:0:0:
64,192,45868,128,0,45947:0:0:0:0:
448,192,45947,128,0,46026:0:0:0:0:
320,192,46105,128,0,46184:0:0:0:0:
448,192,46184,128,0,46263:0:0:0:0:
320,192,46263,128,0,46342:0:0:0:0:
320,192,46421,128,0,46500:0:0:0:0:
64,192,46500,128,0,46578:0:0:0:0:
320,192,46578,128,0,46657:0:0:0:0:
448,192,46736,128,0,46815:0:0:0:0:
320,192,46815,128,0,46894:0:0:0:0:
448,192,46894,128,0,46973:0:0:0:0:
320,192,47052,128,0,47131:0:0:0:0:
64,192,47131,128,0,47210:0:0:0:0:
320,192,47210,128,0,47526:0:0:0:0:
448,192,47210,128,0,47289:0:0:0:0:
192,192,47368,128,0,47447:0:0:0:0:
448,192,47447,128,0,47526:0:0:0:0:
192,192,47526,128,0,47684:0:0:0:0:
64,192,47526,128,0,47605:0:0:0:0:
448,192,47684,128,0,48000:0:0:0:0:
320,192,47684,128,0,47763:0:0:0:0:
64,192,47763,128,0,47842:0:0:0:0:
192,192,47842,128,0,47921:0:0:0:0:
64,192,48000,128,0,48315:0:0:0:0:
320,192,48000,128,0,48078:0:0:0:0:
192,192,48078,128,0,48157:0:0:0:0:
320,192,48157,128,0,48236:0:0:0:0:
192,192,48315,128,0,48631:0:0:0:0:
448,192,48315,128,0,48394:0:0:0:0:
320,192,48394,128,0,48473:0:0:0:0:
448,192,48473,128,0,48552:0:0:0:0:
320,192,48631,128,0,48789:0:0:0:0:
64,192,48631,128,0,48710:0:0:0:0:
192,192,48710,128,0,48789:0:0:0:0:
448,192,48789,128,0,49105:0:0:0:0:
64,192,48789,128,0,48868:0:0:0:0:
192,192,48947,128,0,49026:0:0:0:0:
64,192,49026,128,0,49105:0:0:0:0:
320,192,49105,128,0,49263:0:0:0:0:
192,192,49105,128,0,49184:0:0:0:0:
64,192,49263,128,0,49578:0:0:0:0:
448,192,49263,128,0,49342:0:0:0:0:
192,192,49342,128,0,49421:0:0:0:0:
320,192,49421,128,0,49500:0:0:0:0:
192,192,49578,128,0,49736:0:0:0:0:
448,192,49578,128,0,49657:0:0:0:0:
320,192,49657,128,0,49736:0:0:0:0:
448,192,49736,128,0,50052:0:0:0:0:
64,192,49736,128,0,49815:0:0:0:0:
64,192,49894,128,0,49973:0:0:0:0:
192,192,49973,128,0,50052:0:0:0:0:
320,192,50052,128,0,50210:0:0:0:0:
64,192,50052,128,0,50131:0:0:0:0:
448,192,50210,128,0,50526:0:0:0:0:
192,192,50210,128,0,50289:0:0:0:0:
64,192,50289,128,0,50368:0:0:0:0:
320,192,50368,128,0,50447:0:0:0:0:
64,192,50526,128,0,50842:0:0:0:0:
192,192,50526,128,0,50605:0:0:0:0:
320,192,50605,128,0,50684:0:0:0:0:
448,192,50684,128,0,50763:0:0:0:0:
192,192,50842,128,0,51000:0:0:0:0:
320,192,50842,128,0,50921:0:0:0:0:
448,192,50921,128,0,51000:0:0:0:0:
320,192,51000,128,0,51078:0:0:0:0:
192,192,51157,128,0,51315:0:0:0:0:
320,192,51157,128,0,51236:0:0:0:0:
448,192,51236,128,0,51315:0:0:0:0:
320,192,51315,128,0,51631:0:0:0:0:
64,192,51315,128,0,51394:0:0:0:0:
192,192,51473,128,0,51552:0:0:0:0:
64,192,51552,128,0,51631:0:0:0:0:
448,192,51631,128,0,51789:0:0:0:0:
192,192,51631,128,0,51710:0:0:0:0:
64,192,51789,128,0,51868:0:0:0:0:
320,192,51789,128,0,51868:0:0:0:0:
192,192,51868,128,0,51947:0:0:0:0:
64,192,51947,128,0,52026:0:0:0:0:
320,192,51947,128,0,52105:0:0:0:0:
64,192,52105,128,0,52184:0:0:0:0:
192,192,52184,128,0,52263:0:0:0:0:
64,192,52263,128,0,52578:0:0:0:0:
448,192,52263,128,0,52342:0:0:0:0:
320,192,52421,128,0,52500:0:0:0:0:
192,192,52500,128,0,52578:0:0:0:0:
448,192,52578,128,0,52657:0:0:0:0:
64,192,52736,128,0,52894:0:0:0:0:
320,192,52736,128,0,52815:0:0:0:0:
448,192,52815,128,0,52894:0:0:0:0:
192,192,52894,128,0,53052:0:0:0:0:
320,192,52894,128,0,52973:0:0:0:0:
320,192,53052,128,0,53210:0:0:0:0:
64,192,53052,128,0,53131:0:0:0:0:
192,192,53131,128,0,53210:0:0:0:0:
448,192,53210,128,0,53368:0:0:0:0:
64,192,53210,128,0,53289:0:0:0:0:
192,192,53368,128,0,53842:0:0:0:0:
64,192,53368,128,0,53407:0:0:0:0:
320,192,53526,128,0,53565:0:0:0:0:
448,192,53526,128,0,53605:0:0:0:0:
64,192,53684,128,0,53723:0:0:0:0:
320,192,53842,128,0,54000:0:0:0:0:
448,192,53842,128,0,53881:0:0:0:0:
64,192,53842,128,0,53921:0:0:0:0:
448,192,54000,128,0,54710:0:0:0:0:
64,192,54157,128,0,54197:0:0:0:0:
320,192,54157,128,0,54236:0:0:0:0:
192,192,54315,128,0,54355:0:0:0:0:
320,192,54473,128,0,54513:0:0:0:0:
64,192,54473,128,0,54552:0:0:0:0:
192,192,54631,128,0,54671:0:0:0:0:
448,192,54789,128,0,54947:0:0:0:0:
320,192,54789,128,0,54828:0:0:0:0:
64,192,54789,128,0,54868:0:0:0:0:
64,192,54947,128,0,54986:0:0:0:0:
448,192,55105,128,0,55263:0:0:0:0:
192,192,55105,128,0,55144:0:0:0:0:
64,192,55105,128,0,55184:0:0:0:0:
320,192,55263,128,0,55302:0:0:0:0:
448,192,55421,128,0,55578:0:0:0:0:
64,192,55421,128,0,55460:0:0:0:0:
192,192,55421,128,0,55500:0:0:0:0:
192,192,55578,128,0,55618:0:0:0:0:
448,192,55736,128,0,55776:0:0:0:0:
192,192,55736,128,0,55815:0:0:0:0:
448,192,55815,128,0,55894:0:0:0:0:
192,192,56052,128,0,56131:0:0:0:0:
448,192,56368,128,0,56526:0:0:0:0:
192,192,56368,128,0,56447:0:0:0:0:
448,192,56684,128,0,56842:0:0:0:0:
192,192,56684,128,0,56763:0:0:0:0:
448,192,57000,128,0,57039:0:0:0:0:
192,192,57000,128,0,57078:0:0:0:0:
448,192,57078,128,0,57157:0:0:0:0:
192,192,57315,128,0,57394:0:0:0:0:
448,192,57631,128,0,57789:0:0:0:0:
192,192,57631,128,0,57710:0:0:0:0:
448,192,57947,128,0,58105:0:0:0:0:
192,192,57947,128,0,58026:0:0:0:0:
448,192,58184,128,0,58263:0:0:0:0:
192,192,58263,128,0,58342:0:0:0:0:
448,192,58342,128,0,58381:0:0:0:0:
448,192,58421,128,0,58500:0:0:0:0:
64,192,58421,128,0,58460:0:0:0:0:
448,192,58578,128,0,58657:0:0:0:0:
64,192,58578,128,0,58618:0:0:0:0:
192,192,58578,128,0,58657:0:0:0:0:
448,192,58736,128,0,58815:0:0:0:0:
192,192,58736,128,0,58776:0:0:0:0:
448,192,58894,128,0,58934:0:0:0:0:
64,192,58894,128,0,58934:0:0:0:0:
192,192,58894,128,0,58973:0:0:0:0:
448,192,58973,128,0,59052:0:0:0:0:
448,192,59210,128,0,59368:0:0:0:0:
192,192,59210,128,0,59250:0:0:0:0:
64,192,59210,128,0,59289:0:0:0:0:
64,192,59368,128,0,59407:0:0:0:0:
448,192,59447,128,0,59526:0:0:0:0:
320,192,59526,128,0,59565:0:0:0:0:
64,192,59526,128,0,59605:0:0:0:0:
448,192,59605,128,0,59684:0:0:0:0:
192,192,59684,128,0,59723:0:0:0:0:
448,192,59842,128,0,60000:0:0:0:0:
320,192,59842,128,0,59881:0:0:0:0:
64,192,59842,128,0,59921:0:0:0:0:
64,192,60000,128,0,60039:0:0:0:0:
448,192,60157,128,0,60315:0:0:0:0:
192,192,60157,128,0,60197:0:0:0:0:
64,192,60157,128,0,60236:0:0:0:0:
320,192,60315,128,0,60355:0:0:0:0:
448,192,60394,128,0,60434:0:0:0:0:
448,192,60473,128,0,60552:0:0:0:0:
64,192,60473,128,0,60513:0:0:0:0:
192,192,60473,128,0,60552:0:0:0:0:
448,192,60631,128,0,60789:0:0:0:0:
192,192,60631,128,0,60671:0:0:0:0:
320,192,60789,128,0,60828:0:0:0:0:
64,192,60789,128,0,60868:0:0:0:0:
448,192,60868,128,0,60947:0:0:0:0:
448,192,61105,128,0,61263:0:0:0:0:
64,192,61105,128,0,61263:0:0:0:0:
320,192,61105,128,0,61184:0:0:0:0:
192,192,61263,128,0,61421:0:0:0:0:
448,192,61421,128,0,61460:0:0:0:0:
320,192,61421,128,0,61578:0:0:0:0:
64,192,61421,128,0,61500:0:0:0:0:
448,192,61500,128,0,61578:0:0:0:0:
448,192,61736,128,0,61894:0:0:0:0:
64,192,61736,128,0,61894:0:0:0:0:
192,192,61736,128,0,61815:0:0:0:0:
448,192,61973,128,0,62052:0:0:0:0:
320,192,62052,128,0,62210:0:0:0:0:
64,192,62052,128,0,62131:0:0:0:0:
448,192,62131,128,0,62210:0:0:0:0:
192,192,62210,128,0,62368:0:0:0:0:
448,192,62368,128,0,62526:0:0:0:0:
64,192,62368,128,0,62526:0:0:0:0:
320,192,62368,128,0,62447:0:0:0:0:
192,192,62526,128,0,62684:0:0:0:0:
448,192,62684,128,0,62723:0:0:0:0:
64,192,62684,128,0,62842:0:0:0:0:
320,192,62684,128,0,62763:0:0:0:0:
448,192,62763,128,0,62842:0:0:0:0:
448,192,63000,128,0,63157:0:0:0:0:
192,192,63000,128,0,63078:0:0:0:0:
448,192,63236,128,0,63315:0:0:0:0:
192,192,63315,128,0,63394:0:0:0:0:
448,192,63394,128,0,63473:0:0:0:0:
192,192,63473,128,0,63513:0:0:0:0:
64,192,63473,1,0,0:0:0:0:
320,192,63473,1,0,0:0:0:0:
64,192,63631,128,0,63789:0:0:0:0:
320,192,63631,128,0,63671:0:0:0:0:
192,192,63631,1,0,0:0:0:0:
448,192,63631,1,0,0:0:0:0:
192,192,63789,128,0,63828:0:0:0:0:
192,192,63947,128,0,64105:0:0:0:0:
448,192,63947,128,0,63986:0:0:0:0:
320,192,63947,1,0,0:0:0:0:
64,192,63947,1,0,0:0:0:0:
320,192,64105,128,0,64144:0:0:0:0:
192,192,64263,128,0,64421:0:0:0:0:
448,192,64263,128,0,64302:0:0:0:0:
320,192,64263,1,0,0:0:0:0:
64,192,64263,1,0,0:0:0:0:
64,192,64421,128,0,64460:0:0:0:0:
64,192,64578,128,0,64736:0:0:0:0:
192,192,64578,128,0,64618:0:0:0:0:
320,192,64578,1,0,0:0:0:0:
448,192,64578,1,0,0:0:0:0:
320,192,64736,128,0,64776:0:0:0:0:
64,192,64894,128,0,65052:0:0:0:0:
448,192,64894,128,0,64934:0:0:0:0:
320,192,64894,1,0,0:0:0:0:
192,192,64894,1,0,0:0:0:0:
192,192,65052,128,0,65092:0:0:0:0:
192,192,65210,128,0,65368:0:0:0:0:
320,192,65210,128,0,65250:0:0:0:0:
448,192,65210,1,0,0:0:0:0:
64,192,65210,1,0,0:0:0:0:
448,192,65368,128,0,65407:0:0:0:0:
320,192,65526,128,0,65684:0:0:0:0:
64,192,65526,128,0,65565:0:0:0:0:
192,192,65526,1,0,0:0:0:0:
448,192,65526,1,0,0:0:0:0:
192,192,65684,128,0,65723:0:0:0:0:
448,192,65842,128,0,66000:0:0:0:0:
320,192,65842,128,0,65881:0:0:0:0:
192,192,65842,1,0,0:0:0:0:
64,192,65842,1,0,0:0:0:0:
64,192,66000,128,0,66039:0:0:0:0:
320,192,66157,128,0,66315:0:0:0:0:
192,192,66157,128,0,66197:0:0:0:0:
448,192,66157,1,0,0:0:0:0:
64,192,66157,1,0,0:0:0:0:
448,192,66315,128,0,66355:0:0:0:0:
64,192,66315,128,0,66394:0:0:0:0:
320,192,66473,128,0,66631:0:0:0:0:
192,192,66473,1,0,0:0:0:0:
64,192,66473,1,0,0:0:0:0:
320,192,66789,128,0,66947:0:0:0:0:
448,192,66789,1,0,0:0:0:0:
192,192,66789,1,0,0:0:0:0:
64,192,66789,128,0,66868:0:0:0:0:
192,192,67026,128,0,67105:0:0:0:0:
320,192,67105,128,0,67263:0:0:0:0:
448,192,67105,1,0,0:0:0:0:
64,192,67105,1,0,0:0:0:0:
192,192,67184,128,0,67263:0:0:0:0:
192,192,67421,128,0,67578:0:0:0:0:
64,192,67421,1,0,0:0:0:0:
448,192,67421,1,0,0:0:0:0:
448,192,67578,128,0,67657:0:0:0:0:
192,192,67736,128,0,67894:0:0:0:0:
320,192,67736,1,0,0:0:0:0:
448,192,67736,1,0,0:0:0:0:
192,192,68052,128,0,68210:0:0:0:0:
448,192,68052,128,0,68131:0:0:0:0:
320,192,68052,1,0,0:0:0:0:
64,192,68052,1,0,0:0:0:0:
448,192,68289,128,0,68368:0:0:0:0:
192,192,68368,128,0,68526:0:0:0:0:
64,192,68368,1,0,0:0:0:0:
320,192,68368,1,0,0:0:0:0:
448,192,68447,128,0,68526:0:0:0:0:
320,192,68526,128,0,68565:0:0:0:0:
64,192,68526,1,0,0:0:0:0:
448,192,68684,128,0,68723:0:0:0:0:
64,192,68684,128,0,68842:0:0:0:0:
320,192,68684,1,0,0:0:0:0:
192,192,68842,128,0,68881:0:0:0:0:
320,192,68842,1,0,0:0:0:0:
448,192,68842,1,0,0:0:0:0:
320,192,69000,128,0,69039:0:0:0:0:
64,192,69000,128,0,69157:0:0:0:0:
448,192,69000,1,0,0:0:0:0:
192,192,69157,128,0,69197:0:0:0:0:
320,192,69157,1,0,0:0:0:0:
448,192,69157,1,0,0:0:0:0:
448,192,69315,128,0,69355:0:0:0:0:
192,192,69315,128,0,69473:0:0:0:0:
320,192,69315,1,0,0:0:0:0:
64,192,69473,128,0,69513:0:0:0:0:
320,192,69473,1,0,0:0:0:0:
448,192,69473,1,0,0:0:0:0:
192,192,69631,128,0,69671:0:0:0:0:
64,192,69631,128,0,69789:0:0:0:0:
320,192,69631,1,0,0:0:0:0:
320,192,69789,128,0,69828:0:0:0:0:
448,192,69789,1,0,0:0:0:0:
192,192,69789,1,0,0:0:0:0:
448,192,69947,128,0,69986:0:0:0:0:
64,192,69947,128,0,70105:0:0:0:0:
320,192,69947,1,0,0:0:0:0:
192,192,70105,128,0,70144:0:0:0:0:
320,192,70105,1,0,0:0:0:0:
448,192,70105,1,0,0:0:0:0:
320,192,70263,128,0,70302:0:0:0:0:
64,192,70263,128,0,70421:0:0:0:0:
192,192,70263,1,0,0:0:0:0:
448,192,70421,128,0,70460:0:0:0:0:
320,192,70421,1,0,0:0:0:0:
192,192,70421,1,0,0:0:0:0:
64,192,70578,128,0,70618:0:0:0:0:
192,192,70578,128,0,70736:0:0:0:0:
320,192,70578,1,0,0:0:0:0:
320,192,70736,128,0,70776:0:0:0:0:
448,192,70736,1,0,0:0:0:0:
64,192,70736,1,0,0:0:0:0:
448,192,70894,128,0,70934:0:0:0:0:
192,192,70894,128,0,71052:0:0:0:0:
64,192,70894,1,0,0:0:0:0:
320,192,71052,1,0,0:0:0:0:
448,192,71052,1,0,0:0:0:0:
192,192,71131,1,0,0:0:0:0:
64,192,71131,1,0,0:0:0:0:
320,192,71210,1,0,0:0:0:0:
448,192,71210,1,0,0:0:0:0:
192,192,71289,1,0,0:0:0:0:
64,192,71289,1,0,0:0:0:0:
448,192,71368,1,0,0:0:0:0:
320,192,71368,128,0,71447:0:0:0:0:
64,192,71447,1,0,0:0:0:0:
192,192,71447,128,0,71526:0:0:0:0:
448,192,71526,1,0,0:0:0:0:
320,192,71526,128,0,71605:0:0:0:0:
64,192,71605,1,0,0:0:0:0:
192,192,71605,1,0,0:0:0:0:
320,192,71684,1,0,0:0:0:0:
448,192,71684,128,0,71763:0:0:0:0:
64,192,71763,1,0,0:0:0:0:
192,192,71763,128,0,71842:0:0:0:0:
448,192,71842,1,0,0:0:0:0:
320,192,71842,128,0,71921:0:0:0:0:
192,192,71921,1,0,0:0:0:0:
64,192,71921,1,0,0:0:0:0:
448,192,72000,1,0,0:0:0:0:
320,192,72000,128,0,72078:0:0:0:0:
64,192,72078,1,0,0:0:0:0:
192,192,72078,128,0,72157:0:0:0:0:
320,192,72157,1,0,0:0:0:0:
448,192,72157,128,0,72236:0:0:0:0:
192,192,72236,1,0,0:0:0:0:
64,192,72236,1,0,0:0:0:0:
448,192,72315,1,0,0:0:0:0:
320,192,72315,128,0,72394:0:0:0:0:
192,192,72394,128,0,72473:0:0:0:0:
64,192,72473,128,0,72552:0:0:0:0:
192,192,72552,128,0,72631:0:0:0:0:
448,192,72631,1,0,0:0:0:0:
320,192,72631,128,0,72710:0:0:0:0:
64,192,72631,1,0,0:0:0:0:
192,192,72710,128,0,72789:0:0:0:0:
320,192,72789,1,0,0:0:0:0:
448,192,72789,1,0,0:0:0:0:
64,192,72789,128,0,72947:0:0:0:0:
192,192,72947,128,0,73026:0:0:0:0:
448,192,73026,128,0,73105:0:0:0:0:
192,192,73105,128,0,73184:0:0:0:0:
320,192,73184,128,0,73263:0:0:0:0:
192,192,73263,128,0,73342:0:0:0:0:
448,192,73342,128,0,73421:0:0:0:0:
320,192,73421,128,0,73500:0:0:0:0:
448,192,73500,128,0,73578:0:0:0:0:
64,192,73578,128,0,74052:0:0:0:0:
192,192,73578,128,0,73736:0:0:0:0:
320,192,73736,128,0,73815:0:0:0:0:
448,192,73815,128,0,73894:0:0:0:0:
192,192,73894,128,0,73973:0:0:0:0:
448,192,73973,128,0,74052:0:0:0:0:
192,192,74052,128,0,74210:0:0:0:0:
320,192,74052,128,0,74131:0:0:0:0:
64,192,74131,128,0,74210:0:0:0:0:
448,192,74210,128,0,75631:0:0:0:0:
320,192,74210,128,0,74289:0:0:0:0:
192,192,74289,128,0,74368:0:0:0:0:
320,192,74368,128,0,74447:0:0:0:0:
192,192,74447,128,0,74526:0:0:0:0:
64,192,74526,128,0,74605:0:0:0:0:
320,192,74605,128,0,74684:0:0:0:0:
64,192,74684,128,0,74763:0:0:0:0:
192,192,74763,128,0,74842:0:0:0:0:
64,192,74842,128,0,74921:0:0:0:0:
320,192,74921,128,0,75000:0:0:0:0:
192,192,75000,128,0,75078:0:0:0:0:
64,192,75078,128,0,75157:0:0:0:0:
320,192,75157,128,0,75236:0:0:0:0:
64,192,75236,128,0,75315:0:0:0:0:
192,192,75315,128,0,75394:0:0:0:0:
64,192,75394,128,0,75473:0:0:0:0:
192,192,75473,128,0,75552:0:0:0:0:
320,192,75552,128,0,75631:0:0:0:0:
64,192,75631,128,0,75710:0:0:0:0:
192,192,75710,128,0,75789:0:0:0:0:
320,192,75789,128,0,76105:0:0:0:0:
448,192,75789,128,0,75868:0:0:0:0:
64,192,75868,128,0,75947:0:0:0:0:
448,192,75947,128,0,76026:0:0:0:0:
192,192,76026,128,0,76105:0:0:0:0:
64,192,76105,128,0,77526:0:0:0:0:
448,192,76105,128,0,76263:0:0:0:0:
192,192,76263,128,0,76342:0:0:0:0:
320,192,76342,128,0,76421:0:0:0:0:
192,192,76421,128,0,76500:0:0:0:0:
320,192,76500,128,0,76578:0:0:0:0:
448,192,76578,128,0,76657:0:0:0:0:
192,192,76657,128,0,76736:0:0:0:0:
448,192,76736,128,0,76815:0:0:0:0:
320,192,76815,128,0,76894:0:0:0:0:
192,192,76894,128,0,76973:0:0:0:0:
320,192,76973,128,0,77052:0:0:0:0:
448,192,77052,128,0,77131:0:0:0:0:
192,192,77131,128,0,77210:0:0:0:0:
448,192,77210,128,0,77289:0:0:0:0:
320,192,77289,128,0,77368:0:0:0:0:
448,192,77368,128,0,77447:0:0:0:0:
192,192,77447,128,0,77526:0:0:0:0:
320,192,77526,128,0,77605:0:0:0:0:
64,192,77605,128,0,77684:0:0:0:0:
448,192,77684,128,0,77763:0:0:0:0:
192,192,77842,128,0,77921:0:0:0:0:
64,192,77921,128,0,78000:0:0:0:0:
192,192,78000,128,0,78078:0:0:0:0:
448,192,78078,128,0,78157:0:0:0:0:
320,192,78157,128,0,78236:0:0:0:0:
64,192,78236,128,0,78315:0:0:0:0:
192,192,78315,128,0,78394:0:0:0:0:
320,192,78394,128,0,78473:0:0:0:0:
192,192,78473,128,0,78552:0:0:0:0:
320,192,78552,128,0,78631:0:0:0:0:
192,192,78631,128,0,79105:0:0:0:0:
448,192,78631,128,0,78789:0:0:0:0:
320,192,78789,128,0,78868:0:0:0:0:
448,192,78868,128,0,78947:0:0:0:0:
64,192,78947,128,0,79026:0:0:0:0:
448,192,79026,128,0,79105:0:0:0:0:
320,192,79105,128,0,79263:0:0:0:0:
64,192,79105,128,0,79184:0:0:0:0:
192,192,79184,128,0,79263:0:0:0:0:
448,192,79263,128,0,80684:0:0:0:0:
64,192,79263,128,0,79342:0:0:0:0:
320,192,79342,128,0,79421:0:0:0:0:
192,192,79421,128,0,79500:0:0:0:0:
64,192,79500,128,0,79578:0:0:0:0:
320,192,79578,128,0,79657:0:0:0:0:
64,192,79657,128,0,79736:0:0:0:0:
192,192,79736,128,0,79815:0:0:0:0:
320,192,79815,128,0,79894:0:0:0:0:
192,192,79894,128,0,79973:0:0:0:0:
64,192,79973,128,0,80052:0:0:0:0:
320,192,80052,128,0,80131:0:0:0:0:
192,192,80131,128,0,80210:0:0:0:0:
64,192,80210,128,0,80289:0:0:0:0:
320,192,80289,128,0,80368:0:0:0:0:
192,192,80368,128,0,80447:0:0:0:0:
320,192,80447,128,0,80526:0:0:0:0:
64,192,80526,128,0,80605:0:0:0:0:
192,192,80605,128,0,80684:0:0:0:0:
64,192,80684,128,0,80763:0:0:0:0:
320,192,80763,128,0,80842:0:0:0:0:
192,192,80842,128,0,81157:0:0:0:0:
448,192,80842,128,0,80921:0:0:0:0:
320,192,80921,128,0,81000:0:0:0:0:
448,192,81000,128,0,81078:0:0:0:0:
320,192,81078,128,0,81157:0:0:0:0:
64,192,81157,128,0,82578:0:0:0:0:
448,192,81157,128,0,81315:0:0:0:0:
192,192,81315,128,0,81394:0:0:0:0:
320,192,81394,128,0,81473:0:0:0:0:
448,192,81552,128,0,81631:0:0:0:0:
192,192,81631,128,0,81710:0:0:0:0:
320,192,81710,128,0,81789:0:0:0:0:
448,192,81789,128,0,81868:0:0:0:0:
192,192,81868,128,0,81947:0:0:0:0:
448,192,81947,128,0,82026:0:0:0:0:
320,192,82026,128,0,82105:0:0:0:0:
448,192,82105,128,0,82184:0:0:0:0:
192,192,82184,128,0,82263:0:0:0:0:
448,192,82263,128,0,82342:0:0:0:0:
192,192,82342,128,0,82421:0:0:0:0:
320,192,82421,128,0,82500:0:0:0:0:
192,192,82500,128,0,82578:0:0:0:0:
320,192,82578,128,0,82657:0:0:0:0:
448,192,82657,128,0,82736:0:0:0:0:
64,192,82736,128,0,82815:0:0:0:0:
320,192,82894,128,0,82973:0:0:0:0:
192,192,82973,128,0,83052:0:0:0:0:
64,192,83052,128,0,83131:0:0:0:0:
320,192,83131,128,0,83210:0:0:0:0:
192,192,83210,128,0,83289:0:0:0:0:
320,192,83289,128,0,83368:0:0:0:0:
448,192,83368,128,0,83447:0:0:0:0:
64,192,83368,1,0,0:0:0:0:
192,192,83368,1,0,0:0:0:0:
192,192,83526,1,0,0:0:0:0:
320,192,83526,1,0,0:0:0:0:
64,192,83526,128,0,83605:0:0:0:0:
192,192,83684,128,0,84157:0:0:0:0:
448,192,83684,128,0,83842:0:0:0:0:
64,192,83684,1,0,0:0:0:0:
320,192,83684,1,0,0:0:0:0:
320,192,83842,128,0,83921:0:0:0:0:
64,192,83921,128,0,84000:0:0:0:0:
320,192,84000,128,0,84078:0:0:0:0:
448,192,84078,128,0,84157:0:0:0:0:
64,192,84157,128,0,84315:0:0:0:0:
320,192,84157,128,0,84236:0:0:0:0:
192,192,84236,128,0,84315:0:0:0:0:
448,192,84315,128,0,84394:0:0:0:0:
320,192,84315,128,0,85736:0:0:0:0:
64,192,84394,128,0,84473:0:0:0:0:
192,192,84473,128,0,84552:0:0:0:0:
448,192,84552,128,0,84631:0:0:0:0:
64,192,84631,128,0,84710:0:0:0:0:
192,192,84710,128,0,84789:0:0:0:0:
448,192,84789,128,0,84868:0:0:0:0:
192,192,84868,128,0,84947:0:0:0:0:
64,192,84947,128,0,85026:0:0:0:0:
448,192,85026,128,0,85105:0:0:0:0:
64,192,85105,128,0,85184:0:0:0:0:
192,192,85184,128,0,85263:0:0:0:0:
64,192,85263,128,0,85342:0:0:0:0:
448,192,85342,128,0,85421:0:0:0:0:
64,192,85421,128,0,85500:0:0:0:0:
192,192,85500,128,0,85578:0:0:0:0:
448,192,85578,128,0,85657:0:0:0:0:
64,192,85657,128,0,85736:0:0:0:0:
320,192,85815,128,0,85894:0:0:0:0:
448,192,85894,128,0,86210:0:0:0:0:
64,192,85894,128,0,85973:0:0:0:0:
192,192,85973,128,0,86052:0:0:0:0:
320,192,86052,128,0,86131:0:0:0:0:
192,192,86131,128,0,86210:0:0:0:0:
64,192,86210,128,0,87631:0:0:0:0:
320,192,86210,128,0,86368:0:0:0:0:
192,192,86368,128,0,86447:0:0:0:0:
448,192,86447,128,0,86526:0:0:0:0:
320,192,86526,128,0,86605:0:0:0:0:
192,192,86605,128,0,86684:0:0:0:0:
320,192,86684,128,0,86763:0:0:0:0:
192,192,86763,128,0,86842:0:0:0:0:
320,192,86842,128,0,86921:0:0:0:0:
448,192,86921,128,0,87000:0:0:0:0:
192,192,87000,128,0,87078:0:0:0:0:
320,192,87078,128,0,87157:0:0:0:0:
192,192,87157,128,0,87236:0:0:0:0:
448,192,87236,128,0,87315:0:0:0:0:
320,192,87315,128,0,87394:0:0:0:0:
192,192,87394,128,0,87473:0:0:0:0:
448,192,87473,128,0,87552:0:0:0:0:
320,192,87552,128,0,87631:0:0:0:0:
192,192,87631,128,0,87710:0:0:0:0:
448,192,87710,128,0,87789:0:0:0:0:
64,192,87789,128,0,87868:0:0:0:0:
320,192,87947,128,0,88026:0:0:0:0:
192,192,88026,128,0,88105:0:0:0:0:
64,192,88105,128,0,88184:0:0:0:0:
448,192,88184,128,0,88263:0:0:0:0:
64,192,88263,128,0,88342:0:0:0:0:
192,192,88342,128,0,88421:0:0:0:0:
64,192,88421,128,0,88500:0:0:0:0:
320,192,88500,128,0,88578:0:0:0:0:
192,192,88578,128,0,88657:0:0:0:0:
320,192,88657,128,0,88736:0:0:0:0:
64,192,88736,128,0,89210:0:0:0:0:
448,192,88736,128,0,88894:0:0:0:0:
192,192,88894,128,0,88973:0:0:0:0:
320,192,88973,128,0,89052:0:0:0:0:
192,192,89052,128,0,89131:0:0:0:0:
448,192,89131,128,0,89210:0:0:0:0:
320,192,89210,128,0,89368:0:0:0:0:
192,192,89210,128,0,89289:0:0:0:0:
448,192,89289,128,0,89368:0:0:0:0:
192,192,89368,128,0,90789:0:0:0:0:
64,192,89368,128,0,89447:0:0:0:0:
448,192,89447,128,0,89526:0:0:0:0:
320,192,89526,128,0,89605:0:0:0:0:
64,192,89605,128,0,89684:0:0:0:0:
320,192,89684,128,0,89763:0:0:0:0:
448,192,89763,128,0,89842:0:0:0:0:
320,192,89842,128,0,89921:0:0:0:0:
64,192,89921,128,0,90000:0:0:0:0:
448,192,90000,128,0,90078:0:0:0:0:
320,192,90078,128,0,90157:0:0:0:0:
64,192,90157,128,0,90236:0:0:0:0:
448,192,90236,128,0,90315:0:0:0:0:
320,192,90315,128,0,90394:0:0:0:0:
448,192,90394,128,0,90473:0:0:0:0:
320,192,90473,128,0,90552:0:0:0:0:
64,192,90552,128,0,90631:0:0:0:0:
448,192,90631,128,0,90710:0:0:0:0:
320,192,90710,128,0,90789:0:0:0:0:
64,192,90868,128,0,90947:0:0:0:0:
448,192,90947,128,0,91263:0:0:0:0:
192,192,90947,128,0,91026:0:0:0:0:
320,192,91026,128,0,91105:0:0:0:0:
64,192,91105,128,0,91184:0:0:0:0:
192,192,91184,128,0,91263:0:0:0:0:
64,192,91263,128,0,92684:0:0:0:0:
320,192,91263,128,0,91421:0:0:0:0:
192,192,91421,128,0,91500:0:0:0:0:
448,192,91500,128,0,91578:0:0:0:0:
192,192,91657,128,0,91736:0:0:0:0:
448,192,91736,128,0,91815:0:0:0:0:
320,192,91815,128,0,91894:0:0:0:0:
192,192,91894,128,0,91973:0:0:0:0:
448,192,91973,128,0,92052:0:0:0:0:
192,192,92052,128,0,92131:0:0:0:0:
320,192,92131,128,0,92210:0:0:0:0:
192,192,92210,128,0,92289:0:0:0:0:
448,192,92289,128,0,92368:0:0:0:0:
192,192,92368,128,0,92447:0:0:0:0:
320,192,92447,128,0,92526:0:0:0:0:
448,192,92526,128,0,92605:0:0:0:0:
320,192,92605,128,0,92684:0:0:0:0:
192,192,92684,128,0,92763:0:0:0:0:
448,192,92763,128,0,92842:0:0:0:0:
320,192,92842,128,0,92921:0:0:0:0:
448,192,93000,128,0,93078:0:0:0:0:
192,192,93078,128,0,93157:0:0:0:0:
64,192,93157,128,0,93236:0:0:0:0:
320,192,93236,128,0,93315:0:0:0:0:
192,192,93315,128,0,93394:0:0:0:0:
64,192,93394,128,0,93473:0:0:0:0:
320,192,93473,128,0,93552:0:0:0:0:
448,192,93473,1,0,0:0:0:0:
192,192,93473,1,0,0:0:0:0:
192,192,93631,128,0,93710:0:0:0:0:
320,192,93631,1,0,0:0:0:0:
448,192,93631,1,0,0:0:0:0:
448,192,93789,128,0,94736:0:0:0:0:
64,192,93789,128,0,94263:0:0:0:0:
320,192,93789,1,0,0:0:0:0:
192,192,93789,1,0,0:0:0:0:
320,192,94105,1,0,0:0:0:0:
192,192,94105,1,0,0:0:0:0:
192,192,94263,128,0,94421:0:0:0:0:
320,192,94421,128,0,95842:0:0:0:0:
64,192,94421,1,0,0:0:0:0:
192,192,94736,128,0,95052:0:0:0:0:
64,192,94736,1,0,0:0:0:0:
64,192,95052,128,0,96000:0:0:0:0:
448,192,95052,1,0,0:0:0:0:
448,192,95368,1,0,0:0:0:0:
192,192,95368,1,0,0:0:0:0:
448,192,95684,1,0,0:0:0:0:
192,192,95684,1,0,0:0:0:0:
448,192,96000,1,0,0:0:0:0:
192,192,96000,1,0,0:0:0:0:
320,192,96157,128,0,96236:0:0:0:0:
448,192,96236,128,0,96315:0:0:0:0:
320,192,96315,128,0,97263:0:0:0:0:
64,192,96315,128,0,96473:0:0:0:0:
192,192,96315,1,0,0:0:0:0:
192,192,96631,128,0,96789:0:0:0:0:
448,192,96631,1,0,0:0:0:0:
64,192,96631,1,0,0:0:0:0:
448,192,96789,128,0,96947:0:0:0:0:
192,192,96947,1,0,0:0:0:0:
64,192,96947,1,0,0:0:0:0:
64,192,97105,128,0,97263:0:0:0:0:
192,192,97263,128,0,97578:0:0:0:0:
448,192,97263,128,0,97421:0:0:0:0:
64,192,97578,128,0,98526:0:0:0:0:
320,192,97578,128,0,97736:0:0:0:0:
448,192,97578,1,0,0:0:0:0:
192,192,97736,128,0,97894:0:0:0:0:
448,192,97894,1,0,0:0:0:0:
320,192,97894,1,0,0:0:0:0:
320,192,98052,128,0,98210:0:0:0:0:
448,192,98210,128,0,98368:0:0:0:0:
192,192,98210,1,0,0:0:0:0:
192,192,98526,128,0,98684:0:0:0:0:
320,192,98526,1,0,0:0:0:0:
448,192,98526,1,0,0:0:0:0:
448,192,98842,128,0,99789:0:0:0:0:
320,192,98842,128,0,99039:0:0:0:0:
192,192,98842,1,0,0:0:0:0:
64,192,98842,1,0,0:0:0:0:
192,192,99157,128,0,99315:0:0:0:0:
320,192,99157,1,0,0:0:0:0:
64,192,99157,1,0,0:0:0:0:
64,192,99315,128,0,99473:0:0:0:0:
192,192,99473,1,0,0:0:0:0:
320,192,99473,1,0,0:0:0:0:
64,192,99631,128,0,99789:0:0:0:0:
192,192,99789,128,0,100105:0:0:0:0:
320,192,99789,128,0,99947:0:0:0:0:
64,192,100105,128,0,101052:0:0:0:0:
448,192,100105,128,0,100263:0:0:0:0:
320,192,100105,1,0,0:0:0:0:
320,192,100263,128,0,100421:0:0:0:0:
448,192,100421,1,0,0:0:0:0:
192,192,100421,1,0,0:0:0:0:
448,192,100578,128,0,100736:0:0:0:0:
192,192,100736,128,0,100894:0:0:0:0:
320,192,100736,1,0,0:0:0:0:
320,192,101052,128,0,101210:0:0:0:0:
448,192,101052,1,0,0:0:0:0:
192,192,101052,1,0,0:0:0:0:
192,192,101210,128,0,101289:0:0:0:0:
448,192,101289,128,0,101368:0:0:0:0:
320,192,101368,128,0,102315:0:0:0:0:
64,192,101368,128,0,101526:0:0:0:0:
192,192,101368,1,0,0:0:0:0:
192,192,101684,128,0,101842:0:0:0:0:
448,192,101684,1,0,0:0:0:0:
64,192,101684,1,0,0:0:0:0:
448,192,101842,128,0,102000:0:0:0:0:
192,192,102000,1,0,0:0:0:0:
64,192,102000,1,0,0:0:0:0:
64,192,102157,128,0,102315:0:0:0:0:
192,192,102315,128,0,102631:0:0:0:0:
448,192,102315,128,0,102473:0:0:0:0:
64,192,102631,128,0,102710:0:0:0:0:
448,192,102631,1,0,0:0:0:0:
320,192,102710,128,0,102789:0:0:0:0:
448,192,102789,128,0,102868:0:0:0:0:
192,192,102947,128,0,103026:0:0:0:0:
320,192,102947,1,0,0:0:0:0:
448,192,102947,1,0,0:0:0:0:
64,192,103026,128,0,103105:0:0:0:0:
192,192,103105,128,0,103184:0:0:0:0:
320,192,103184,128,0,103263:0:0:0:0:
448,192,103263,128,0,103342:0:0:0:0:
192,192,103263,1,0,0:0:0:0:
64,192,103263,1,0,0:0:0:0:
320,192,103421,128,0,103500:0:0:0:0:
192,192,103500,128,0,103578:0:0:0:0:
320,192,103578,128,0,103657:0:0:0:0:
448,192,103578,1,0,0:0:0:0:
64,192,103578,1,0,0:0:0:0:
64,192,103657,128,0,103736:0:0:0:0:
192,192,103736,128,0,103815:0:0:0:0:
64,192,103815,128,0,103894:0:0:0:0:
448,192,103894,128,0,104842:0:0:0:0:
320,192,103894,1,0,0:0:0:0:
192,192,103894,1,0,0:0:0:0:
64,192,104052,128,0,104210:0:0:0:0:
192,192,104052,1,0,0:0:0:0:
320,192,104052,1,0,0:0:0:0:
64,192,104368,128,0,104526:0:0:0:0:
320,192,104368,1,0,0:0:0:0:
192,192,104368,1,0,0:0:0:0:
64,192,104684,128,0,104842:0:0:0:0:
192,192,104684,1,0,0:0:0:0:
320,192,104684,1,0,0:0:0:0:
320,192,104842,128,0,105157:0:0:0:0:
64,192,105000,128,0,105157:0:0:0:0:
192,192,105000,1,0,0:0:0:0:
448,192,105000,1,0,0:0:0:0:
192,192,105157,128,0,106105:0:0:0:0:
64,192,105315,128,0,105473:0:0:0:0:
320,192,105315,1,0,0:0:0:0:
448,192,105315,1,0,0:0:0:0:
64,192,105631,128,0,105789:0:0:0:0:
320,192,105631,1,0,0:0:0:0:
448,192,105631,1,0,0:0:0:0:
64,192,105947,128,0,106105:0:0:0:0:
320,192,105947,1,0,0:0:0:0:
448,192,105947,1,0,0:0:0:0:
320,192,106263,128,0,106342:0:0:0:0:
192,192,106263,1,0,0:0:0:0:
64,192,106263,128,0,106421:0:0:0:0:
448,192,106342,128,0,106421:0:0:0:0:
192,192,106421,128,0,107368:0:0:0:0:
320,192,106578,128,0,106736:0:0:0:0:
448,192,106578,1,0,0:0:0:0:
64,192,106578,1,0,0:0:0:0:
320,192,106894,128,0,107052:0:0:0:0:
64,192,106894,1,0,0:0:0:0:
448,192,106894,1,0,0:0:0:0:
320,192,107210,128,0,107368:0:0:0:0:
448,192,107210,1,0,0:0:0:0:
64,192,107210,1,0,0:0:0:0:
448,192,107368,128,0,107684:0:0:0:0:
320,192,107526,128,0,107684:0:0:0:0:
192,192,107526,1,0,0:0:0:0:
64,192,107526,1,0,0:0:0:0:
64,192,107684,128,0,108631:0:0:0:0:
448,192,107842,128,0,108000:0:0:0:0:
320,192,107842,1,0,0:0:0:0:
192,192,107842,1,0,0:0:0:0:
448,192,108157,128,0,108315:0:0:0:0:
320,192,108157,1,0,0:0:0:0:
192,192,108157,1,0,0:0:0:0:
448,192,108473,128,0,108631:0:0:0:0:
320,192,108473,1,0,0:0:0:0:
192,192,108473,1,0,0:0:0:0:
448,192,108789,128,0,108947:0:0:0:0:
192,192,108789,1,0,0:0:0:0:
64,192,108789,1,0,0:0:0:0:
320,192,108947,128,0,109894:0:0:0:0:
64,192,108947,128,0,108986:0:0:0:0:
192,192,109105,128,0,109144:0:0:0:0:
448,192,109105,1,0,0:0:0:0:
64,192,109105,1,0,0:0:0:0:
64,192,109263,128,0,109302:0:0:0:0:
448,192,109421,128,0,109460:0:0:0:0:
192,192,109421,1,0,0:0:0:0:
64,192,109421,1,0,0:0:0:0:
192,192,109578,128,0,109618:0:0:0:0:
448,192,109736,128,0,109776:0:0:0:0:
192,192,109736,1,0,0:0:0:0:
64,192,109736,1,0,0:0:0:0:
192,192,109894,128,0,110210:0:0:0:0:
64,192,109894,128,0,109934:0:0:0:0:
448,192,110052,128,0,110092:0:0:0:0:
320,192,110052,1,0,0:0:0:0:
64,192,110052,1,0,0:0:0:0:
64,192,110210,128,0,111157:0:0:0:0:
320,192,110210,128,0,110250:0:0:0:0:
448,192,110368,128,0,110407:0:0:0:0:
320,192,110368,1,0,0:0:0:0:
192,192,110368,1,0,0:0:0:0:
192,192,110526,128,0,110565:0:0:0:0:
320,192,110684,128,0,110723:0:0:0:0:
448,192,110684,1,0,0:0:0:0:
192,192,110684,1,0,0:0:0:0:
448,192,110842,128,0,110881:0:0:0:0:
320,192,111000,128,0,111039:0:0:0:0:
448,192,111000,1,0,0:0:0:0:
192,192,111000,1,0,0:0:0:0:
192,192,111157,128,0,111197:0:0:0:0:
320,192,111315,128,0,111394:0:0:0:0:
64,192,111315,128,0,111355:0:0:0:0:
192,192,111315,1,0,0:0:0:0:
448,192,111394,128,0,111473:0:0:0:0:
320,192,111473,128,0,112421:0:0:0:0:
64,192,111631,1,0,0:0:0:0:
192,192,111631,1,0,0:0:0:0:
448,192,111789,128,0,111868:0:0:0:0:
64,192,111947,1,0,0:0:0:0:
192,192,111947,1,0,0:0:0:0:
448,192,112263,128,0,112342:0:0:0:0:
192,192,112263,1,0,0:0:0:0:
64,192,112263,1,0,0:0:0:0:
192,192,112421,128,0,112736:0:0:0:0:
448,192,112500,128,0,112578:0:0:0:0:
64,192,112578,1,0,0:0:0:0:
320,192,112657,128,0,112736:0:0:0:0:
448,192,112894,1,0,0:0:0:0:
192,192,112894,1,0,0:0:0:0:
64,192,113052,128,0,113131:0:0:0:0:
320,192,113210,1,0,0:0:0:0:
192,192,113210,1,0,0:0:0:0:
448,192,113368,128,0,113526:0:0:0:0:
64,192,113368,128,0,114000:0:0:0:0:
192,192,113526,128,0,113684:0:0:0:0:
320,192,113684,128,0,113842:0:0:0:0:
192,192,113842,128,0,114000:0:0:0:0:
448,192,114000,128,0,116210:0:0:0:0:
320,192,114000,128,0,116210:0:0:0:0:
