osu file format v14

[General]
AudioFilename: cutupthereality.mp3
AudioLeadIn: 0
PreviewTime: 65942
Countdown: 0
SampleSet: None
StackLeniency: 0.7
Mode: 3
LetterboxInBreaks: 0
SpecialStyle: 0
WidescreenStoryboard: 0

[Editor]
DistanceSpacing: 0.8
BeatDivisor: 4
GridSize: 32
TimelineZoom: 1

[Metadata]
Title:Genjitsu o katto appu shite mita
TitleUnicode:現実をカットアップしてみた
Artist:Yu^ta
ArtistUnicode:Yu^ta
Creator:riktoi
Version:non-reality
Source:
Tags:BMS I tried to cut up reality karen anime
BeatmapID:1791002
BeatmapSetID:857214

[Difficulty]
HPDrainRate:8
CircleSize:4
OverallDifficulty:8
ApproachRate:5
SliderMultiplier:1.4
SliderTickRate:1

[Events]
//Background and Video events
0,0,"karen.jpg",0,0
//Break Periods
//Storyboard Layer 0 (Background)
//Storyboard Layer 1 (Fail)
//Storyboard Layer 2 (Pass)
//Storyboard Layer 3 (Foreground)
//Storyboard Sound Samples

[TimingPoints]
1974,500,4,2,0,20,1,0

[HitObjects]
448,192,1974,5,0,0:0:0:0:
320,192,2099,1,0,0:0:0:0:
192,192,2349,1,0,0:0:0:0:
320,192,2474,1,0,0:0:0:0:
448,192,2724,1,0,0:0:0:0:
448,192,2849,1,0,0:0:0:0:
448,192,2974,1,0,0:0:0:0:
320,192,3099,1,0,0:0:0:0:
192,192,3349,1,0,0:0:0:0:
320,192,3474,1,0,0:0:0:0:
448,192,3724,1,0,0:0:0:0:
448,192,3849,1,0,0:0:0:0:
448,192,3974,1,0,0:0:0:0:
320,192,4099,1,0,0:0:0:0:
192,192,4349,1,0,0:0:0:0:
320,192,4474,1,0,0:0:0:0:
448,192,4724,1,0,0:0:0:0:
448,192,4849,1,0,0:0:0:0:
64,192,4974,1,0,0:0:0:0:
192,192,5099,1,0,0:0:0:0:
448,192,5349,1,0,0:0:0:0:
448,192,5599,1,0,0:0:0:0:
448,192,5849,1,0,0:0:0:0:
448,192,5974,1,0,0:0:0:0:
320,192,6099,1,0,0:0:0:0:
192,192,6349,1,0,0:0:0:0:
320,192,6474,1,0,0:0:0:0:
448,192,6724,1,0,0:0:0:0:
448,192,6849,1,0,0:0:0:0:
448,192,6974,1,0,0:0:0:0:
320,192,7099,1,0,0:0:0:0:
192,192,7349,1,0,0:0:0:0:
320,192,7474,1,0,0:0:0:0:
448,192,7724,1,0,0:0:0:0:
448,192,7849,1,0,0:0:0:0:
448,192,7974,1,0,0:0:0:0:
320,192,8099,1,0,0:0:0:0:
192,192,8349,1,0,0:0:0:0:
320,192,8474,1,0,0:0:0:0:
448,192,8724,1,0,0:0:0:0:
448,192,8849,1,0,0:0:0:0:
448,192,9099,1,0,0:0:0:0:
448,192,9349,1,0,0:0:0:0:
448,192,9599,1,0,0:0:0:0:
448,192,9849,1,0,0:0:0:0:
64,192,9974,1,0,0:0:0:0:
448,192,9974,1,0,0:0:0:0:
320,192,10099,1,0,0:0:0:0:
192,192,10349,1,0,0:0:0:0:
320,192,10474,1,0,0:0:0:0:
448,192,10724,1,0,0:0:0:0:
448,192,10849,1,0,0:0:0:0:
64,192,10974,1,0,0:0:0:0:
448,192,10974,1,0,0:0:0:0:
320,192,11099,1,0,0:0:0:0:
192,192,11349,1,0,0:0:0:0:
320,192,11474,1,0,0:0:0:0:
448,192,11724,1,0,0:0:0:0:
448,192,11849,1,0,0:0:0:0:
64,192,11974,1,0,0:0:0:0:
448,192,11974,1,0,0:0:0:0:
320,192,12099,1,0,0:0:0:0:
192,192,12349,1,0,0:0:0:0:
320,192,12474,1,0,0:0:0:0:
448,192,12724,1,0,0:0:0:0:
448,192,12849,1,0,0:0:0:0:
64,192,12974,1,0,0:0:0:0:
192,192,13099,1,0,0:0:0:0:
448,192,13349,1,0,0:0:0:0:
448,192,13599,1,0,0:0:0:0:
448,192,13849,1,0,0:0:0:0:
64,192,13974,1,0,0:0:0:0:
448,192,13974,1,0,0:0:0:0:
320,192,14099,1,0,0:0:0:0:
192,192,14349,1,0,0:0:0:0:
320,192,14474,1,0,0:0:0:0:
448,192,14724,1,0,0:0:0:0:
448,192,14849,1,0,0:0:0:0:
64,192,14974,1,0,0:0:0:0:
448,192,14974,1,0,0:0:0:0:
320,192,15099,1,0,0:0:0:0:
192,192,15349,1,0,0:0:0:0:
320,192,15474,1,0,0:0:0:0:
448,192,15724,1,0,0:0:0:0:
448,192,15849,1,0,0:0:0:0:
64,192,15974,1,0,0:0:0:0:
448,192,15974,1,0,0:0:0:0:
320,192,16099,1,0,0:0:0:0:
192,192,16349,1,0,0:0:0:0:
320,192,16474,1,0,0:0:0:0:
448,192,16724,1,0,0:0:0:0:
448,192,16849,1,0,0:0:0:0:
448,192,17099,1,0,0:0:0:0:
448,192,17349,1,0,0:0:0:0:
448,192,17599,1,0,0:0:0:0:
448,192,17849,1,0,0:0:0:0:
64,192,17974,1,0,0:0:0:0:
448,192,17974,1,0,0:0:0:0:
320,192,18099,1,0,0:0:0:0:
192,192,18224,1,0,0:0:0:0:
192,192,18349,1,0,0:0:0:0:
320,192,18474,1,0,0:0:0:0:
448,192,18724,1,0,0:0:0:0:
320,192,18849,1,0,0:0:0:0:
448,192,18974,1,0,0:0:0:0:
320,192,19099,1,0,0:0:0:0:
192,192,19224,1,0,0:0:0:0:
192,192,19349,1,0,0:0:0:0:
320,192,19474,1,0,0:0:0:0:
448,192,19724,1,0,0:0:0:0:
320,192,19849,1,0,0:0:0:0:
448,192,19974,1,0,0:0:0:0:
320,192,20099,1,0,0:0:0:0:
192,192,20224,1,0,0:0:0:0:
192,192,20349,1,0,0:0:0:0:
320,192,20474,1,0,0:0:0:0:
448,192,20724,1,0,0:0:0:0:
320,192,20849,1,0,0:0:0:0:
448,192,20974,1,0,0:0:0:0:
448,192,21099,1,0,0:0:0:0:
320,192,21224,1,0,0:0:0:0:
320,192,21349,1,0,0:0:0:0:
192,192,21474,1,0,0:0:0:0:
192,192,21724,1,0,0:0:0:0:
192,192,21849,1,0,0:0:0:0:
448,192,21974,1,0,0:0:0:0:
320,192,22099,1,0,0:0:0:0:
192,192,22224,1,0,0:0:0:0:
192,192,22349,1,0,0:0:0:0:
320,192,22474,1,0,0:0:0:0:
448,192,22724,1,0,0:0:0:0:
320,192,22849,1,0,0:0:0:0:
448,192,22974,1,0,0:0:0:0:
320,192,23099,1,0,0:0:0:0:
192,192,23224,1,0,0:0:0:0:
192,192,23349,1,0,0:0:0:0:
320,192,23474,1,0,0:0:0:0:
448,192,23724,1,0,0:0:0:0:
320,192,23849,1,0,0:0:0:0:
448,192,23974,1,0,0:0:0:0:
320,192,24099,1,0,0:0:0:0:
192,192,24224,1,0,0:0:0:0:
192,192,24349,1,0,0:0:0:0:
320,192,24474,1,0,0:0:0:0:
448,192,24724,1,0,0:0:0:0:
320,192,24849,1,0,0:0:0:0:
448,192,24974,1,0,0:0:0:0:
448,192,25099,1,0,0:0:0:0:
320,192,25224,1,0,0:0:0:0:
320,192,25349,1,0,0:0:0:0:
192,192,25474,1,0,0:0:0:0:
192,192,25724,1,0,0:0:0:0:
192,192,25849,1,0,0:0:0:0:
448,192,25974,1,0,0:0:0:0:
320,192,26099,1,0,0:0:0:0:
192,192,26224,1,0,0:0:0:0:
192,192,26349,1,0,0:0:0:0:
320,192,26474,1,0,0:0:0:0:
448,192,26724,1,0,0:0:0:0:
320,192,26849,1,0,0:0:0:0:
448,192,26974,1,0,0:0:0:0:
320,192,27099,1,0,0:0:0:0:
192,192,27224,1,0,0:0:0:0:
192,192,27349,1,0,0:0:0:0:
320,192,27474,1,0,0:0:0:0:
448,192,27724,1,0,0:0:0:0:
320,192,27849,1,0,0:0:0:0:
448,192,27974,1,0,0:0:0:0:
320,192,28099,1,0,0:0:0:0:
192,192,28224,1,0,0:0:0:0:
192,192,28349,1,0,0:0:0:0:
320,192,28474,1,0,0:0:0:0:
448,192,28724,1,0,0:0:0:0:
320,192,28849,1,0,0:0:0:0:
448,192,28974,1,0,0:0:0:0:
448,192,29099,1,0,0:0:0:0:
320,192,29224,1,0,0:0:0:0:
320,192,29349,1,0,0:0:0:0:
192,192,29474,1,0,0:0:0:0:
192,192,29724,1,0,0:0:0:0:
192,192,29849,1,0,0:0:0:0:
448,192,29974,1,0,0:0:0:0:
320,192,30099,1,0,0:0:0:0:
192,192,30224,1,0,0:0:0:0:
192,192,30349,1,0,0:0:0:0:
320,192,30474,1,0,0:0:0:0:
448,192,30724,1,0,0:0:0:0:
320,192,30849,1,0,0:0:0:0:
448,192,30974,1,0,0:0:0:0:
320,192,31099,1,0,0:0:0:0:
192,192,31224,1,0,0:0:0:0:
192,192,31349,1,0,0:0:0:0:
320,192,31474,1,0,0:0:0:0:
448,192,31724,1,0,0:0:0:0:
320,192,31849,1,0,0:0:0:0:
448,192,31974,1,0,0:0:0:0:
320,192,32099,1,0,0:0:0:0:
192,192,32224,1,0,0:0:0:0:
192,192,32349,1,0,0:0:0:0:
320,192,32474,1,0,0:0:0:0:
448,192,32724,1,0,0:0:0:0:
320,192,32849,1,0,0:0:0:0:
448,192,32974,1,0,0:0:0:0:
448,192,33099,1,0,0:0:0:0:
320,192,33224,1,0,0:0:0:0:
320,192,33349,1,0,0:0:0:0:
192,192,33474,1,0,0:0:0:0:
192,192,33599,1,0,0:0:0:0:
320,192,33724,1,0,0:0:0:0:
320,192,33849,1,0,0:0:0:0:
64,192,33974,1,0,0:0:0:0:
448,192,33974,1,0,0:0:0:0:
192,192,34099,1,0,0:0:0:0:
320,192,34224,1,0,0:0:0:0:
64,192,34349,1,0,0:0:0:0:
448,192,34474,1,0,0:0:0:0:
64,192,34599,1,0,0:0:0:0:
192,192,34849,1,0,0:0:0:0:
64,192,34974,1,0,0:0:0:0:
448,192,34974,1,0,0:0:0:0:
320,192,35099,1,0,0:0:0:0:
192,192,35224,1,0,0:0:0:0:
320,192,35349,1,0,0:0:0:0:
448,192,35474,1,0,0:0:0:0:
320,192,35599,1,0,0:0:0:0:
320,192,35724,1,0,0:0:0:0:
192,192,35849,1,0,0:0:0:0:
64,192,35974,1,0,0:0:0:0:
448,192,35974,1,0,0:0:0:0:
192,192,36099,1,0,0:0:0:0:
320,192,36224,1,0,0:0:0:0:
64,192,36349,1,0,0:0:0:0:
448,192,36474,1,0,0:0:0:0:
64,192,36599,1,0,0:0:0:0:
192,192,36849,1,0,0:0:0:0:
64,192,36974,1,0,0:0:0:0:
448,192,36974,1,0,0:0:0:0:
64,192,37224,1,0,0:0:0:0:
192,192,37349,1,0,0:0:0:0:
448,192,37474,1,0,0:0:0:0:
448,192,37599,1,0,0:0:0:0:
448,192,37724,1,0,0:0:0:0:
448,192,37849,1,0,0:0:0:0:
64,192,37974,1,0,0:0:0:0:
448,192,37974,1,0,0:0:0:0:
192,192,38099,1,0,0:0:0:0:
320,192,38224,1,0,0:0:0:0:
64,192,38349,1,0,0:0:0:0:
448,192,38474,1,0,0:0:0:0:
64,192,38599,1,0,0:0:0:0:
192,192,38849,1,0,0:0:0:0:
64,192,38974,1,0,0:0:0:0:
448,192,38974,1,0,0:0:0:0:
320,192,39099,1,0,0:0:0:0:
192,192,39224,1,0,0:0:0:0:
320,192,39349,1,0,0:0:0:0:
448,192,39474,1,0,0:0:0:0:
320,192,39599,1,0,0:0:0:0:
320,192,39724,1,0,0:0:0:0:
192,192,39849,1,0,0:0:0:0:
64,192,39974,1,0,0:0:0:0:
448,192,39974,1,0,0:0:0:0:
192,192,40099,1,0,0:0:0:0:
320,192,40224,1,0,0:0:0:0:
64,192,40349,1,0,0:0:0:0:
448,192,40474,1,0,0:0:0:0:
64,192,40599,1,0,0:0:0:0:
192,192,40849,1,0,0:0:0:0:
64,192,40974,1,0,0:0:0:0:
448,192,40974,1,0,0:0:0:0:
320,192,41224,1,0,0:0:0:0:
448,192,41224,1,0,0:0:0:0:
64,192,41349,1,0,0:0:0:0:
192,192,41349,1,0,0:0:0:0:
320,192,41474,1,0,0:0:0:0:
448,192,41474,1,0,0:0:0:0:
320,192,41599,1,0,0:0:0:0:
448,192,41599,1,0,0:0:0:0:
320,192,41724,1,0,0:0:0:0:
448,192,41724,1,0,0:0:0:0:
320,192,41849,1,0,0:0:0:0:
448,192,41849,1,0,0:0:0:0:
64,192,41974,1,0,0:0:0:0:
448,192,41974,1,0,0:0:0:0:
192,192,42099,1,0,0:0:0:0:
320,192,42224,1,0,0:0:0:0:
64,192,42349,1,0,0:0:0:0:
64,192,42599,1,0,0:0:0:0:
192,192,42849,1,0,0:0:0:0:
448,192,42974,1,0,0:0:0:0:
320,192,43099,1,0,0:0:0:0:
192,192,43224,1,0,0:0:0:0:
320,192,43349,1,0,0:0:0:0:
320,192,43599,1,0,0:0:0:0:
448,192,43661,1,0,0:0:0:0:
320,192,43724,1,0,0:0:0:0:
192,192,43849,1,0,0:0:0:0:
448,192,43974,1,0,0:0:0:0:
192,192,44099,1,0,0:0:0:0:
320,192,44224,1,0,0:0:0:0:
64,192,44349,1,0,0:0:0:0:
64,192,44599,1,0,0:0:0:0:
64,192,44724,1,0,0:0:0:0:
192,192,44849,1,0,0:0:0:0:
448,192,44974,1,0,0:0:0:0:
64,192,45224,1,0,0:0:0:0:
192,192,45349,1,0,0:0:0:0:
448,192,45474,1,0,0:0:0:0:
64,192,45474,128,0,45599:0:0:0:0:
448,192,45599,1,0,0:0:0:0:
448,192,45724,1,0,0:0:0:0:
448,192,45849,1,0,0:0:0:0:
448,192,45974,1,0,0:0:0:0:
192,192,46099,1,0,0:0:0:0:
320,192,46224,1,0,0:0:0:0:
64,192,46349,1,0,0:0:0:0:
64,192,46599,1,0,0:0:0:0:
192,192,46849,1,0,0:0:0:0:
448,192,46974,1,0,0:0:0:0:
320,192,47099,1,0,0:0:0:0:
192,192,47224,1,0,0:0:0:0:
320,192,47349,1,0,0:0:0:0:
320,192,47599,1,0,0:0:0:0:
448,192,47661,1,0,0:0:0:0:
320,192,47724,1,0,0:0:0:0:
192,192,47849,1,0,0:0:0:0:
448,192,47974,1,0,0:0:0:0:
192,192,48099,1,0,0:0:0:0:
320,192,48224,1,0,0:0:0:0:
64,192,48349,1,0,0:0:0:0:
64,192,48599,1,0,0:0:0:0:
64,192,48724,1,0,0:0:0:0:
192,192,48849,1,0,0:0:0:0:
448,192,48974,1,0,0:0:0:0:
64,192,49224,1,0,0:0:0:0:
192,192,49349,1,0,0:0:0:0:
320,192,49474,1,0,0:0:0:0:
448,192,49474,1,0,0:0:0:0:
64,192,49536,1,0,0:0:0:0:
192,192,49536,1,0,0:0:0:0:
320,192,49599,1,0,0:0:0:0:
448,192,49599,1,0,0:0:0:0:
320,192,49724,1,0,0:0:0:0:
448,192,49724,1,0,0:0:0:0:
320,192,49849,1,0,0:0:0:0:
448,192,49849,1,0,0:0:0:0:
192,192,49911,1,0,0:0:0:0:
64,192,49974,1,0,0:0:0:0:
448,192,49974,1,0,0:0:0:0:
192,192,50099,1,0,0:0:0:0:
320,192,50224,1,0,0:0:0:0:
64,192,50349,1,0,0:0:0:0:
192,192,50474,1,0,0:0:0:0:
448,192,50474,1,0,0:0:0:0:
64,192,50599,1,0,0:0:0:0:
192,192,50849,1,0,0:0:0:0:
64,192,50974,1,0,0:0:0:0:
448,192,50974,1,0,0:0:0:0:
320,192,51099,1,0,0:0:0:0:
192,192,51224,1,0,0:0:0:0:
320,192,51349,1,0,0:0:0:0:
192,192,51474,1,0,0:0:0:0:
448,192,51474,1,0,0:0:0:0:
320,192,51599,1,0,0:0:0:0:
448,192,51661,1,0,0:0:0:0:
320,192,51724,1,0,0:0:0:0:
192,192,51849,1,0,0:0:0:0:
64,192,51974,1,0,0:0:0:0:
448,192,51974,1,0,0:0:0:0:
192,192,52099,1,0,0:0:0:0:
320,192,52224,1,0,0:0:0:0:
64,192,52349,1,0,0:0:0:0:
192,192,52474,1,0,0:0:0:0:
448,192,52474,1,0,0:0:0:0:
64,192,52599,1,0,0:0:0:0:
192,192,52849,1,0,0:0:0:0:
64,192,52974,1,0,0:0:0:0:
448,192,52974,1,0,0:0:0:0:
64,192,53224,1,0,0:0:0:0:
192,192,53349,1,0,0:0:0:0:
448,192,53474,1,0,0:0:0:0:
64,192,53474,128,0,53599:0:0:0:0:
448,192,53599,1,0,0:0:0:0:
448,192,53724,1,0,0:0:0:0:
448,192,53849,1,0,0:0:0:0:
64,192,53974,1,0,0:0:0:0:
448,192,53974,1,0,0:0:0:0:
192,192,54099,1,0,0:0:0:0:
320,192,54224,1,0,0:0:0:0:
64,192,54349,1,0,0:0:0:0:
192,192,54474,1,0,0:0:0:0:
448,192,54474,1,0,0:0:0:0:
64,192,54599,1,0,0:0:0:0:
192,192,54849,1,0,0:0:0:0:
64,192,54974,1,0,0:0:0:0:
448,192,54974,1,0,0:0:0:0:
320,192,55099,1,0,0:0:0:0:
192,192,55224,1,0,0:0:0:0:
320,192,55349,1,0,0:0:0:0:
192,192,55474,1,0,0:0:0:0:
448,192,55474,1,0,0:0:0:0:
320,192,55599,1,0,0:0:0:0:
448,192,55661,1,0,0:0:0:0:
320,192,55724,1,0,0:0:0:0:
192,192,55849,1,0,0:0:0:0:
64,192,55974,1,0,0:0:0:0:
448,192,55974,1,0,0:0:0:0:
192,192,56099,1,0,0:0:0:0:
320,192,56224,1,0,0:0:0:0:
64,192,56349,1,0,0:0:0:0:
192,192,56474,1,0,0:0:0:0:
448,192,56474,1,0,0:0:0:0:
64,192,56599,1,0,0:0:0:0:
192,192,56849,1,0,0:0:0:0:
64,192,56974,1,0,0:0:0:0:
448,192,56974,1,0,0:0:0:0:
64,192,57224,1,0,0:0:0:0:
192,192,57349,1,0,0:0:0:0:
448,192,57474,1,0,0:0:0:0:
64,192,57474,128,0,57599:0:0:0:0:
448,192,57599,1,0,0:0:0:0:
448,192,57724,1,0,0:0:0:0:
448,192,57849,1,0,0:0:0:0:
64,192,57974,1,0,0:0:0:0:
448,192,57974,1,0,0:0:0:0:
192,192,58099,1,0,0:0:0:0:
320,192,58224,1,0,0:0:0:0:
64,192,58349,128,0,58411:0:0:0:0:
192,192,58474,1,0,0:0:0:0:
448,192,58474,1,0,0:0:0:0:
64,192,58599,128,0,58661:0:0:0:0:
192,192,58849,128,0,58911:0:0:0:0:
64,192,58974,1,0,0:0:0:0:
448,192,58974,1,0,0:0:0:0:
448,192,59099,1,0,0:0:0:0:
320,192,59224,1,0,0:0:0:0:
320,192,59349,1,0,0:0:0:0:
192,192,59474,1,0,0:0:0:0:
448,192,59474,1,0,0:0:0:0:
320,192,59599,1,0,0:0:0:0:
448,192,59661,1,0,0:0:0:0:
320,192,59724,1,0,0:0:0:0:
192,192,59849,1,0,0:0:0:0:
64,192,59974,1,0,0:0:0:0:
448,192,59974,1,0,0:0:0:0:
192,192,60099,1,0,0:0:0:0:
320,192,60224,1,0,0:0:0:0:
64,192,60349,1,0,0:0:0:0:
192,192,60474,1,0,0:0:0:0:
448,192,60474,1,0,0:0:0:0:
64,192,60599,1,0,0:0:0:0:
192,192,60630,1,0,0:0:0:0:
320,192,60661,1,0,0:0:0:0:
448,192,60692,1,0,0:0:0:0:
64,192,60724,1,0,0:0:0:0:
192,192,60849,1,0,0:0:0:0:
64,192,60974,128,0,61036:0:0:0:0:
448,192,60974,128,0,61036:0:0:0:0:
64,192,61224,1,0,0:0:0:0:
192,192,61349,1,0,0:0:0:0:
448,192,61474,1,0,0:0:0:0:
64,192,61474,128,0,61599:0:0:0:0:
448,192,61599,1,0,0:0:0:0:
448,192,61724,1,0,0:0:0:0:
448,192,61849,1,0,0:0:0:0:
448,192,61974,1,0,0:0:0:0:
192,192,62099,1,0,0:0:0:0:
320,192,62224,1,0,0:0:0:0:
448,192,62224,1,0,0:0:0:0:
64,192,62349,1,0,0:0:0:0:
64,192,62599,1,0,0:0:0:0:
320,192,62724,1,0,0:0:0:0:
448,192,62724,1,0,0:0:0:0:
192,192,62849,1,0,0:0:0:0:
448,192,62974,1,0,0:0:0:0:
448,192,63099,1,0,0:0:0:0:
320,192,63224,1,0,0:0:0:0:
448,192,63224,1,0,0:0:0:0:
320,192,63349,1,0,0:0:0:0:
320,192,63599,1,0,0:0:0:0:
192,192,63661,1,0,0:0:0:0:
320,192,63724,1,0,0:0:0:0:
448,192,63724,1,0,0:0:0:0:
192,192,63849,1,0,0:0:0:0:
448,192,63974,1,0,0:0:0:0:
64,192,64099,1,0,0:0:0:0:
192,192,64099,1,0,0:0:0:0:
320,192,64224,1,0,0:0:0:0:
64,192,64349,1,0,0:0:0:0:
448,192,64474,1,0,0:0:0:0:
64,192,64599,1,0,0:0:0:0:
192,192,64630,1,0,0:0:0:0:
320,192,64661,1,0,0:0:0:0:
448,192,64692,1,0,0:0:0:0:
64,192,64724,1,0,0:0:0:0:
192,192,64849,1,0,0:0:0:0:
448,192,64974,1,0,0:0:0:0:
64,192,65099,1,0,0:0:0:0:
192,192,65099,1,0,0:0:0:0:
64,192,65224,1,0,0:0:0:0:
64,192,65349,1,0,0:0:0:0:
192,192,65349,1,0,0:0:0:0:
320,192,65474,1,0,0:0:0:0:
448,192,65474,1,0,0:0:0:0:
64,192,65536,1,0,0:0:0:0:
192,192,65536,1,0,0:0:0:0:
320,192,65599,1,0,0:0:0:0:
448,192,65599,1,0,0:0:0:0:
64,192,65661,1,0,0:0:0:0:
192,192,65661,1,0,0:0:0:0:
320,192,65724,1,0,0:0:0:0:
448,192,65724,1,0,0:0:0:0:
320,192,65849,1,0,0:0:0:0:
448,192,65849,1,0,0:0:0:0:
192,192,65911,1,0,0:0:0:0:
64,192,65974,1,0,0:0:0:0:
448,192,65974,1,0,0:0:0:0:
320,192,66099,1,0,0:0:0:0:
192,192,66224,1,0,0:0:0:0:
192,192,66349,1,0,0:0:0:0:
64,192,66474,1,0,0:0:0:0:
320,192,66474,1,0,0:0:0:0:
448,192,66474,1,0,0:0:0:0:
448,192,66724,1,0,0:0:0:0:
448,192,66849,1,0,0:0:0:0:
64,192,66974,1,0,0:0:0:0:
192,192,66974,1,0,0:0:0:0:
448,192,66974,1,0,0:0:0:0:
320,192,67099,1,0,0:0:0:0:
192,192,67224,1,0,0:0:0:0:
192,192,67349,1,0,0:0:0:0:
64,192,67474,1,0,0:0:0:0:
320,192,67474,1,0,0:0:0:0:
448,192,67474,1,0,0:0:0:0:
448,192,67724,1,0,0:0:0:0:
448,192,67849,1,0,0:0:0:0:
64,192,67974,1,0,0:0:0:0:
192,192,67974,1,0,0:0:0:0:
448,192,67974,1,0,0:0:0:0:
320,192,68099,1,0,0:0:0:0:
192,192,68224,1,0,0:0:0:0:
192,192,68349,1,0,0:0:0:0:
64,192,68474,1,0,0:0:0:0:
320,192,68474,1,0,0:0:0:0:
448,192,68474,1,0,0:0:0:0:
448,192,68724,1,0,0:0:0:0:
448,192,68849,1,0,0:0:0:0:
64,192,68974,1,0,0:0:0:0:
320,192,68974,1,0,0:0:0:0:
448,192,68974,1,0,0:0:0:0:
320,192,69099,1,0,0:0:0:0:
192,192,69224,1,0,0:0:0:0:
192,192,69349,1,0,0:0:0:0:
64,192,69474,1,0,0:0:0:0:
320,192,69474,1,0,0:0:0:0:
448,192,69474,1,0,0:0:0:0:
448,192,69724,1,0,0:0:0:0:
320,192,69849,1,0,0:0:0:0:
64,192,69974,1,0,0:0:0:0:
192,192,69974,1,0,0:0:0:0:
448,192,69974,1,0,0:0:0:0:
320,192,70099,1,0,0:0:0:0:
192,192,70224,1,0,0:0:0:0:
192,192,70349,1,0,0:0:0:0:
64,192,70474,1,0,0:0:0:0:
320,192,70474,1,0,0:0:0:0:
448,192,70474,1,0,0:0:0:0:
448,192,70724,1,0,0:0:0:0:
448,192,70849,1,0,0:0:0:0:
64,192,70974,1,0,0:0:0:0:
192,192,70974,1,0,0:0:0:0:
448,192,70974,1,0,0:0:0:0:
320,192,71099,1,0,0:0:0:0:
192,192,71224,1,0,0:0:0:0:
192,192,71349,1,0,0:0:0:0:
64,192,71474,1,0,0:0:0:0:
320,192,71474,1,0,0:0:0:0:
448,192,71474,1,0,0:0:0:0:
448,192,71724,1,0,0:0:0:0:
448,192,71849,1,0,0:0:0:0:
64,192,71974,1,0,0:0:0:0:
192,192,71974,1,0,0:0:0:0:
448,192,71974,1,0,0:0:0:0:
320,192,72099,1,0,0:0:0:0:
192,192,72224,1,0,0:0:0:0:
192,192,72349,1,0,0:0:0:0:
64,192,72474,1,0,0:0:0:0:
320,192,72474,1,0,0:0:0:0:
448,192,72474,1,0,0:0:0:0:
448,192,72724,1,0,0:0:0:0:
448,192,72849,1,0,0:0:0:0:
64,192,72974,1,0,0:0:0:0:
320,192,72974,1,0,0:0:0:0:
448,192,72974,1,0,0:0:0:0:
320,192,73099,1,0,0:0:0:0:
192,192,73224,1,0,0:0:0:0:
192,192,73349,1,0,0:0:0:0:
64,192,73474,1,0,0:0:0:0:
320,192,73474,1,0,0:0:0:0:
448,192,73474,1,0,0:0:0:0:
192,192,73599,1,0,0:0:0:0:
448,192,73724,1,0,0:0:0:0:
448,192,73849,1,0,0:0:0:0:
64,192,73974,1,0,0:0:0:0:
192,192,73974,1,0,0:0:0:0:
448,192,73974,1,0,0:0:0:0:
320,192,74099,1,0,0:0:0:0:
192,192,74224,1,0,0:0:0:0:
192,192,74349,1,0,0:0:0:0:
64,192,74474,1,0,0:0:0:0:
320,192,74474,1,0,0:0:0:0:
448,192,74474,1,0,0:0:0:0:
448,192,74724,1,0,0:0:0:0:
448,192,74849,1,0,0:0:0:0:
64,192,74974,1,0,0:0:0:0:
192,192,74974,1,0,0:0:0:0:
448,192,74974,1,0,0:0:0:0:
320,192,75099,1,0,0:0:0:0:
192,192,75224,1,0,0:0:0:0:
192,192,75349,1,0,0:0:0:0:
64,192,75474,1,0,0:0:0:0:
320,192,75474,1,0,0:0:0:0:
448,192,75474,1,0,0:0:0:0:
448,192,75724,1,0,0:0:0:0:
448,192,75849,1,0,0:0:0:0:
64,192,75974,1,0,0:0:0:0:
192,192,75974,1,0,0:0:0:0:
448,192,75974,1,0,0:0:0:0:
320,192,76099,1,0,0:0:0:0:
192,192,76224,1,0,0:0:0:0:
192,192,76349,1,0,0:0:0:0:
64,192,76474,1,0,0:0:0:0:
320,192,76474,1,0,0:0:0:0:
448,192,76474,1,0,0:0:0:0:
448,192,76724,1,0,0:0:0:0:
448,192,76849,1,0,0:0:0:0:
64,192,76974,1,0,0:0:0:0:
320,192,76974,1,0,0:0:0:0:
448,192,76974,1,0,0:0:0:0:
320,192,77099,1,0,0:0:0:0:
192,192,77224,1,0,0:0:0:0:
192,192,77349,1,0,0:0:0:0:
64,192,77474,1,0,0:0:0:0:
320,192,77474,1,0,0:0:0:0:
448,192,77474,1,0,0:0:0:0:
448,192,77724,1,0,0:0:0:0:
320,192,77849,1,0,0:0:0:0:
64,192,77974,1,0,0:0:0:0:
192,192,77974,1,0,0:0:0:0:
448,192,77974,1,0,0:0:0:0:
320,192,78099,1,0,0:0:0:0:
192,192,78224,1,0,0:0:0:0:
192,192,78349,1,0,0:0:0:0:
64,192,78474,1,0,0:0:0:0:
320,192,78474,1,0,0:0:0:0:
448,192,78474,1,0,0:0:0:0:
448,192,78724,1,0,0:0:0:0:
448,192,78849,1,0,0:0:0:0:
64,192,78974,1,0,0:0:0:0:
192,192,78974,1,0,0:0:0:0:
448,192,78974,1,0,0:0:0:0:
320,192,79099,1,0,0:0:0:0:
192,192,79224,1,0,0:0:0:0:
192,192,79349,1,0,0:0:0:0:
64,192,79474,1,0,0:0:0:0:
320,192,79474,1,0,0:0:0:0:
448,192,79474,1,0,0:0:0:0:
448,192,79724,1,0,0:0:0:0:
448,192,79849,1,0,0:0:0:0:
64,192,79974,1,0,0:0:0:0:
192,192,79974,1,0,0:0:0:0:
448,192,79974,1,0,0:0:0:0:
320,192,80099,1,0,0:0:0:0:
192,192,80224,1,0,0:0:0:0:
192,192,80349,1,0,0:0:0:0:
64,192,80474,1,0,0:0:0:0:
320,192,80474,1,0,0:0:0:0:
448,192,80474,1,0,0:0:0:0:
448,192,80724,1,0,0:0:0:0:
448,192,80849,1,0,0:0:0:0:
64,192,80974,1,0,0:0:0:0:
320,192,80974,1,0,0:0:0:0:
448,192,80974,1,0,0:0:0:0:
320,192,81099,1,0,0:0:0:0:
192,192,81224,1,0,0:0:0:0:
192,192,81349,1,0,0:0:0:0:
64,192,81474,1,0,0:0:0:0:
320,192,81474,1,0,0:0:0:0:
448,192,81474,1,0,0:0:0:0:
448,192,81599,1,0,0:0:0:0:
64,192,81724,1,0,0:0:0:0:
192,192,81724,1,0,0:0:0:0:
64,192,81849,1,0,0:0:0:0:
192,192,81849,1,0,0:0:0:0:
64,192,81974,1,0,0:0:0:0:
192,192,81974,1,0,0:0:0:0:
448,192,81974,1,0,0:0:0:0:
448,192,82224,1,0,0:0:0:0:
320,192,82349,1,0,0:0:0:0:
64,192,82474,1,0,0:0:0:0:
448,192,82474,1,0,0:0:0:0:
64,192,82599,1,0,0:0:0:0:
64,192,82849,1,0,0:0:0:0:
320,192,82974,1,0,0:0:0:0:
320,192,83099,1,0,0:0:0:0:
448,192,83224,1,0,0:0:0:0:
192,192,83349,1,0,0:0:0:0:
320,192,83474,1,0,0:0:0:0:
448,192,83474,1,0,0:0:0:0:
64,192,83599,1,0,0:0:0:0:
192,192,83724,1,0,0:0:0:0:
320,192,83849,1,0,0:0:0:0:
448,192,83974,1,0,0:0:0:0:
448,192,84099,1,0,0:0:0:0:
448,192,84224,1,0,0:0:0:0:
192,192,84349,1,0,0:0:0:0:
64,192,84474,1,0,0:0:0:0:
448,192,84474,1,0,0:0:0:0:
192,192,84724,1,0,0:0:0:0:
320,192,84849,1,0,0:0:0:0:
192,192,84974,1,0,0:0:0:0:
64,192,85099,1,0,0:0:0:0:
192,192,85224,1,0,0:0:0:0:
192,192,85349,1,0,0:0:0:0:
320,192,85474,1,0,0:0:0:0:
448,192,85474,1,0,0:0:0:0:
192,192,85599,1,0,0:0:0:0:
320,192,85724,1,0,0:0:0:0:
320,192,85849,1,0,0:0:0:0:
448,192,85974,1,0,0:0:0:0:
320,192,86099,1,0,0:0:0:0:
192,192,86349,1,0,0:0:0:0:
64,192,86474,1,0,0:0:0:0:
448,192,86474,1,0,0:0:0:0:
320,192,86599,1,0,0:0:0:0:
448,192,86724,1,0,0:0:0:0:
320,192,86974,1,0,0:0:0:0:
320,192,87099,1,0,0:0:0:0:
192,192,87224,1,0,0:0:0:0:
192,192,87349,1,0,0:0:0:0:
320,192,87474,1,0,0:0:0:0:
448,192,87474,1,0,0:0:0:0:
192,192,87599,1,0,0:0:0:0:
64,192,87724,1,0,0:0:0:0:
192,192,87849,1,0,0:0:0:0:
448,192,87974,1,0,0:0:0:0:
448,192,88099,1,0,0:0:0:0:
320,192,88349,1,0,0:0:0:0:
64,192,88474,1,0,0:0:0:0:
448,192,88474,1,0,0:0:0:0:
320,192,88599,1,0,0:0:0:0:
192,192,88724,1,0,0:0:0:0:
320,192,88849,1,0,0:0:0:0:
64,192,88974,1,0,0:0:0:0:
192,192,88974,1,0,0:0:0:0:
448,192,89099,1,0,0:0:0:0:
192,192,89224,1,0,0:0:0:0:
320,192,89224,1,0,0:0:0:0:
64,192,89349,1,0,0:0:0:0:
320,192,89474,1,0,0:0:0:0:
448,192,89474,1,0,0:0:0:0:
64,192,89724,1,0,0:0:0:0:
192,192,89724,1,0,0:0:0:0:
320,192,89849,1,0,0:0:0:0:
64,192,89974,1,0,0:0:0:0:
192,192,89974,1,0,0:0:0:0:
448,192,89974,1,0,0:0:0:0:
448,192,90224,1,0,0:0:0:0:
192,192,90349,1,0,0:0:0:0:
320,192,90349,1,0,0:0:0:0:
64,192,90474,1,0,0:0:0:0:
448,192,90474,1,0,0:0:0:0:
64,192,90599,1,0,0:0:0:0:
64,192,90849,1,0,0:0:0:0:
320,192,90974,1,0,0:0:0:0:
448,192,90974,1,0,0:0:0:0:
320,192,91099,1,0,0:0:0:0:
448,192,91099,1,0,0:0:0:0:
64,192,91224,1,0,0:0:0:0:
64,192,91349,1,0,0:0:0:0:
192,192,91349,1,0,0:0:0:0:
320,192,91474,1,0,0:0:0:0:
448,192,91474,1,0,0:0:0:0:
64,192,91599,1,0,0:0:0:0:
192,192,91724,1,0,0:0:0:0:
448,192,91849,1,0,0:0:0:0:
192,192,91974,1,0,0:0:0:0:
320,192,91974,1,0,0:0:0:0:
448,192,92099,1,0,0:0:0:0:
448,192,92224,1,0,0:0:0:0:
192,192,92349,1,0,0:0:0:0:
320,192,92349,1,0,0:0:0:0:
64,192,92474,1,0,0:0:0:0:
448,192,92474,1,0,0:0:0:0:
192,192,92724,1,0,0:0:0:0:
192,192,92849,1,0,0:0:0:0:
320,192,92974,1,0,0:0:0:0:
448,192,92974,1,0,0:0:0:0:
320,192,93099,1,0,0:0:0:0:
448,192,93099,1,0,0:0:0:0:
192,192,93224,1,0,0:0:0:0:
64,192,93349,1,0,0:0:0:0:
192,192,93349,1,0,0:0:0:0:
320,192,93474,1,0,0:0:0:0:
448,192,93474,1,0,0:0:0:0:
64,192,93599,1,0,0:0:0:0:
192,192,93599,1,0,0:0:0:0:
320,192,93661,1,0,0:0:0:0:
448,192,93661,1,0,0:0:0:0:
64,192,93724,1,0,0:0:0:0:
192,192,93724,1,0,0:0:0:0:
64,192,93849,1,0,0:0:0:0:
192,192,93849,1,0,0:0:0:0:
64,192,93974,1,0,0:0:0:0:
320,192,93974,1,0,0:0:0:0:
448,192,93974,1,0,0:0:0:0:
320,192,94099,1,0,0:0:0:0:
192,192,94224,1,0,0:0:0:0:
192,192,94349,1,0,0:0:0:0:
320,192,94349,1,0,0:0:0:0:
64,192,94474,1,0,0:0:0:0:
448,192,94474,1,0,0:0:0:0:
320,192,94599,1,0,0:0:0:0:
448,192,94724,1,0,0:0:0:0:
192,192,94849,1,0,0:0:0:0:
64,192,94974,1,0,0:0:0:0:
320,192,94974,1,0,0:0:0:0:
448,192,94974,1,0,0:0:0:0:
320,192,95099,1,0,0:0:0:0:
448,192,95099,1,0,0:0:0:0:
192,192,95224,1,0,0:0:0:0:
64,192,95349,1,0,0:0:0:0:
192,192,95349,1,0,0:0:0:0:
320,192,95474,1,0,0:0:0:0:
448,192,95474,1,0,0:0:0:0:
192,192,95599,1,0,0:0:0:0:
64,192,95724,1,0,0:0:0:0:
192,192,95849,1,0,0:0:0:0:
64,192,95974,1,0,0:0:0:0:
320,192,95974,1,0,0:0:0:0:
448,192,95974,1,0,0:0:0:0:
448,192,96099,1,0,0:0:0:0:
320,192,96224,1,0,0:0:0:0:
320,192,96349,1,0,0:0:0:0:
64,192,96474,1,0,0:0:0:0:
192,192,96474,1,0,0:0:0:0:
448,192,96474,1,0,0:0:0:0:
320,192,96599,1,0,0:0:0:0:
192,192,96724,1,0,0:0:0:0:
320,192,96849,1,0,0:0:0:0:
64,192,96974,1,0,0:0:0:0:
192,192,96974,1,0,0:0:0:0:
448,192,96974,1,0,0:0:0:0:
192,192,97099,1,0,0:0:0:0:
448,192,97099,1,0,0:0:0:0:
320,192,97224,1,0,0:0:0:0:
64,192,97349,128,0,97411:0:0:0:0:
192,192,97349,128,0,97411:0:0:0:0:
448,192,97349,128,0,97411:0:0:0:0:
320,192,97599,1,0,0:0:0:0:
448,192,97599,1,0,0:0:0:0:
64,192,97724,1,0,0:0:0:0:
192,192,97724,1,0,0:0:0:0:
320,192,97786,1,0,0:0:0:0:
448,192,97849,1,0,0:0:0:0:
192,192,97911,1,0,0:0:0:0:
64,192,97974,1,0,0:0:0:0:
320,192,97974,1,0,0:0:0:0:
448,192,97974,1,0,0:0:0:0:
320,192,98099,1,0,0:0:0:0:
192,192,98224,1,0,0:0:0:0:
192,192,98349,1,0,0:0:0:0:
64,192,98474,1,0,0:0:0:0:
320,192,98474,1,0,0:0:0:0:
448,192,98474,1,0,0:0:0:0:
448,192,98724,1,0,0:0:0:0:
448,192,98849,1,0,0:0:0:0:
64,192,98974,1,0,0:0:0:0:
192,192,98974,1,0,0:0:0:0:
448,192,98974,1,0,0:0:0:0:
320,192,99099,1,0,0:0:0:0:
192,192,99224,1,0,0:0:0:0:
192,192,99349,1,0,0:0:0:0:
64,192,99474,1,0,0:0:0:0:
320,192,99474,1,0,0:0:0:0:
448,192,99474,1,0,0:0:0:0:
448,192,99724,1,0,0:0:0:0:
448,192,99849,1,0,0:0:0:0:
64,192,99974,1,0,0:0:0:0:
192,192,99974,1,0,0:0:0:0:
448,192,99974,1,0,0:0:0:0:
320,192,100099,1,0,0:0:0:0:
192,192,100224,1,0,0:0:0:0:
192,192,100349,1,0,0:0:0:0:
64,192,100474,1,0,0:0:0:0:
320,192,100474,1,0,0:0:0:0:
448,192,100474,1,0,0:0:0:0:
448,192,100724,1,0,0:0:0:0:
448,192,100849,1,0,0:0:0:0:
64,192,100974,1,0,0:0:0:0:
320,192,100974,1,0,0:0:0:0:
448,192,100974,1,0,0:0:0:0:
320,192,101099,1,0,0:0:0:0:
192,192,101224,1,0,0:0:0:0:
192,192,101349,1,0,0:0:0:0:
64,192,101474,1,0,0:0:0:0:
320,192,101474,1,0,0:0:0:0:
448,192,101474,1,0,0:0:0:0:
448,192,101724,1,0,0:0:0:0:
320,192,101849,1,0,0:0:0:0:
64,192,101974,1,0,0:0:0:0:
192,192,101974,1,0,0:0:0:0:
448,192,101974,1,0,0:0:0:0:
320,192,102099,1,0,0:0:0:0:
192,192,102224,1,0,0:0:0:0:
192,192,102349,1,0,0:0:0:0:
64,192,102474,1,0,0:0:0:0:
320,192,102474,1,0,0:0:0:0:
448,192,102474,1,0,0:0:0:0:
448,192,102724,1,0,0:0:0:0:
448,192,102849,1,0,0:0:0:0:
64,192,102974,1,0,0:0:0:0:
192,192,102974,1,0,0:0:0:0:
448,192,102974,1,0,0:0:0:0:
320,192,103099,1,0,0:0:0:0:
192,192,103224,1,0,0:0:0:0:
192,192,103349,1,0,0:0:0:0:
64,192,103474,1,0,0:0:0:0:
320,192,103474,1,0,0:0:0:0:
448,192,103474,1,0,0:0:0:0:
448,192,103724,1,0,0:0:0:0:
448,192,103849,1,0,0:0:0:0:
64,192,103974,1,0,0:0:0:0:
192,192,103974,1,0,0:0:0:0:
448,192,103974,1,0,0:0:0:0:
320,192,104099,1,0,0:0:0:0:
192,192,104224,1,0,0:0:0:0:
192,192,104349,1,0,0:0:0:0:
64,192,104474,1,0,0:0:0:0:
320,192,104474,1,0,0:0:0:0:
448,192,104474,1,0,0:0:0:0:
448,192,104724,1,0,0:0:0:0:
448,192,104849,1,0,0:0:0:0:
64,192,104974,1,0,0:0:0:0:
320,192,104974,1,0,0:0:0:0:
448,192,104974,1,0,0:0:0:0:
320,192,105099,1,0,0:0:0:0:
192,192,105224,1,0,0:0:0:0:
192,192,105349,1,0,0:0:0:0:
64,192,105474,1,0,0:0:0:0:
320,192,105474,1,0,0:0:0:0:
448,192,105474,1,0,0:0:0:0:
192,192,105599,1,0,0:0:0:0:
448,192,105724,1,0,0:0:0:0:
448,192,105849,1,0,0:0:0:0:
64,192,105974,1,0,0:0:0:0:
192,192,105974,1,0,0:0:0:0:
448,192,105974,1,0,0:0:0:0:
320,192,106099,1,0,0:0:0:0:
192,192,106224,1,0,0:0:0:0:
192,192,106349,1,0,0:0:0:0:
64,192,106474,1,0,0:0:0:0:
320,192,106474,1,0,0:0:0:0:
448,192,106474,1,0,0:0:0:0:
448,192,106724,1,0,0:0:0:0:
448,192,106849,1,0,0:0:0:0:
64,192,106974,1,0,0:0:0:0:
192,192,106974,1,0,0:0:0:0:
448,192,106974,1,0,0:0:0:0:
320,192,107099,1,0,0:0:0:0:
192,192,107224,1,0,0:0:0:0:
192,192,107349,1,0,0:0:0:0:
64,192,107474,1,0,0:0:0:0:
320,192,107474,1,0,0:0:0:0:
448,192,107474,1,0,0:0:0:0:
448,192,107724,1,0,0:0:0:0:
448,192,107849,1,0,0:0:0:0:
64,192,107974,1,0,0:0:0:0:
192,192,107974,1,0,0:0:0:0:
448,192,107974,1,0,0:0:0:0:
320,192,108099,1,0,0:0:0:0:
192,192,108224,1,0,0:0:0:0:
192,192,108349,1,0,0:0:0:0:
64,192,108474,1,0,0:0:0:0:
320,192,108474,1,0,0:0:0:0:
448,192,108474,1,0,0:0:0:0:
448,192,108724,1,0,0:0:0:0:
448,192,108849,1,0,0:0:0:0:
64,192,108974,1,0,0:0:0:0:
320,192,108974,1,0,0:0:0:0:
448,192,108974,1,0,0:0:0:0:
320,192,109099,1,0,0:0:0:0:
192,192,109224,1,0,0:0:0:0:
192,192,109349,1,0,0:0:0:0:
64,192,109474,1,0,0:0:0:0:
320,192,109474,1,0,0:0:0:0:
448,192,109474,1,0,0:0:0:0:
448,192,109724,1,0,0:0:0:0:
320,192,109849,1,0,0:0:0:0:
64,192,109974,1,0,0:0:0:0:
192,192,109974,1,0,0:0:0:0:
448,192,109974,1,0,0:0:0:0:
320,192,110099,1,0,0:0:0:0:
192,192,110224,1,0,0:0:0:0:
192,192,110349,1,0,0:0:0:0:
64,192,110474,1,0,0:0:0:0:
320,192,110474,1,0,0:0:0:0:
448,192,110474,1,0,0:0:0:0:
448,192,110724,1,0,0:0:0:0:
448,192,110849,1,0,0:0:0:0:
64,192,110974,1,0,0:0:0:0:
192,192,110974,1,0,0:0:0:0:
448,192,110974,1,0,0:0:0:0:
320,192,111099,1,0,0:0:0:0:
192,192,111224,1,0,0:0:0:0:
192,192,111349,1,0,0:0:0:0:
64,192,111474,1,0,0:0:0:0:
320,192,111474,1,0,0:0:0:0:
448,192,111474,1,0,0:0:0:0:
448,192,111724,1,0,0:0:0:0:
448,192,111849,1,0,0:0:0:0:
64,192,111974,1,0,0:0:0:0:
192,192,111974,1,0,0:0:0:0:
448,192,111974,1,0,0:0:0:0:
320,192,112099,1,0,0:0:0:0:
192,192,112224,1,0,0:0:0:0:
192,192,112349,1,0,0:0:0:0:
64,192,112474,1,0,0:0:0:0:
320,192,112474,1,0,0:0:0:0:
448,192,112474,1,0,0:0:0:0:
448,192,112724,1,0,0:0:0:0:
448,192,112849,1,0,0:0:0:0:
64,192,112974,1,0,0:0:0:0:
320,192,112974,1,0,0:0:0:0:
448,192,112974,1,0,0:0:0:0:
320,192,113099,1,0,0:0:0:0:
64,192,113224,1,0,0:0:0:0:
192,192,113224,1,0,0:0:0:0:
192,192,113349,1,0,0:0:0:0:
64,192,113474,1,0,0:0:0:0:
320,192,113474,1,0,0:0:0:0:
448,192,113474,1,0,0:0:0:0:
320,192,113599,1,0,0:0:0:0:
448,192,113599,1,0,0:0:0:0:
64,192,113724,1,0,0:0:0:0:
192,192,113724,1,0,0:0:0:0:
64,192,113849,1,0,0:0:0:0:
192,192,113849,1,0,0:0:0:0:
64,192,113974,1,0,0:0:0:0:
448,192,113974,128,0,114099:0:0:0:0:
320,192,114099,1,0,0:0:0:0:
192,192,114349,128,0,114599:0:0:0:0:
320,192,114474,1,0,0:0:0:0:
448,192,114724,1,0,0:0:0:0:
448,192,114849,1,0,0:0:0:0:
448,192,114974,128,0,115099:0:0:0:0:
320,192,115099,1,0,0:0:0:0:
192,192,115349,128,0,115599:0:0:0:0:
320,192,115474,1,0,0:0:0:0:
448,192,115724,1,0,0:0:0:0:
448,192,115849,1,0,0:0:0:0:
448,192,115974,128,0,116099:0:0:0:0:
320,192,116099,1,0,0:0:0:0:
192,192,116349,128,0,116599:0:0:0:0:
320,192,116474,1,0,0:0:0:0:
448,192,116724,1,0,0:0:0:0:
448,192,116849,1,0,0:0:0:0:
64,192,116974,1,0,0:0:0:0:
192,192,117099,1,0,0:0:0:0:
448,192,117349,1,0,0:0:0:0:
192,192,117474,128,0,117599:0:0:0:0:
448,192,117599,1,0,0:0:0:0:
192,192,117724,128,0,117849:0:0:0:0:
320,192,117849,128,0,117974:0:0:0:0:
448,192,117974,128,0,118099:0:0:0:0:
320,192,118099,1,0,0:0:0:0:
192,192,118349,128,0,118599:0:0:0:0:
320,192,118474,1,0,0:0:0:0:
448,192,118724,1,0,0:0:0:0:
448,192,118849,1,0,0:0:0:0:
448,192,118974,128,0,119099:0:0:0:0:
320,192,119099,1,0,0:0:0:0:
192,192,119349,128,0,119599:0:0:0:0:
320,192,119474,1,0,0:0:0:0:
448,192,119724,1,0,0:0:0:0:
448,192,119849,1,0,0:0:0:0:
448,192,119974,128,0,120099:0:0:0:0:
320,192,120099,1,0,0:0:0:0:
192,192,120349,128,0,120599:0:0:0:0:
320,192,120474,1,0,0:0:0:0:
448,192,120724,1,0,0:0:0:0:
448,192,120849,1,0,0:0:0:0:
448,192,121099,1,0,0:0:0:0:
448,192,121349,1,0,0:0:0:0:
448,192,121599,1,0,0:0:0:0:
448,192,121849,1,0,0:0:0:0:
448,192,121974,1,0,0:0:0:0:
320,192,122099,1,0,0:0:0:0:
192,192,122349,1,0,0:0:0:0:
320,192,122474,1,0,0:0:0:0:
448,192,122724,1,0,0:0:0:0:
448,192,122849,1,0,0:0:0:0:
448,192,122974,1,0,0:0:0:0:
320,192,123099,1,0,0:0:0:0:
192,192,123349,1,0,0:0:0:0:
320,192,123474,1,0,0:0:0:0:
448,192,123724,1,0,0:0:0:0:
448,192,123849,1,0,0:0:0:0:
448,192,123974,1,0,0:0:0:0:
320,192,124099,1,0,0:0:0:0:
192,192,124349,1,0,0:0:0:0:
320,192,124474,1,0,0:0:0:0:
448,192,124724,1,0,0:0:0:0:
448,192,124849,1,0,0:0:0:0:
64,192,124974,1,0,0:0:0:0:
192,192,125099,1,0,0:0:0:0:
448,192,125349,1,0,0:0:0:0:
448,192,125599,1,0,0:0:0:0:
448,192,125849,1,0,0:0:0:0:
448,192,125974,1,0,0:0:0:0:
320,192,126099,1,0,0:0:0:0:
192,192,126224,1,0,0:0:0:0:
192,192,126349,1,0,0:0:0:0:
320,192,126474,1,0,0:0:0:0:
320,192,126599,1,0,0:0:0:0:
448,192,126724,1,0,0:0:0:0:
448,192,126849,1,0,0:0:0:0:
448,192,126974,1,0,0:0:0:0:
320,192,127099,1,0,0:0:0:0:
192,192,127224,1,0,0:0:0:0:
192,192,127349,1,0,0:0:0:0:
320,192,127474,1,0,0:0:0:0:
320,192,127599,1,0,0:0:0:0:
448,192,127724,1,0,0:0:0:0:
448,192,127849,1,0,0:0:0:0:
448,192,127974,1,0,0:0:0:0:
320,192,128099,1,0,0:0:0:0:
192,192,128224,1,0,0:0:0:0:
192,192,128349,1,0,0:0:0:0:
320,192,128474,1,0,0:0:0:0:
320,192,128599,1,0,0:0:0:0:
448,192,128724,1,0,0:0:0:0:
448,192,128849,1,0,0:0:0:0:
320,192,128974,1,0,0:0:0:0:
448,192,129099,128,0,129161:0:0:0:0:
448,192,129349,128,0,129411:0:0:0:0:
448,192,129599,128,0,129661:0:0:0:0:
448,192,129849,128,0,129911:0:0:0:0:
