osu file format v14

[General]
AudioFilename: audio.mp3
AudioLeadIn: 2000
PreviewTime: 204792
Countdown: 0
SampleSet: Soft
StackLeniency: 0.9
Mode: 0
LetterboxInBreaks: 0
WidescreenStoryboard: 1

[Editor]
Bookmarks: 150,3200,4342,23057,41434,50577,59720,64292,73434,82577,91720,100863,135577
DistanceSpacing: 0.8
BeatDivisor: 4
GridSize: 8
TimelineZoom: 1.5

[Metadata]
Title:Shounen Ripples
TitleUnicode:少年リップルズ
Artist:Yu Tokiwa
ArtistUnicode:常盤ゆう
Creator:Riana
Version:Dream
Source:jubeat ripples APPEND
Tags:japanese video game jrock j-rock rock 脇田潤 Jun Wakita wac 泉陸奥彦 Mutsuhiko Izumi 渡部正人 Watabe Masahito Asaki あさき EMOCTRO 音楽 Ongaku beatmania IIDX 30 RESIDENT BeatStream アニムトライヴ AnimTribe GITADORA plus jukebeat pop'n music 19 TUNE STREET REFLEC BEAT colette -Autumn- ポップンリズミン rhythmin shonen yuu soundtrack amamya shizuku- ayesha altugle shikibe mayu kazato asa kanui vikala toybot coloured glazee kowari
BeatmapID:4246897
BeatmapSetID:2036433

[Difficulty]
HPDrainRate:6
CircleSize:4
OverallDifficulty:9.5
ApproachRate:9.7
SliderMultiplier:1.92
SliderTickRate:1

[Events]
//Background and Video events
0,0,"bg.jpg",0,0
//Break Periods
2,153434,157783
2,224491,232797
//Storyboard Layer 0 (Background)
//Storyboard Layer 1 (Fail)
//Storyboard Layer 2 (Pass)
//Storyboard Layer 3 (Foreground)
//Storyboard Layer 4 (Overlay)
//Storyboard Sound Samples

[TimingPoints]
292,285.714285714286,4,2,1,50,1,0
4721,-133.333333333333,4,2,1,50,0,0
4863,-133.333333333333,4,2,1,60,0,0
9434,-133.333333333333,4,2,1,70,0,0
14006,-100,4,2,1,80,0,0
14863,-133.333333333333,4,2,1,80,0,0
16292,-100,4,2,1,80,0,0
18292,-133.333333333333,4,2,1,80,0,0
18577,-100,4,2,1,80,0,0
19434,-133.333333333333,4,2,1,80,0,0
20863,-100,4,2,1,80,0,0
21720,-133.333333333333,4,2,1,80,0,0
22863,-133.333333333333,4,2,1,80,0,0
23149,-133.333333333333,4,2,1,60,0,0
31864,-100,4,2,1,60,0,0
32292,-133.333333333333,4,2,1,70,0,0
33292,-100,4,2,1,70,0,0
33720,-133.333333333333,4,2,1,70,0,0
34577,-100,4,2,1,70,0,0
35007,-133.333333333333,4,2,1,70,0,0
36863,-100,4,2,1,70,0,0
38006,-133.333333333333,4,2,1,70,0,0
39149,-100,4,2,1,70,0,0
40293,-133.333333333333,4,2,1,70,0,0
41434,-100,4,2,1,60,0,0
50577,-133.333333333333,4,2,1,70,0,0
50863,-100,4,2,1,70,0,0
51720,-133.333333333333,4,2,1,70,0,0
52006,-100,4,2,1,70,0,0
52863,-133.333333333333,4,2,1,70,0,0
54577,-133.333333333333,4,2,1,70,0,0
55149,-100,4,2,1,70,0,0
56149,-133.333333333333,4,2,1,70,0,0
57291,-100,4,2,1,70,0,0
59720,-133.333333333333,4,2,1,80,0,0
64291,-133.333333333333,4,2,1,60,0,0
73434,-133.333333333333,4,2,1,70,0,0
74434,-100,4,2,1,70,0,0
74863,-133.333333333333,4,2,1,70,0,0
75720,-100,4,2,1,70,0,0
76149,-133.333333333333,4,2,1,70,0,0
78006,-100,4,2,1,70,0,0
79149,-133.333333333333,4,2,1,70,0,0
80292,-100,4,2,1,70,0,0
81435,-133.333333333333,4,2,1,70,0,0
82577,-100,4,2,1,60,0,0
91720,-133.333333333333,4,2,1,70,0,0
92006,-100,4,2,1,70,0,0
92863,-133.333333333333,4,2,1,70,0,0
93149,-100,4,2,1,70,0,0
94006,-133.333333333333,4,2,1,70,0,0
95149,-100,4,2,1,70,0,0
95720,-133.333333333333,4,2,1,70,0,0
96292,-100,4,2,1,70,0,0
97292,-133.333333333333,4,2,1,70,0,0
98434,-100,4,2,1,70,0,0
100863,-133.333333333333,4,2,1,80,0,0
105434,-1000,4,2,1,70,0,0
106577,-133.333333333333,4,2,1,70,0,0
106720,-100,4,2,1,70,0,0
107720,-86.9565217391304,4,2,1,90,0,1
108577,-133.333333333333,4,2,1,90,0,1
110006,-86.9565217391304,4,2,1,90,0,1
115006,-133.333333333333,4,2,1,90,0,1
115292,-86.9565217391304,4,2,1,90,0,1
117863,-133.333333333333,4,2,1,90,0,1
119149,-133.333333333333,4,2,5,90,0,1
119220,-133.333333333333,4,2,1,90,0,1
120149,-86.9565217391304,4,2,1,90,0,1
120577,-133.333333333333,4,2,1,90,0,1
123149,-86.9565217391304,4,2,1,90,0,1
123720,-133.333333333333,4,2,1,90,0,1
127149,-86.9565217391304,4,2,1,90,0,1
127577,-133.333333333333,4,2,1,90,0,1
132863,-86.9565217391304,4,2,1,90,0,1
137149,-133.333333333333,4,2,1,90,0,1
144292,-133.333333333333,4,2,1,60,0,0
146577,-133.333333333333,4,2,1,80,0,0
148863,-100,4,2,1,60,0,0
148934,-100,4,2,1,45,0,0
149434,-100,4,2,1,40,0,0
150006,-100,4,2,1,35,0,0
150292,-100,4,2,1,35,0,0
150577,-100,4,2,1,30,0,0
151149,-100,4,2,1,25,0,0
151720,-100,4,2,1,20,0,0
152292,-100,4,2,1,15,0,0
152863,-100,4,2,1,10,0,0
153149,-133.333333333333,4,2,1,10,0,0
153434,-133.333333333333,4,2,1,5,0,0
158292,-200,4,2,1,50,0,0
164863,-333.333333333333,4,2,1,50,0,0
167434,-200,4,2,1,50,0,0
171720,-333.333333333333,4,2,1,50,0,0
173434,-200,4,2,1,50,0,0
174006,-333.333333333333,4,2,1,50,0,0
175720,-200,4,2,1,50,0,0
176292,-133.333333333333,4,2,1,60,0,0
183720,-133.333333333333,4,2,1,65,0,0
184006,-133.333333333333,4,2,1,70,0,0
184292,-133.333333333333,4,2,1,80,0,0
184863,-133.333333333333,4,2,1,80,0,0
185434,-133.333333333333,4,2,1,90,0,0
194577,-133.333333333333,4,2,1,80,0,0
199149,-133.333333333333,4,2,1,90,0,0
203720,-133.333333333333,4,2,1,50,0,0
204863,-133.333333333333,4,2,1,80,0,0
205006,-100,4,2,1,80,0,0
206006,-86.9565217391304,4,2,1,80,0,1
206862,-133.333333333333,4,2,1,80,0,1
208291,-86.9565217391304,4,2,1,80,0,1
209292,-133.333333333333,4,2,1,80,0,1
209434,-86.9565217391304,4,2,1,80,0,1
213291,-133.333333333333,4,2,1,80,0,1
213577,-86.9565217391304,4,2,1,80,0,1
216148,-133.333333333333,4,2,1,80,0,1
217434,-133.333333333333,4,2,5,90,0,1
217506,-133.333333333333,4,2,1,90,0,1
218434,-86.9565217391304,4,2,1,90,0,1
218862,-133.333333333333,4,2,1,90,0,1
221434,-86.9565217391304,4,2,1,90,0,1
222005,-133.333333333333,4,2,1,90,0,1
224292,-133.333333333333,4,2,1,60,0,0
225434,-86.9565217391304,4,2,1,60,0,0
225862,-133.333333333333,4,2,1,60,0,0
231148,-86.9565217391304,4,2,1,60,0,0
233292,-86.9565217391304,4,2,1,70,0,0
233434,-133.333333333333,4,2,1,60,0,0
235434,-133.333333333333,4,2,1,60,0,0
238006,-133.333333333333,4,2,1,80,0,1
238077,-133.333333333333,4,2,1,50,0,1
238577,-133.333333333333,4,2,1,55,0,1
239149,-133.333333333333,4,2,1,60,0,1
239720,-133.333333333333,4,2,1,65,0,1
240292,-133.333333333333,4,2,1,70,0,1
240863,-133.333333333333,4,2,1,75,0,1
241292,-133.333333333333,4,2,1,80,0,1
242292,-133.333333333333,4,2,1,80,0,0
242577,-86.9565217391304,4,2,1,90,0,0
243149,-133.333333333333,4,2,1,90,0,0
245149,-86.9565217391304,4,2,1,90,0,0
246006,-133.333333333333,4,2,1,90,0,0
246292,-86.9565217391304,4,2,1,90,0,0
246863,-133.333333333333,4,2,1,90,0,0
247149,-133.333333333333,4,2,1,90,0,1
251434,-133.333333333333,4,2,1,90,0,0
251720,-133.333333333333,4,2,1,90,0,0
256292,-133.333333333333,4,2,1,90,0,1
260863,-133.333333333333,4,2,1,80,0,0
265434,-100,4,2,1,80,0,0
269434,-66.6666666666667,4,2,1,80,0,0
270005,-100,4,2,1,50,0,0
270577,-100,4,2,1,70,0,0
270863,-100,4,2,1,65,0,0
271149,-100,4,2,1,60,0,0
271434,-100,4,2,1,55,0,0
271720,-100,4,2,1,50,0,0
272006,-100,4,2,1,45,0,0
272292,-100,4,2,1,40,0,0
272577,-100,4,2,1,35,0,0
272862,-100,4,2,1,30,0,0
273149,-100,4,2,1,25,0,0
273434,-100,4,2,1,20,0,0
273720,-100,4,2,1,15,0,0
274006,-100,4,2,1,10,0,0
274291,-100,4,2,1,5,0,0

[Colours]
Combo1 : 255,128,128
Combo2 : 192,192,192
Combo3 : 128,128,255

[HitObjects]
77,224,4863,5,4,1:0:0:0:
77,224,5006,2,0,L|91:309,1,72.0000027465821,0|0,0:0|1:2,0:0:0:0:
160,165,5292,1,6,0:2:0:0:
160,165,5434,2,0,L|174:80,1,72.0000027465821,0|0,1:2|0:0,0:0:0:0:
240,260,5720,5,6,1:2:0:0:
240,260,5863,2,0,L|254:345,1,72.0000027465821,0|0,0:0|1:2,0:0:0:0:
330,144,6149,1,4,0:1:0:0:
330,144,6292,2,0,L|344:59,1,72.0000027465821,0|0,1:2|0:0,0:0:0:0:
392,292,6577,5,6,1:2:0:0:
392,292,6720,1,0,0:0:0:0:
491,110,6863,2,0,L|505:25,1,72.0000027465821,2|0,1:2|0:0,0:0:0:0:
461,227,7149,5,4,1:0:0:0:
461,227,7292,1,0,0:0:0:0:
461,227,7434,1,0,1:2:0:0:
336,247,7577,5,4,0:1:0:0:
336,247,7720,1,0,1:2:0:0:
336,247,7863,1,0,0:0:0:0:
211,269,8006,5,6,1:2:0:0:
211,269,8149,1,0,0:0:0:0:
211,269,8292,1,0,1:2:0:0:
86,289,8434,5,2,0:0:0:0:
86,289,8577,1,0,1:2:0:0:
86,289,8720,1,0,0:0:0:0:
271,143,8863,6,0,L|286:64,1,72.0000027465821,2|0,1:3|0:0,0:0:0:0:
112,0,9149,2,0,L|127:79,1,72.0000027465821,6|0,1:2|0:0,0:0:0:0:
313,364,9434,6,0,L|396:380,1,72.0000027465821,4|0,1:2|0:0,0:0:0:0:
483,237,9720,1,0,1:0:0:0:
204,261,9863,6,0,L|287:277,1,72.0000027465821,10|0,0:0|1:0,0:0:0:0:
376,173,10149,1,0,0:0:0:0:
85,159,10292,6,0,L|168:175,1,72.0000027465821,10|0,0:0|0:0,0:0:0:0:
260,113,10578,1,0,1:0:0:0:
363,60,10720,5,8,0:3:0:0:
363,60,10863,1,8,0:0:0:0:
363,60,11005,1,4,0:3:0:0:
255,1,11149,5,4,0:3:0:0:
255,1,11292,1,0,0:0:0:0:
255,1,11434,2,0,L|165:15,1,72.0000027465821,12|0,0:0|3:0,0:0:0:0:
9,86,11720,5,4,1:1:0:0:
39,170,11863,1,0,0:0:0:0:
97,98,12006,1,0,1:0:0:0:
269,247,12149,5,8,0:3:0:0:
291,114,12292,1,0,1:0:0:0:
165,159,12434,1,4,0:3:0:0:
379,135,12577,5,2,1:2:0:0:
512,303,12720,1,0,0:0:0:0:
294,328,12863,1,10,0:0:0:0:
217,43,13006,5,8,0:0:0:0:
369,221,13149,1,0,1:0:0:0:
138,273,13292,1,10,0:0:0:0:
239,176,13434,1,8,0:0:0:0:
227,343,13577,5,8,0:0:0:0:
227,343,13649,1,8,0:0:0:0:
227,343,13719,1,10,0:0:0:0:
477,116,13863,5,8,0:0:0:0:
477,116,13934,1,8,0:0:0:0:
477,116,14006,2,0,P|430:60|309:85,1,192,4|8,1:0|0:0,0:0:0:0:
248,260,14434,5,2,0:3:0:0:
386,150,14577,1,2,1:3:0:0:
208,58,14720,1,0,0:0:0:0:
421,331,14863,2,0,L|518:308,1,72.0000027465821,8|2,0:0|0:3,0:0:0:0:
346,275,15149,5,2,1:3:0:0:
229,150,15292,1,2,0:2:0:0:
229,150,15363,1,2,0:0:0:0:
229,150,15434,1,8,0:0:0:0:
163,329,15577,5,2,0:3:0:0:
116,112,15720,1,2,1:3:0:0:
116,112,15792,1,2,0:0:0:0:
116,112,15863,1,2,0:2:0:0:
7,15,16006,6,0,L|19:86,1,72.0000027465821,10|2,0:0|0:3,0:0:0:0:
328,23,16292,1,2,1:3:0:0:
204,247,16434,1,2,0:2:0:0:
204,247,16506,1,2,0:0:0:0:
204,247,16577,2,0,L|398:205,1,192,8|2,0:0|1:3,0:0:0:0:
512,2,17006,5,0,0:0:0:0:
308,136,17149,1,8,0:0:0:0:
494,206,17292,1,2,0:3:0:0:
494,206,17363,1,2,0:0:0:0:
494,206,17434,1,2,1:3:0:0:
494,206,17506,1,2,0:0:0:0:
494,206,17577,1,2,0:2:0:0:
194,334,17720,5,10,0:0:0:0:
290,50,17863,2,0,P|217:104|237:205,1,192,2|0,0:3|0:0,0:0:0:0:
391,206,18292,2,0,L|402:115,1,72.0000027465821,8|2,0:0|0:3,0:0:0:0:
37,290,18577,6,0,P|84:346|205:321,1,192,4|8,1:2|0:0,0:0:0:0:
309,155,19005,5,2,0:3:0:0:
131,265,19148,1,2,1:3:0:0:
290,377,19291,1,0,0:0:0:0:
147,70,19434,2,0,L|124:-27,1,72.0000027465821,8|2,0:0|0:3,0:0:0:0:
226,259,19720,5,2,1:3:0:0:
426,186,19863,1,2,0:2:0:0:
426,186,19934,1,2,0:0:0:0:
426,186,20005,1,8,0:0:0:0:
284,38,20148,5,2,0:3:0:0:
488,104,20291,1,2,1:3:0:0:
488,104,20363,1,2,0:0:0:0:
488,104,20434,1,2,0:2:0:0:
381,343,20577,6,0,L|369:272,1,72.0000027465821,10|2,0:0|0:3,0:0:0:0:
151,59,20863,1,2,1:3:0:0:
285,200,21005,1,2,0:2:0:0:
285,200,21077,1,2,0:0:0:0:
285,200,21149,2,0,L|91:242,1,192,8|2,0:0|1:3,0:0:0:0:
0,145,21577,5,0,0:0:0:0:
213,312,21720,2,0,L|204:384,1,72.0000027465821,8|2,0:0|0:3,0:0:0:0:
316,82,22006,5,2,1:3:0:0:
316,82,22149,1,8,0:0:0:0:
408,283,22292,5,8,0:0:0:0:
408,283,22434,1,0,1:0:0:0:
182,65,22577,5,8,0:0:0:0:
137,28,22648,1,8,0:2:0:0:
83,45,22719,1,8,0:2:0:0:
65,99,22791,1,8,0:2:0:0:
98,145,22862,1,8,0:2:0:0:
129,191,22934,1,8,0:2:0:0:
110,245,23006,1,8,0:2:0:0:
57,262,23077,1,8,0:2:0:0:
11,227,23148,1,4,1:0:0:0:
11,227,23434,6,0,L|167:210,1,144.000005493164,2|2,1:2|1:2,0:0:0:0:
243,169,23863,2,0,L|254:266,1,72.0000027465821,2|0,0:0|1:2,0:0:0:0:
334,191,24149,2,0,L|317:35,1,144.000005493164,2|0,0:0|3:0,0:0:0:0:
402,0,24577,2,0,L|410:71,1,72.0000027465821,2|0,1:2|0:0,0:0:0:0:
488,266,24863,2,0,L|325:281,1,144.000005493164,2|2,1:2|1:2,0:0:0:0:
112,37,25434,6,0,L|41:47,1,72.0000027465821,2|0,1:2|0:0,0:0:0:0:
11,145,25720,2,0,L|82:135,1,72.0000027465821,0|0,1:2|0:0,0:0:0:0:
53,233,26006,2,0,L|124:223,1,72.0000027465821,0|2,1:2|0:0,0:0:0:0:
252,295,26292,1,2,1:2:0:0:
252,295,26434,2,0,L|88:315,1,144.000005493164,2|0,0:0|0:0,0:0:0:0:
250,382,26863,2,0,L|344:372,1,72.0000027465821,0|0,1:2|0:0,0:0:0:0:
449,228,27149,2,0,L|434:71,1,144.000005493164,2|2,1:2|1:2,0:0:0:0:
154,46,27720,6,0,L|162:131,1,72.0000027465821,2|0,1:2|0:0,0:0:0:0:
244,89,28006,2,0,L|256:183,1,72.0000027465821,0|0,1:2|0:0,0:0:0:0:
320,25,28292,2,0,L|331:97,1,72.0000027465821,0|0,1:2|0:0,0:0:0:0:
344,192,28577,1,2,1:2:0:0:
344,192,28720,2,0,L|366:338,1,144.000005493164,2|0,0:0|3:0,0:0:0:0:
445,282,29149,2,0,L|430:186,1,72.0000027465821,0|0,1:2|0:0,0:0:0:0:
222,326,29434,2,0,L|65:344,1,144.000005493164,2|2,1:2|1:2,0:0:0:0:
399,37,30006,6,0,L|471:47,1,72.0000027465821,2|0,1:2|0:0,0:0:0:0:
501,145,30292,2,0,L|429:135,1,72.0000027465821,0|0,1:2|0:0,0:0:0:0:
459,233,30578,2,0,L|387:223,1,72.0000027465821,0|2,1:2|0:0,0:0:0:0:
260,295,30864,1,2,1:2:0:0:
260,295,31006,2,0,L|424:315,1,144.000005493164,2|2,0:0|0:0,0:0:0:0:
262,382,31435,2,0,L|168:372,1,72.0000027465821,8|2,0:0|0:0,0:0:0:0:
21,259,31720,5,8,0:0:0:0:
102,247,31863,1,8,0:0:0:0:
183,233,32006,1,8,0:0:0:0:
370,120,32149,5,8,0:0:0:0:
370,120,32220,1,8,0:0:0:0:
370,120,32292,1,4,1:0:0:0:
500,265,32577,6,0,L|410:253,1,72.0000027465821,10|0,0:2|0:0,0:0:0:0:
48,181,32863,5,2,1:2:0:0:
245,145,33006,1,2,0:0:0:0:
175,335,33148,1,8,0:2:0:0:
464,139,33292,6,0,P|403:219|310:196,1,192,2|0,0:0|0:0,0:0:0:0:
166,72,33720,2,0,L|178:-25,1,72.0000027465821,10|0,0:2|0:0,0:0:0:0:
355,0,34006,5,2,1:2:0:0:
500,38,34149,1,0,0:0:0:0:
228,177,34291,5,10,0:2:0:0:
375,130,34434,1,0,0:0:0:0:
512,340,34577,6,0,L|307:297,1,192,2|8,1:2|0:2,0:0:0:0:
144,156,35006,1,0,3:0:0:0:
144,156,35077,1,0,3:0:0:0:
144,156,35149,5,2,1:2:0:0:
342,37,35291,1,2,0:0:0:0:
70,25,35434,1,10,0:2:0:0:
428,165,35577,1,2,0:0:0:0:
149,66,35720,5,0,1:2:0:0:
343,124,35863,1,0,0:0:0:0:
247,94,36006,1,8,0:2:0:0:
247,94,36149,1,2,0:0:0:0:
353,217,36291,6,0,P|362:269|371:321,1,72.0000027465821,2|2,1:2|0:0,0:0:0:0:
143,384,36577,2,0,P|134:332|125:280,1,72.0000027465821,10|0,0:2|0:0,0:0:0:0:
5,139,36863,6,0,L|210:96,1,192,2|8,1:2|0:2,0:0:0:0:
474,145,37292,1,0,3:0:0:0:
474,145,37363,1,0,3:0:0:0:
474,145,37435,5,2,1:2:0:0:
222,277,37577,1,2,0:0:0:0:
383,117,37720,1,10,0:2:0:0:
150,20,37863,1,2,0:0:0:0:
320,190,38006,6,0,P|246:178|219:175,1,72.0000027465821,0|0,1:2|0:0,0:0:0:0:
89,360,38292,2,0,P|163:348|190:345,1,72.0000027465821,8|0,0:2|0:0,0:0:0:0:
257,6,38577,5,2,1:2:0:0:
427,42,38720,1,0,0:0:0:0:
126,162,38863,5,10,0:2:0:0:
287,124,39006,1,0,0:0:0:0:
472,290,39149,6,0,L|267:247,1,192,2|8,1:2|0:2,0:0:0:0:
205,118,39578,1,0,3:0:0:0:
205,118,39649,1,0,3:0:0:0:
205,118,39721,5,0,1:2:0:0:
171,294,39863,1,2,0:0:0:0:
60,60,40006,1,10,0:2:0:0:
320,341,40149,1,2,0:0:0:0:
83,160,40292,5,0,1:2:0:0:
285,250,40435,1,2,0:0:0:0:
187,202,40578,1,10,0:2:0:0:
187,202,40721,1,2,0:0:0:0:
386,204,40863,6,0,P|395:152|404:100,1,72.0000027465821,2|0,1:2|0:0,0:0:0:0:
177,77,41149,2,0,P|168:25|159:-27,1,72.0000027465821,10|8,0:2|0:0,0:0:0:0:
30,295,41434,6,0,P|111:282|147:276,1,96,2|0,1:2|0:0,0:0:0:0:
315,115,41720,1,2,1:2:0:0:
195,367,41863,1,8,0:3:0:0:
144,184,42006,6,0,P|185:190|260:199,1,96,2|4,1:2|0:3,0:0:0:0:
429,274,42292,1,2,1:2:0:0:
313,134,42435,1,2,0:0:0:0:
389,353,42577,6,0,P|321:362|281:366,1,96,2|8,1:3|0:3,0:0:0:0:
247,283,42863,1,2,1:2:0:0:
195,367,43006,1,4,0:3:0:0:
149,282,43149,1,2,1:2:0:0:
102,364,43291,1,2,0:0:0:0:
52,280,43434,1,12,0:0:0:0:
0,364,43577,1,0,0:0:0:0:
265,0,43720,6,0,P|252:81|228:225,1,192,4|2,1:0|1:2,0:0:0:0:
43,129,44149,1,8,0:3:0:0:
302,262,44291,6,0,P|309:309|316:356,1,96,2|4,1:2|0:3,0:0:0:0:
195,367,44577,1,2,1:2:0:0:
195,367,44720,1,2,0:0:0:0:
122,106,44863,6,0,P|190:115|230:119,1,96,2|8,1:2|0:3,0:0:0:0:
259,30,45149,1,2,1:2:0:0:
318,109,45292,1,4,0:3:0:0:
355,15,45435,1,2,1:2:0:0:
413,95,45577,1,2,0:0:0:0:
451,8,45720,1,12,0:0:0:0:
508,77,45863,1,0,0:0:0:0:
37,242,46006,6,0,P|118:229|154:223,1,96,4|0,1:0|0:0,0:0:0:0:
318,107,46292,1,2,1:2:0:0:
203,335,46435,1,8,0:3:0:0:
138,127,46578,6,0,P|179:133|254:142,1,96,2|4,1:2|0:3,0:0:0:0:
463,227,46864,1,2,1:2:0:0:
331,104,47007,1,2,0:0:0:0:
455,360,47149,6,0,P|387:351|347:347,1,96,2|8,1:2|0:3,0:0:0:0:
317,258,47435,1,2,1:2:0:0:
267,334,47578,1,4,0:3:0:0:
221,248,47721,1,2,1:2:0:0:
170,328,47863,1,2,0:0:0:0:
126,236,48006,1,12,0:0:0:0:
76,315,48149,1,0,0:0:0:0:
155,66,48292,5,4,1:0:0:0:
358,198,48434,1,0,3:0:0:0:
358,198,48506,1,0,3:0:0:0:
358,198,48577,1,2,1:2:0:0:
202,149,48720,5,8,0:3:0:0:
424,19,48863,1,0,1:0:0:0:
424,19,48934,1,0,1:3:0:0:
424,19,49006,1,2,0:0:0:0:
248,65,49149,5,14,0:0:0:0:
512,285,49291,2,0,P|434:270|381:261,1,96,2|4,0:0|1:0,0:0:0:0:
324,0,49577,5,8,0:0:0:0:
20,183,49719,2,0,P|98:168|151:159,1,96,2|8,1:3|0:0,0:0:0:0:
289,212,50006,5,2,1:3:0:0:
176,1,50149,1,0,1:0:0:0:
71,293,50292,5,10,0:0:0:0:
119,301,50363,1,8,0:0:0:0:
166,310,50434,1,8,0:0:0:0:
213,319,50506,1,8,0:0:0:0:
260,328,50577,2,0,L|348:313,1,72.0000027465821,4|0,1:0|0:0,0:0:0:0:
474,143,50863,6,0,P|499:70|402:7,1,192,10|2,0:2|1:2,0:0:0:0:
154,104,51291,1,2,1:2:0:0:
154,104,51363,1,0,1:0:0:0:
154,104,51434,1,8,0:2:0:0:
420,5,51577,1,2,0:0:0:0:
244,129,51720,6,0,L|257:218,1,72.0000027465821,0|0,1:2|0:0,0:0:0:0:
76,290,52006,2,0,P|153:367|239:344,1,192,8|2,0:2|1:2,0:0:0:0:
431,77,52434,1,2,1:2:0:0:
121,196,52577,1,8,0:2:0:0:
431,77,52720,5,4,1:0:0:0:
431,77,52791,1,2,0:0:0:0:
431,77,52863,2,0,L|448:-10,1,72.0000027465821,2|0,0:0|1:2,0:0:0:0:
213,172,53149,2,0,L|230:85,1,72.0000027465821,10|0,0:2|0:0,0:0:0:0:
303,215,53434,1,2,1:2:0:0:
0,289,53577,1,2,0:2:0:0:
0,289,53649,1,2,0:0:0:0:
0,289,53720,1,8,0:2:0:0:
303,215,53863,1,2,0:0:0:0:
144,54,54006,6,0,L|115:226,1,144.000005493164,0|8,1:2|0:2,0:0:0:0:
274,313,54434,1,0,0:0:0:0:
451,162,54577,2,0,L|363:147,1,72.0000027465821,2|0,1:2|0:0,0:0:0:0:
202,369,54863,2,0,L|114:354,1,72.0000027465821,10|0,0:2|0:0,0:0:0:0:
38,154,55149,6,0,P|121:76|206:134,1,192,4|10,1:0|0:2,0:0:0:0:
367,38,55577,1,0,0:0:0:0:
233,234,55720,1,2,1:2:0:0:
150,0,55863,1,2,1:2:0:0:
150,0,55934,1,0,1:0:0:0:
150,0,56006,1,8,0:2:0:0:
233,234,56149,1,2,0:0:0:0:
394,170,56291,6,0,L|297:155,1,72.0000027465821,0|0,1:2|0:0,0:0:0:0:
432,321,56577,2,0,L|529:306,1,72.0000027465821,10|0,0:2|0:0,0:0:0:0:
291,38,56863,5,2,1:2:0:0:
209,353,57006,1,2,1:2:0:0:
291,38,57149,1,8,0:2:0:0:
460,203,57291,6,0,P|390:227|309:142,1,192,4|0,1:0|1:2,0:0:0:0:
78,19,57720,1,8,0:2:0:0:
311,154,57863,1,0,0:0:0:0:
152,246,58006,2,0,L|246:228,1,96,2|0,1:2|0:0,0:0:0:0:
423,372,58291,5,10,0:2:0:0:
489,278,58434,2,0,L|395:261,1,96,2|0,0:0|1:2,0:0:0:0:
78,19,58720,5,2,1:2:0:0:
11,111,58863,2,0,L|106:129,1,96,10|0,0:2|0:0,0:0:0:0:
300,51,59149,5,2,1:2:0:0:
347,43,59220,1,8,0:2:0:0:
394,36,59291,1,8,0:2:0:0:
442,28,59363,1,8,0:2:0:0:
489,21,59434,1,10,0:2:0:0:
22,307,59720,5,14,0:0:0:0:
119,337,59863,1,2,0:0:0:0:
176,255,60006,1,0,1:0:0:0:
512,238,60149,5,10,0:0:0:0:
415,268,60292,1,2,1:2:0:0:
358,186,60435,1,0,0:0:0:0:
84,218,60577,5,10,0:0:0:0:
158,148,60720,1,10,0:0:0:0:
115,58,60863,1,0,1:0:0:0:
453,160,61006,5,12,0:0:0:0:
379,90,61149,1,12,0:0:0:0:
422,0,61292,1,0,1:0:0:0:
257,384,61435,6,0,L|254:289,1,72.0000027465821,12|8,0:0|0:0,0:0:0:0:
331,8,61720,1,12,0:0:0:0:
116,145,61863,1,0,0:0:0:0:
332,274,62006,5,14,0:0:0:0:
162,362,62149,2,0,L|65:343,1,72.0000027465821,10|0,0:0|1:0,0:0:0:0:
211,162,62434,1,14,0:0:0:0:
416,251,62577,2,0,L|513:232,1,72.0000027465821,14|0,0:0|0:0,0:0:0:0:
292,84,62863,5,14,0:0:0:0:
115,199,63006,2,0,L|18:180,1,72.0000027465821,14|0,0:0|0:0,0:0:0:0:
223,23,63291,1,8,0:0:0:0:
442,105,63435,2,0,L|539:86,1,72.0000027465821,8|8,0:0|0:3,0:0:0:0:
309,0,63720,5,8,0:0:0:0:
196,228,63863,1,8,0:0:0:0:
290,306,64006,1,10,0:0:0:0:
230,384,64149,1,2,0:0:0:0:
230,384,64220,1,2,0:0:0:0:
230,384,64292,1,4,1:0:0:0:
512,175,64577,6,0,L|356:158,1,144.000005493164,2|2,1:2|1:3,0:0:0:0:
90,128,65006,2,0,L|79:225,1,72.0000027465821,2|0,0:3|1:2,0:0:0:0:
171,247,65292,2,0,L|188:91,1,144.000005493164,8|0,0:3|0:0,0:0:0:0:
281,53,65720,2,0,L|273:124,1,72.0000027465821,2|0,1:3|0:0,0:0:0:0:
83,332,66006,2,0,L|246:347,1,144.000005493164,2|2,1:2|1:2,0:0:0:0:
226,345,66434,1,4,0:3:0:0:
368,159,66577,6,0,L|439:169,1,72.0000027465821,6|0,1:2|0:0,0:0:0:0:
325,256,66863,2,0,L|254:246,1,72.0000027465821,0|0,1:2|0:0,0:0:0:0:
216,98,67149,2,0,L|145:88,1,72.0000027465821,2|2,1:3|0:3,0:0:0:0:
0,153,67435,1,2,1:2:0:0:
0,153,67577,2,0,L|165:176,1,144.000005493164,8|0,0:3|0:0,0:0:0:0:
379,370,68006,2,0,L|284:354,1,72.0000027465821,2|0,1:3|0:0,0:0:0:0:
472,282,68292,2,0,L|491:124,1,144.000005493164,2|2,1:2|1:2,0:0:0:0:
489,139,68720,1,8,0:3:0:0:
358,46,68863,6,0,L|350:131,1,72.0000027465821,6|0,1:2|0:0,0:0:0:0:
234,137,69149,2,0,L|222:231,1,72.0000027465821,0|0,1:2|0:0,0:0:0:0:
159,49,69435,2,0,L|148:121,1,72.0000027465821,2|2,1:3|0:3,0:0:0:0:
341,242,69720,1,2,1:2:0:0:
341,242,69863,2,0,L|319:388,1,144.000005493164,8|0,0:3|0:0,0:0:0:0:
473,209,70292,2,0,L|495:113,1,72.0000027465821,2|0,1:3|0:0,0:0:0:0:
231,350,70577,2,0,L|76:322,1,144.000005493164,2|2,1:2|1:2,0:0:0:0:
89,324,71006,1,4,0:3:0:0:
30,180,71149,6,0,L|40:108,1,72.0000027465821,6|0,1:2|0:0,0:0:0:0:
150,44,71435,2,0,L|140:116,1,72.0000027465821,2|0,1:3|0:0,0:0:0:0:
266,151,71721,2,0,L|256:223,1,72.0000027465821,0|4,1:2|0:3,0:0:0:0:
467,373,72007,1,2,1:2:0:0:
467,373,72149,2,0,L|303:353,1,144.000005493164,8|10,0:3|0:0,0:0:0:0:
100,219,72578,2,0,L|194:229,1,72.0000027465821,0|10,1:2|0:0,0:0:0:0:
223,47,72863,5,8,0:0:0:0:
502,136,73006,1,8,0:0:0:0:
223,47,73149,1,8,0:0:0:0:
363,98,73292,5,8,0:0:0:0:
363,98,73363,1,8,0:0:0:0:
363,98,73434,2,0,P|365:133|369:198,1,72.0000027465821,4|0,1:0|0:0,0:0:0:0:
143,335,73720,2,0,L|233:323,1,72.0000027465821,10|0,0:0|0:0,0:0:0:0:
460,218,74006,5,2,1:2:0:0:
265,133,74149,1,2,0:0:0:0:
436,15,74291,1,8,0:2:0:0:
102,37,74434,6,0,P|22:98|45:191,1,192,2|0,0:0|0:0,0:0:0:0:
126,220,74863,2,0,L|224:204,1,72.0000027465821,10|0,0:2|0:0,0:0:0:0:
456,130,75149,5,2,1:2:0:0:
394,255,75292,1,0,0:0:0:0:
214,1,75434,5,10,0:2:0:0:
265,133,75577,1,0,0:0:0:0:
66,321,75720,6,0,L|271:278,1,192,2|8,1:2|0:2,0:0:0:0:
345,194,76149,1,0,3:0:0:0:
345,194,76220,1,0,3:0:0:0:
345,194,76292,5,2,1:2:0:0:
142,144,76434,1,2,0:0:0:0:
438,69,76577,1,10,0:2:0:0:
88,8,76720,1,2,0:0:0:0:
348,101,76863,5,0,1:2:0:0:
164,233,77006,1,2,0:0:0:0:
341,283,77149,1,10,0:2:0:0:
199,384,77292,1,2,0:0:0:0:
59,237,77434,6,0,P|50:185|41:133,1,72.0000027465821,2|0,1:2|0:0,0:0:0:0:
453,237,77720,2,0,P|462:185|471:133,1,72.0000027465821,10|0,0:2|0:0,0:0:0:0:
346,99,78006,6,0,P|291:38|183:53,1,192,6|8,1:2|0:2,0:0:0:0:
25,192,78435,1,0,3:0:0:0:
25,192,78506,1,0,3:0:0:0:
25,192,78578,5,2,1:2:0:0:
253,313,78720,1,2,0:0:0:0:
99,132,78863,1,10,0:2:0:0:
282,0,79006,1,2,0:0:0:0:
206,225,79149,6,0,P|280:213|307:210,1,72.0000027465821,0|0,1:2|0:0,0:0:0:0:
423,360,79434,2,0,P|349:348|322:345,1,72.0000027465821,8|0,0:2|0:0,0:0:0:0:
443,244,79720,5,2,1:2:0:0:
477,142,79863,1,0,0:0:0:0:
217,111,80006,5,10,0:2:0:0:
182,0,80149,1,0,0:0:0:0:
18,280,80292,6,0,P|80:201|177:233,1,192,2|8,1:2|0:2,0:0:0:0:
307,118,80721,1,0,3:0:0:0:
307,118,80792,1,0,3:0:0:0:
307,118,80864,5,0,1:2:0:0:
341,294,81006,1,2,0:0:0:0:
452,60,81149,1,10,0:2:0:0:
504,327,81292,1,2,3:2:0:0:
397,139,81435,5,0,1:2:0:0:
263,352,81578,1,2,0:0:0:0:
223,162,81720,1,10,0:2:0:0:
140,304,81864,1,2,0:0:0:0:
12,258,82006,6,0,P|3:206|-6:154,1,72.0000027465821,2|0,1:2|0:0,0:0:0:0:
344,89,82292,2,0,P|353:37|362:-15,1,72.0000027465821,8|8,0:2|0:0,0:0:0:0:
251,384,82577,6,0,P|238:303|232:267,1,96,4|0,1:0|0:0,0:0:0:0:
24,58,82863,1,2,1:2:0:0:
309,200,83006,1,8,0:3:0:0:
136,283,83149,6,0,P|142:242|151:167,1,96,2|4,1:2|0:3,0:0:0:0:
284,10,83434,1,2,1:2:0:0:
104,93,83578,1,2,0:0:0:0:
249,101,83720,6,0,P|317:92|357:88,1,96,2|8,1:2|0:3,0:0:0:0:
428,38,84006,1,2,1:2:0:0:
512,90,84149,1,4,0:3:0:0:
427,136,84292,1,2,1:2:0:0:
509,183,84434,1,2,0:0:0:0:
425,233,84577,1,12,0:0:0:0:
509,285,84720,1,0,0:0:0:0:
5,211,84863,6,0,P|86:198|230:174,1,192,4|2,1:0|1:2,0:0:0:0:
451,0,85292,1,8,0:3:0:0:
158,42,85434,6,0,P|198:48|270:60,1,96,2|4,1:2|0:3,0:0:0:0:
427,136,85720,1,2,1:2:0:0:
427,136,85863,1,2,0:0:0:0:
265,291,86006,6,0,P|197:300|157:304,1,96,2|8,1:2|0:3,0:0:0:0:
86,354,86292,1,2,1:2:0:0:
2,302,86435,1,4,0:3:0:0:
87,256,86578,1,2,1:2:0:0:
5,209,86720,1,2,0:0:0:0:
89,159,86863,1,12,0:0:0:0:
5,107,87006,1,0,0:0:0:0:
461,227,87149,6,0,P|380:214|344:208,1,96,4|0,1:0|0:0,0:0:0:0:
147,70,87434,1,2,1:2:0:0:
295,320,87578,1,8,0:3:0:0:
360,112,87721,6,0,P|319:118|244:127,1,96,2|4,1:2|0:3,0:0:0:0:
87,256,88007,1,2,1:2:0:0:
167,89,88150,1,2,0:0:0:0:
295,320,88292,6,0,P|363:311|403:307,1,96,0|8,1:2|0:3,0:0:0:0:
478,260,88578,1,2,1:2:0:0:
393,208,88721,1,4,0:3:0:0:
481,164,88864,1,2,1:2:0:0:
398,114,89006,1,2,0:0:0:0:
486,65,89149,1,12,0:0:0:0:
402,13,89292,1,0,0:0:0:0:
122,34,89434,5,4,1:0:0:0:
254,237,89577,1,0,3:0:0:0:
254,237,89649,1,0,3:0:0:0:
254,237,89720,1,2,1:2:0:0:
205,81,89863,5,8,0:3:0:0:
75,303,90006,1,0,1:0:0:0:
75,303,90077,1,0,1:3:0:0:
75,303,90149,1,2,0:0:0:0:
291,117,90292,5,14,0:0:0:0:
3,1,90434,2,0,P|17:79|26:132,1,96,2|4,0:0|1:0,0:0:0:0:
164,177,90720,1,8,0:0:0:0:
452,61,90863,2,0,P|438:139|429:192,1,96,0|8,1:3|0:0,0:0:0:0:
254,201,91149,5,2,1:3:0:0:
110,86,91292,1,0,0:0:0:0:
441,293,91435,5,10,0:0:0:0:
393,301,91506,1,8,0:0:0:0:
346,310,91577,1,8,0:0:0:0:
299,319,91649,1,8,0:0:0:0:
252,328,91720,2,0,L|168:314,1,72.0000027465821,4|0,1:0|0:0,0:0:0:0:
0,154,92006,6,0,P|125:131|208:116,1,192,10|2,0:2|1:2,0:0:0:0:
417,0,92434,1,2,1:2:0:0:
417,0,92506,1,0,1:0:0:0:
417,0,92577,1,8,0:2:0:0:
188,119,92720,1,2,0:0:0:0:
369,97,92863,6,0,L|458:110,1,72.0000027465821,0|0,1:2|0:0,0:0:0:0:
426,368,93149,2,0,P|503:296|461:196,1,192,8|2,0:2|1:2,0:0:0:0:
81,77,93577,1,2,1:2:0:0:
391,196,93720,1,8,0:2:0:0:
81,77,93863,5,4,1:0:0:0:
81,77,93934,1,2,0:0:0:0:
81,77,94006,2,0,L|64:-10,1,72.0000027465821,2|0,0:0|1:2,0:0:0:0:
299,172,94292,2,0,L|282:85,1,72.0000027465821,10|0,0:2|0:0,0:0:0:0:
323,281,94577,1,2,1:2:0:0:
194,48,94720,1,2,0:2:0:0:
194,48,94792,1,2,0:0:0:0:
194,48,94863,1,8,0:2:0:0:
323,281,95006,1,2,0:0:0:0:
102,353,95149,6,0,P|31:289|51:199,1,192,0|8,1:2|0:2,0:0:0:0:
204,311,95577,1,0,0:0:0:0:
368,201,95720,2,0,L|456:216,1,72.0000027465821,2|0,1:2|0:0,0:0:0:0:
284,368,96006,2,0,L|372:383,1,72.0000027465821,10|0,0:2|0:0,0:0:0:0:
498,124,96292,6,0,P|455:69|336:100,1,192,4|10,1:0|0:2,0:0:0:0:
122,260,96720,1,0,0:0:0:0:
367,203,96863,1,2,1:2:0:0:
54,121,97006,1,2,1:2:0:0:
54,121,97077,1,0,1:0:0:0:
54,121,97149,1,8,0:2:0:0:
367,203,97292,1,2,0:0:0:0:
162,342,97434,6,0,L|259:327,1,72.0000027465821,0|0,1:2|0:0,0:0:0:0:
474,135,97720,2,0,L|377:120,1,72.0000027465821,10|0,0:2|0:0,0:0:0:0:
221,38,98006,5,2,1:2:0:0:
328,267,98149,1,2,1:2:0:0:
221,38,98292,1,8,0:2:0:0:
50,218,98434,6,0,P|121:231|202:146,1,192,4|0,1:0|1:2,0:0:0:0:
404,29,98863,1,8,0:2:0:0:
201,154,99006,1,0,0:0:0:0:
302,352,99149,2,0,L|320:258,1,96,2|0,1:2|0:0,0:0:0:0:
144,34,99434,5,10,0:2:0:0:
78,220,99577,2,0,L|58:109,1,96,2|0,0:0|1:2,0:0:0:0:
376,301,99863,5,2,1:2:0:0:
451,123,100006,2,0,L|471:234,1,96,10|0,0:2|0:0,0:0:0:0:
57,330,100292,5,2,1:2:0:0:
104,322,100363,1,8,0:2:0:0:
151,315,100434,1,8,0:2:0:0:
199,307,100506,1,8,0:2:0:0:
246,300,100577,1,10,0:2:0:0:
448,354,100863,5,14,0:0:0:0:
351,384,101006,1,8,0:0:0:0:
351,384,101149,1,0,1:0:0:0:
65,202,101292,5,10,0:0:0:0:
162,232,101435,1,2,1:2:0:0:
162,232,101578,1,0,0:0:0:0:
407,147,101720,5,10,0:0:0:0:
310,177,101863,1,2,0:0:0:0:
310,177,102006,1,0,1:0:0:0:
115,41,102149,5,12,0:0:0:0:
212,71,102292,1,12,0:0:0:0:
212,71,102435,1,2,0:0:0:0:
256,384,102578,6,0,L|256:289,1,72.0000027465821,12|0,0:0|1:0,0:0:0:0:
257,0,102863,1,14,0:0:0:0:
257,0,103006,1,2,1:2:0:0:
188,270,103149,5,10,0:0:0:0:
429,173,103292,2,0,L|526:154,1,72.0000027465821,10|2,0:0|1:2,0:0:0:0:
323,271,103577,1,14,0:0:0:0:
80,177,103720,2,0,L|-17:158,1,72.0000027465821,14|2,0:0|0:0,0:0:0:0:
337,74,104006,5,14,0:0:0:0:
70,268,104149,2,0,L|0:282,1,72.0000027465821,14|0,0:0|1:0,0:0:0:0:
176,79,104434,1,14,0:0:0:0:
442,277,104578,2,0,L|513:291,1,72.0000027465821,14|2,0:0|0:0,0:0:0:0:
255,192,104863,5,14,0:0:0:0:
255,192,105006,1,2,0:0:0:0:
254,0,105149,1,6,1:2:0:0:
36,172,105292,5,8,0:0:0:0:
36,172,105363,1,8,0:0:0:0:
36,172,105434,2,0,L|103:159,1,67.2,4|2,1:0|0:0,0:0:0:0:
409,206,106577,6,0,L|399:264,1,36.0000013732911,0|4,1:0|0:3,0:0:0:0:
498,261,106720,1,4,0:3:0:0:
456,316,106791,1,4,0:3:0:0:
388,329,106862,1,0,1:0:0:0:
327,297,106934,1,8,0:3:0:0:
301,231,107005,1,8,0:3:0:0:
322,167,107077,1,8,0:3:0:0:
381,130,107148,1,8,0:0:0:0:
108,261,107292,5,8,0:0:0:0:
104,237,107363,1,8,0:0:0:0:
99,213,107434,1,8,0:0:0:0:
301,82,107577,5,8,0:0:0:0:
118,0,107720,2,0,P|26:53|13:158,1,220.800004211426,6|10,1:0|0:2,0:0:0:0:
358,310,108149,5,2,0:0:0:0:
469,104,108292,1,2,1:2:0:0:
233,0,108434,1,2,0:2:0:0:
313,152,108577,2,0,P|306:205|300:247,1,72.0000027465821,10|0,0:2|0:0,0:0:0:0:
0,384,108863,5,2,1:2:0:0:
358,310,109006,1,2,0:2:0:0:
164,229,109149,1,8,0:2:0:0:
233,0,109292,1,2,0:2:0:0:
85,179,109434,1,2,1:2:0:0:
238,279,109577,1,0,0:0:0:0:
153,384,109720,2,0,P|148:348|144:312,1,72.0000027465821,10|0,0:2|0:0,0:0:0:0:
406,377,110006,6,0,P|494:347|473:215,1,220.800004211426,6|10,1:2|0:2,0:0:0:0:
418,31,110434,1,2,0:2:0:0:
327,322,110577,1,2,1:2:0:0:
230,118,110720,1,2,0:2:0:0:
136,268,110863,2,0,L|28:286,1,110.400002105713,10|2,0:2|0:2,0:0:0:0:
24,384,111149,5,2,1:2:0:0:
154,173,111292,1,2,0:2:0:0:
307,232,111434,1,8,0:2:0:0:
418,31,111577,1,2,0:2:0:0:
418,31,111649,1,2,0:0:0:0:
418,31,111720,2,0,L|301:50,1,110.400002105713,2|0,1:2|0:0,0:0:0:0:
128,286,112006,2,0,L|245:305,1,110.400002105713,10|0,0:2|0:0,0:0:0:0:
11,13,112292,5,4,1:0:0:0:
310,150,112434,1,0,0:0:0:0:
310,150,112577,1,10,0:2:0:0:
512,61,112720,5,2,0:2:0:0:
225,189,112863,1,0,1:2:0:0:
225,189,113006,1,2,0:2:0:0:
449,384,113149,6,0,L|430:260,1,110.400002105713,10|0,0:2|0:0,0:0:0:0:
137,35,113434,1,2,1:2:0:0:
373,212,113577,1,2,0:2:0:0:
219,96,113720,1,8,0:2:0:0:
202,344,113863,5,2,0:2:0:0:
202,344,113934,1,2,0:0:0:0:
202,344,114006,1,2,1:2:0:0:
382,120,114149,1,0,0:0:0:0:
4,243,114292,2,0,L|128:224,1,110.400002105713,10|0,0:2|0:0,0:0:0:0:
317,38,114577,6,0,P|455:53|479:123,1,220.800004211426,6|8,1:2|0:2,0:0:0:0:
376,309,115006,2,0,P|362:391|359:410,1,72.0000027465821,0|0,0:0|1:2,0:0:0:0:
232,186,115292,5,2,0:2:0:0:
479,115,115434,1,10,0:2:0:0:
232,186,115577,5,2,0:2:0:0:
1,39,115720,2,0,P|50:16|167:125,1,220.800004211426,0|8,1:0|0:0,0:0:0:0:
94,235,116149,1,0,0:0:0:0:
378,150,116292,6,0,L|305:137,1,55.2000010528565,2|0,1:2|0:0,0:0:0:0:
50,338,116434,1,0,1:0:0:0:
105,329,116506,1,0,1:0:0:0:
159,320,116577,1,10,0:2:0:0:
214,311,116649,1,8,0:0:0:0:
268,302,116720,1,8,0:0:0:0:
512,384,116863,6,0,P|509:271|392:229,1,220.800004211426,4|10,1:0|0:2,0:0:0:0:
12,194,117292,5,2,0:2:0:0:
182,230,117434,1,0,1:2:0:0:
87,252,117577,1,0,0:0:0:0:
180,97,117720,1,8,0:2:0:0:
398,162,117863,1,2,0:2:0:0:
254,290,118006,1,0,1:2:0:0:
335,352,118149,1,0,3:0:0:0:
335,352,118220,1,0,3:0:0:0:
335,352,118292,2,0,P|344:300|354:252,1,72.0000027465821,8|0,0:2|0:0,0:0:0:0:
361,81,118577,5,2,1:2:0:0:
502,0,118720,1,2,0:2:0:0:
275,117,118863,1,10,0:2:0:0:
226,0,119006,1,2,0:2:0:0:
55,277,119149,1,6,1:2:0:0:
265,213,119292,1,0,3:0:0:0:
265,213,119363,1,0,3:0:0:0:
265,213,119434,1,10,0:2:0:0:
69,107,119577,1,2,0:2:0:0:
211,285,119720,5,0,1:2:0:0:
436,203,119864,2,0,L|366:215,1,72.0000027465821,2|8,0:2|0:2,0:0:0:0:
0,33,120149,6,0,P|131:34|172:122,1,220.800004211426,2|0,0:2|0:0,0:0:0:0:
381,52,120577,2,0,P|390:113|394:150,1,72.0000027465821,8|0,0:2|0:0,0:0:0:0:
205,366,120863,5,2,1:2:0:0:
145,201,121006,1,2,0:2:0:0:
306,148,121149,1,10,0:2:0:0:
362,304,121292,1,0,0:0:0:0:
11,314,121434,6,0,P|79:302|109:298,1,72.0000027465821,6|0,1:2|0:0,0:0:0:0:
81,301,121720,1,10,0:2:0:0:
497,230,121863,6,0,P|428:218|398:214,1,72.0000027465821,2|0,0:2|1:2,0:0:0:0:
426,217,122149,1,2,0:2:0:0:
98,109,122292,6,0,P|166:97|196:93,1,72.0000027465821,10|0,0:2|0:0,0:0:0:0:
168,96,122577,1,2,1:2:0:0:
405,34,122720,6,0,P|336:22|306:18,1,72.0000027465821,2|8,0:2|0:2,0:0:0:0:
334,21,123006,1,2,0:2:0:0:
250,384,123149,6,0,P|262:274|274:165,1,220.800004211426,2|10,1:2|0:2,0:0:0:0:
0,63,123720,6,0,P|79:78|99:82,1,72.0000027465821,4|0,1:0|0:0,0:0:0:0:
274,164,124006,1,8,0:2:0:0:
208,0,124149,1,0,3:0:0:0:
208,0,124220,1,0,3:0:0:0:
208,0,124292,1,0,1:2:0:0:
375,245,124434,1,2,0:2:0:0:
430,49,124577,5,10,0:2:0:0:
512,287,124720,1,2,1:2:0:0:
512,287,124792,1,0,1:2:0:0:
512,287,124863,1,4,1:2:0:0:
274,164,125006,1,8,0:0:0:0:
512,0,125149,5,8,0:3:0:0:
237,80,125292,1,8,0:3:0:0:
107,384,125434,5,2,1:2:0:0:
76,333,125505,1,0,3:0:0:0:
72,275,125576,1,2,3:2:0:0:
96,222,125648,1,0,3:0:0:0:
140,186,125719,1,10,0:2:0:0:
198,174,125791,1,8,0:3:0:0:
253,190,125862,1,4,0:3:0:0:
296,229,125933,1,4,0:3:0:0:
327,277,126006,6,0,L|320:360,1,72.0000027465821,6|0,1:2|0:0,0:0:0:0:
0,185,126292,1,10,0:2:0:0:
162,38,126434,5,2,0:2:0:0:
236,323,126577,1,0,1:2:0:0:
512,186,126720,1,2,0:2:0:0:
260,17,126863,5,10,0:2:0:0:
103,170,127006,2,0,P|152:162|180:157,1,72.0000027465821,2|0,0:2|1:2,0:0:0:0:
393,231,127292,2,0,P|475:115|413:44,1,220.800004211426,2|2,0:2|0:2,0:0:0:0:
284,114,127720,5,2,1:2:0:0:
10,35,127863,1,0,0:0:0:0:
183,271,128006,2,0,P|172:319|164:352,1,72.0000027465821,10|0,0:2|0:0,0:0:0:0:
507,266,128292,5,6,1:2:0:0:
258,319,128434,1,2,0:2:0:0:
213,68,128577,1,10,0:2:0:0:
335,384,128720,5,2,0:2:0:0:
335,384,128792,1,2,0:0:0:0:
335,384,128863,1,0,1:2:0:0:
180,162,129006,1,2,0:2:0:0:
409,19,129149,2,0,P|414:52|428:114,1,72.0000027465821,10|0,0:2|0:0,0:0:0:0:
121,371,129434,5,2,1:2:0:0:
331,258,129577,1,2,0:2:0:0:
30,120,129720,1,8,0:2:0:0:
295,174,129863,1,2,0:2:0:0:
295,174,129934,1,2,0:0:0:0:
295,174,130006,1,2,1:2:0:0:
512,0,130149,1,2,0:2:0:0:
432,194,130292,2,0,P|420:246|407:294,1,72.0000027465821,10|0,0:2|0:0,0:0:0:0:
221,0,130577,5,4,1:0:0:0:
331,258,130720,1,0,0:0:0:0:
331,258,130863,1,10,0:2:0:0:
42,382,131006,5,2,0:2:0:0:
173,94,131149,1,0,1:2:0:0:
173,94,131292,1,2,0:2:0:0:
160,306,131434,6,0,P|124:299|89:291,1,72.0000027465821,10|0,0:2|0:0,0:0:0:0:
89,291,131720,1,2,1:2:0:0:
383,166,131863,6,0,P|419:158|454:150,1,72.0000027465821,2|8,0:2|0:2,0:0:0:0:
454,150,132149,1,2,0:2:0:0:
277,0,132292,5,2,1:2:0:0:
110,162,132434,1,0,0:0:0:0:
271,315,132577,1,10,0:2:0:0:
100,56,132720,5,0,3:0:0:0:
100,56,132792,1,0,3:0:0:0:
100,56,132863,2,0,P|8:128|36:238,1,220.800004211426,4|8,1:0|0:2,0:0:0:0:
276,155,133292,1,0,0:0:0:0:
139,278,133434,1,0,1:2:0:0:
199,84,133577,5,2,0:2:0:0:
492,174,133720,1,10,0:2:0:0:
492,174,133792,1,2,0:0:0:0:
492,174,133863,1,2,0:2:0:0:
286,293,134006,5,0,1:2:0:0:
167,189,134149,1,8,0:0:0:0:
167,189,134220,1,8,0:0:0:0:
167,189,134292,1,8,0:3:0:0:
221,370,134434,1,4,0:3:0:0:
309,28,134577,1,0,1:2:0:0:
268,195,134720,1,4,0:3:0:0:
0,70,134863,5,8,0:3:0:0:
57,80,134934,1,8,0:3:0:0:
114,91,135006,1,4,0:3:0:0:
170,103,135077,1,4,0:3:0:0:
228,114,135149,1,4,1:0:0:0:
371,141,135292,1,0,1:0:0:0:
389,0,135434,1,8,0:2:0:0:
236,274,135577,5,2,1:2:0:0:
73,215,135720,1,8,0:2:0:0:
25,384,135863,1,0,1:2:0:0:
25,384,135934,1,0,1:0:0:0:
25,384,136006,1,10,0:2:0:0:
173,197,136149,6,0,P|243:181|301:170,1,110.400002105713,2|8,1:2|0:2,0:0:0:0:
406,285,136434,1,0,1:0:0:0:
277,63,136577,5,8,0:2:0:0:
320,260,136720,1,2,1:2:0:0:
512,209,136863,1,8,0:2:0:0:
245,356,137006,5,2,1:2:0:0:
245,356,137077,1,0,1:0:0:0:
245,356,137149,1,10,0:2:0:0:
0,183,137292,1,0,1:2:0:0:
153,376,137434,6,0,L|131:280,1,72.0000027465821,10|0,0:2|1:2,0:0:0:0:
389,202,137720,2,0,L|411:106,1,72.0000027465821,10|0,0:2|1:2,0:0:0:0:
256,0,138006,1,10,0:2:0:0:
254,34,138077,1,0,1:0:0:0:
255,70,138149,1,0,1:2:0:0:
255,107,138220,1,0,1:0:0:0:
256,143,138292,1,10,0:2:0:0:
75,68,138434,5,0,1:2:0:0:
75,68,138506,1,0,1:0:0:0:
75,68,138577,2,0,L|88:171,1,72.0000027465821,10|2,0:2|1:2,0:0:0:0:
457,170,138863,2,0,L|444:273,1,72.0000027465821,8|2,0:2|1:2,0:0:0:0:
310,375,139149,5,8,0:2:0:0:
24,294,139292,1,2,1:2:0:0:
310,375,139434,1,10,0:2:0:0:
78,49,139720,5,14,0:2:0:0:
206,10,139863,1,0,1:2:0:0:
512,173,140006,5,8,0:2:0:0:
365,92,140149,1,0,1:2:0:0:
398,342,140292,1,8,0:2:0:0:
252,131,140434,1,2,1:2:0:0:
252,131,140506,1,0,1:0:0:0:
252,131,140577,1,10,0:2:0:0:
182,384,140720,1,2,1:2:0:0:
460,0,140863,5,8,0:2:0:0:
295,34,141006,1,0,1:2:0:0:
22,286,141149,5,8,0:2:0:0:
289,219,141292,1,0,1:2:0:0:
72,117,141434,1,8,0:2:0:0:
378,258,141577,1,2,1:2:0:0:
378,258,141649,1,0,1:0:0:0:
378,258,141720,1,10,0:2:0:0:
203,38,141863,1,2,1:2:0:0:
135,375,142006,5,10,0:2:0:0:
302,318,142149,1,0,1:2:0:0:
512,0,142292,5,8,0:2:0:0:
181,133,142434,1,0,1:2:0:0:
480,218,142577,5,8,0:2:0:0:
206,44,142720,1,2,1:2:0:0:
206,44,142792,1,0,1:0:0:0:
206,44,142863,1,10,0:2:0:0:
351,101,143006,1,2,1:2:0:0:
31,265,143149,1,8,0:2:0:0:
31,265,143220,1,0,1:0:0:0:
31,265,143292,1,2,1:2:0:0:
261,178,143434,5,12,0:2:0:0:
430,379,143577,1,0,1:2:0:0:
261,178,143720,5,8,0:0:0:0:
268,133,143791,1,8,0:0:0:0:
275,89,143862,1,10,0:0:0:0:
282,44,143934,1,8,0:0:0:0:
289,0,144005,1,8,0:0:0:0:
146,49,144292,5,4,1:0:0:0:
146,49,144434,2,0,L|152:136,1,72.0000027465821,2|0,0:0|0:0,0:0:0:0:
398,104,144720,5,2,0:0:0:0:
398,104,144862,2,0,L|392:191,1,72.0000027465821,2|0,0:0|0:0,0:0:0:0:
211,202,145149,5,2,0:0:0:0:
211,202,145291,2,0,L|217:289,1,72.0000027465821,2|0,0:0|0:0,0:0:0:0:
320,244,145577,5,2,0:0:0:0:
320,244,145720,2,0,L|314:331,1,72.0000027465821,2|0,0:0|0:0,0:0:0:0:
256,384,146006,5,2,0:0:0:0:
283,112,146149,5,0,1:0:0:0:
283,112,146220,1,0,1:0:0:0:
283,112,146292,2,0,L|280:14,1,72.0000027465821,8|0,0:0|1:0,0:0:0:0:
62,340,146577,5,12,0:0:0:0:
24,65,146720,1,8,0:0:0:0:
187,91,146863,1,0,1:0:0:0:
162,298,147006,5,8,0:0:0:0:
115,18,147149,1,8,0:0:0:0:
280,40,147292,1,0,1:0:0:0:
455,0,147434,5,12,0:0:0:0:
512,268,147577,1,12,0:0:0:0:
348,249,147720,1,0,1:0:0:0:
365,50,147863,5,12,0:0:0:0:
424,324,148006,1,12,0:0:0:0:
265,306,148149,1,0,1:0:0:0:
0,238,148292,5,12,0:0:0:0:
255,130,148434,1,0,1:0:0:0:
0,238,148577,1,12,0:0:0:0:
512,0,148863,5,6,1:0:0:0:
116,165,158292,6,0,L|106:97,1,48,2|0,0:0|0:0,0:0:0:0:
193,119,158577,2,0,L|184:59,1,48,2|0,0:0|0:0,0:0:0:0:
279,142,158863,1,2,0:0:0:0:
279,142,159006,2,0,L|270:82,1,48,2|0,0:0|0:0,0:0:0:0:
365,113,159292,1,2,0:0:0:0:
365,113,159363,1,2,0:0:0:0:
365,113,159434,2,0,L|356:53,1,48,2|0,0:0|0:0,0:0:0:0:
498,180,160006,6,0,L|511:286,1,96,2|0,0:0|0:0,0:0:0:0:
403,374,162863,6,0,L|393:306,1,48,2|0,0:0|0:0,0:0:0:0:
480,328,163148,2,0,L|471:268,1,48,2|0,0:0|0:0,0:0:0:0:
383,243,163434,1,2,0:0:0:0:
383,243,163577,2,0,L|374:183,1,48,2|0,0:0|0:0,0:0:0:0:
296,157,163863,1,2,0:0:0:0:
296,157,163934,1,2,0:0:0:0:
296,157,164005,2,0,L|287:97,1,48,2|0,0:0|0:0,0:0:0:0:
302,241,164292,5,2,0:0:0:0:
198,44,164434,1,0,0:0:0:0:
198,44,164577,2,0,L|204:107,1,48,2|0,0:0|0:0,0:0:0:0:
31,155,164863,6,0,P|31:71|94:15,1,172.799994726563,2|2,0:0|0:0,0:0:0:0:
107,34,167434,6,0,L|175:24,1,48,2|0,0:0|0:0,0:0:0:0:
153,111,167719,2,0,L|213:102,1,48,2|0,0:0|0:0,0:0:0:0:
130,197,168006,1,2,0:0:0:0:
130,197,168149,2,0,L|190:188,1,48,2|0,0:0|0:0,0:0:0:0:
159,283,168434,1,2,0:0:0:0:
159,283,168505,1,2,0:0:0:0:
159,283,168576,2,0,L|219:274,1,48,2|0,0:0|0:0,0:0:0:0:
384,355,168863,6,0,L|278:368,2,96,2|2|2,0:0|0:0|0:0,0:0:0:0:
114,0,171149,6,0,L|96:114,1,96,2|2,0:0|0:0,0:0:0:0:
370,228,171720,2,0,P|460:215|514:276,1,172.799994726563,2|2,0:0|0:0,0:0:0:0:
512,270,172720,1,2,0:0:0:0:
243,60,173434,6,0,L|261:174,1,96,2|2,0:0|0:0,0:0:0:0:
21,235,174006,2,0,P|18:304|74:360,1,143.999995605469,2|2,0:0|0:0,0:0:0:0:
180,384,174863,1,2,0:0:0:0:
180,384,175006,2,0,L|160:295,1,86.3999973632813,2|0,0:0|0:0,0:0:0:0:
103,116,176292,6,0,P|114:175|133:277,1,144.000005493164,4|0,1:2|1:2,0:0:0:0:
354,185,176863,6,0,P|295:196|275:200,1,72.0000027465821,0|2,1:2|0:0,0:0:0:0:
512,63,177149,1,2,1:2:0:0:
452,215,177292,1,2,0:0:0:0:
452,215,177434,6,0,P|441:156|435:124,1,72.0000027465821,0|0,1:2|0:0,0:0:0:0:
376,302,177720,2,0,P|382:337|389:372,1,72.0000027465821,0|0,1:2|0:0,0:0:0:0:
283,341,178006,2,0,P|272:282|266:250,1,72.0000027465821,0|0,1:2|0:0,0:0:0:0:
172,314,178292,2,0,P|178:349|185:384,1,72.0000027465821,2|2,1:2|0:3,0:0:0:0:
204,93,178577,6,0,P|79:117|59:121,1,144.000005493164,2|0,1:2|1:2,0:0:0:0:
31,292,179148,6,0,P|20:233|16:213,1,72.0000027465821,0|2,1:2|0:0,0:0:0:0:
288,349,179434,1,2,1:2:0:0:
136,289,179577,1,2,0:0:0:0:
136,289,179719,6,0,P|195:278|227:272,1,72.0000027465821,2|0,1:2|0:0,0:0:0:0:
372,204,180005,2,0,P|336:210|301:217,1,72.0000027465821,0|0,1:2|0:0,0:0:0:0:
333,111,180291,2,0,P|392:100|424:94,1,72.0000027465821,0|0,1:2|0:0,0:0:0:0:
360,0,180577,2,0,P|324:6|289:13,1,72.0000027465821,0|2,1:2|0:3,0:0:0:0:
72,378,180863,6,0,L|62:306,1,72.0000027465821,2|0,1:2|0:0,0:0:0:0:
141,128,181148,1,0,1:2:0:0:
141,128,181292,6,0,L|131:56,1,72.0000027465821,2|0,0:0|1:2,0:0:0:0:
265,225,181577,1,0,0:0:0:0:
265,225,181720,6,0,L|255:153,1,72.0000027465821,2|0,1:2|0:0,0:0:0:0:
473,356,182006,5,2,1:2:0:0:
486,278,182149,1,0,0:0:0:0:
500,201,182292,1,0,1:2:0:0:
340,280,182434,5,2,0:0:0:0:
353,202,182577,1,0,1:2:0:0:
367,125,182720,1,0,0:0:0:0:
185,346,182863,5,2,1:2:0:0:
198,268,183006,1,2,0:3:0:0:
265,0,183149,6,0,L|255:71,1,72.0000027465821,0|0,1:3|0:0,0:0:0:0:
340,280,183434,1,2,1:3:0:0:
340,280,183578,6,0,L|330:351,1,72.0000027465821,2|2,0:0|1:3,0:0:0:0:
487,80,183863,1,0,0:0:0:0:
487,80,184006,6,0,L|477:151,1,72.0000027465821,2|0,1:3|0:0,0:0:0:0:
286,165,184292,6,0,L|149:148,1,108.000004119873,2|0,1:2|0:0,0:0:0:0:
178,151,184577,2,0,L|165:96,2,36.0000013732911,8|0|2,0:0|0:0|0:0,0:0:0:0:
0,314,184863,5,10,0:0:0:0:
48,334,184934,1,8,0:0:0:0:
100,326,185005,1,8,0:0:0:0:
141,295,185077,1,8,0:0:0:0:
161,246,185148,1,10,0:0:0:0:
303,44,185434,5,4,1:0:0:0:
375,228,185577,1,0,1:2:0:0:
407,11,185720,1,8,0:2:0:0:
278,258,185863,2,0,L|266:338,1,72.0000027465821,0|8,1:2|0:2,0:0:0:0:
512,212,186149,5,2,1:2:0:0:
218,118,186292,1,10,0:2:0:0:
512,212,186434,1,2,1:2:0:0:
189,33,186577,6,0,L|108:22,1,72.0000027465821,8|0,0:2|1:2,0:0:0:0:
71,224,186863,2,0,L|-10:213,1,72.0000027465821,8|0,0:2|1:2,0:0:0:0:
482,337,187149,5,10,0:2:0:0:
169,197,187292,1,0,1:2:0:0:
464,104,187434,5,10,0:2:0:0:
242,246,187577,1,0,1:2:0:0:
189,33,187720,5,10,0:2:0:0:
140,285,187863,1,0,1:2:0:0:
189,33,188006,1,8,0:2:0:0:
338,243,188149,2,0,L|326:336,1,72.0000027465821,0|8,1:2|0:2,0:0:0:0:
111,150,188434,5,2,1:2:0:0:
434,22,188577,1,10,0:2:0:0:
111,150,188720,2,0,L|31:135,1,72.0000027465821,2|8,1:2|0:2,0:0:0:0:
290,48,189006,1,0,1:2:0:0:
290,48,189077,1,0,1:2:0:0:
290,48,189149,5,10,0:2:0:0:
486,167,189292,1,0,1:2:0:0:
111,150,189434,5,10,0:2:0:0:
328,260,189577,1,0,1:2:0:0:
12,0,189720,5,10,0:2:0:0:
203,118,189863,1,0,1:2:0:0:
443,0,190006,6,0,L|526:21,1,72.0000027465821,14|0,0:2|1:2,0:0:0:0:
242,208,190292,1,10,0:2:0:0:
242,208,190434,1,2,1:2:0:0:
262,49,190577,5,8,0:2:0:0:
454,113,190720,1,0,1:2:0:0:
169,19,190863,5,10,0:2:0:0:
358,80,191006,1,2,1:2:0:0:
162,350,191149,6,0,L|245:329,1,72.0000027465821,10|0,0:2|1:2,0:0:0:0:
0,129,191434,1,10,0:2:0:0:
0,129,191577,1,2,1:2:0:0:
180,251,191720,5,8,0:2:0:0:
414,167,191863,1,0,1:2:0:0:
67,288,192006,5,10,0:2:0:0:
293,208,192149,1,2,1:2:0:0:
399,311,192292,6,0,L|378:394,1,72.0000027465821,10|0,0:2|1:2,0:0:0:0:
313,88,192578,1,10,0:2:0:0:
313,88,192720,1,2,1:2:0:0:
270,298,192863,5,8,0:2:0:0:
437,43,193006,1,2,1:2:0:0:
437,43,193149,1,8,0:2:0:0:
125,61,193292,5,2,1:2:0:0:
125,61,193363,1,0,1:2:0:0:
125,61,193434,1,12,0:2:0:0:
414,167,193577,1,0,1:2:0:0:
45,295,193720,1,8,0:0:0:0:
313,88,193863,1,0,1:0:0:0:
232,20,194006,5,10,0:0:0:0:
232,20,194077,1,8,0:0:0:0:
232,20,194149,1,10,0:0:0:0:
512,232,194292,1,8,0:0:0:0:
512,232,194363,1,8,0:0:0:0:
512,232,194434,1,8,0:0:0:0:
141,167,194577,5,4,1:0:0:0:
154,254,194720,1,10,0:0:0:0:
168,342,194863,1,0,1:0:0:0:
366,167,195006,5,10,0:0:0:0:
353,254,195149,1,2,1:2:0:0:
339,342,195292,1,4,0:3:0:0:
97,19,195434,5,6,1:2:0:0:
77,104,195577,1,2,0:0:0:0:
55,190,195720,1,0,1:0:0:0:
414,19,195863,5,10,0:0:0:0:
434,104,196006,1,10,0:0:0:0:
456,190,196149,1,8,0:3:0:0:
256,304,196292,6,0,L|256:209,1,72.0000027465821,2|2,1:2|0:2,0:0:0:0:
260,50,196577,1,14,0:0:0:0:
260,50,196720,1,0,1:0:0:0:
39,331,196863,5,12,0:0:0:0:
152,292,197006,1,2,0:0:0:0:
65,210,197149,1,0,1:0:0:0:
473,331,197292,5,10,0:0:0:0:
360,292,197435,1,2,1:2:0:0:
455,216,197578,1,8,0:3:0:0:
169,189,197720,5,6,1:2:0:0:
369,103,197863,1,2,0:2:0:0:
115,17,198006,1,0,1:0:0:0:
343,189,198149,5,2,0:0:0:0:
143,103,198292,1,2,1:2:0:0:
397,17,198435,1,0,0:0:0:0:
256,240,198577,5,8,0:0:0:0:
256,276,198648,1,8,0:0:0:0:
256,312,198719,1,8,0:0:0:0:
256,348,198791,1,8,0:0:0:0:
256,384,198862,1,8,0:0:0:0:
165,277,199149,5,4,1:0:0:0:
395,153,199292,1,2,0:0:0:0:
395,153,199434,1,0,1:0:0:0:
335,275,199577,5,10,0:0:0:0:
117,153,199720,1,2,1:2:0:0:
117,153,199862,1,4,0:3:0:0:
305,181,200006,5,12,0:0:0:0:
66,35,200149,1,2,0:0:0:0:
66,35,200291,1,0,1:0:0:0:
209,182,200434,5,8,0:3:0:0:
446,35,200577,1,2,1:2:0:0:
446,35,200719,1,4,0:3:0:0:
256,255,200863,5,2,1:2:0:0:
255,0,201006,1,2,0:0:0:0:
255,0,201149,2,0,L|255:92,1,72.0000027465821,2|10,1:2|0:0,0:0:0:0:
1,301,201434,6,0,P|8:359|12:396,1,72.0000027465821,4|10,1:0|0:0,0:0:0:0:
499,188,201720,2,0,P|492:246|488:283,1,72.0000027465821,0|8,1:0|0:3,0:0:0:0:
122,49,202006,5,2,1:2:0:0:
122,49,202149,2,0,P|129:107|133:144,1,72.0000027465821,2|12,0:0|0:0,0:0:0:0:
256,312,202434,2,0,P|257:370|258:407,1,72.0000027465821,2|0,0:0|1:0,0:0:0:0:
365,0,202720,1,8,0:3:0:0:
365,0,202863,2,0,P|358:58|354:95,1,72.0000027465821,2|2,1:2|0:0,0:0:0:0:
0,189,203149,5,10,0:0:0:0:
63,197,203220,1,0,0:0:0:0:
125,207,203291,1,8,0:0:0:0:
187,216,203363,1,8,0:0:0:0:
248,226,203434,1,10,0:0:0:0:
102,175,204863,6,0,L|112:117,1,36.0000013732911,8|8,1:2|0:0,0:0:0:0:
13,122,205006,1,8,0:0:0:0:
55,67,205077,1,8,0:0:0:0:
123,54,205148,1,8,1:2:0:0:
184,86,205220,1,8,0:0:0:0:
211,151,205291,1,8,0:0:0:0:
190,215,205363,1,8,0:0:0:0:
131,253,205434,1,8,1:2:0:0:
302,349,205578,5,8,0:3:0:0:
350,357,205649,1,8,0:3:0:0:
397,366,205720,2,0,L|501:345,1,96,4|0,0:3|1:0,0:0:0:0:
354,241,206006,5,6,1:0:0:0:
181,81,206149,1,0,0:0:0:0:
410,22,206292,1,10,0:2:0:0:
147,0,206434,5,2,0:0:0:0:
447,106,206577,1,0,1:2:0:0:
200,301,206720,1,2,0:2:0:0:
64,176,206863,6,0,P|71:229|77:271,1,72.0000027465821,10|2,0:2|0:2,0:0:0:0:
290,131,207149,5,0,1:2:0:0:
450,305,207292,1,2,0:2:0:0:
247,223,207435,1,8,0:2:0:0:
158,18,207578,1,2,0:2:0:0:
495,218,207720,1,2,1:2:0:0:
156,384,207863,1,2,0:2:0:0:
371,184,208006,2,0,P|376:148|380:112,1,72.0000027465821,10|0,0:2|0:0,0:0:0:0:
325,306,208292,6,0,P|220:318|155:235,1,220.800004211426,6|10,1:2|0:2,0:0:0:0:
0,0,208720,1,2,0:2:0:0:
272,76,208863,1,2,1:2:0:0:
177,141,209006,1,2,0:2:0:0:
412,313,209149,1,10,0:2:0:0:
391,86,209292,6,0,P|403:20|412:-16,1,72.0000027465821,2|0,0:2|1:2,0:0:0:0:
497,138,209578,1,2,0:2:0:0:
129,303,209720,1,8,0:2:0:0:
247,223,209863,1,2,0:2:0:0:
247,223,209935,1,2,0:0:0:0:
247,223,210006,1,2,1:2:0:0:
85,21,210149,1,0,0:0:0:0:
399,278,210292,2,0,L|418:161,1,110.400002105713,10|0,0:2|0:0,0:0:0:0:
200,123,210578,5,4,1:0:0:0:
500,29,210720,1,0,0:0:0:0:
500,29,210863,1,10,0:2:0:0:
291,152,211006,5,2,0:2:0:0:
2,83,211149,1,0,1:2:0:0:
2,83,211292,1,2,0:2:0:0:
179,384,211435,6,0,L|198:260,1,110.400002105713,10|0,0:2|0:0,0:0:0:0:
375,35,211720,1,2,1:2:0:0:
139,212,211863,1,2,0:2:0:0:
297,91,212006,1,8,0:2:0:0:
275,370,212149,5,2,0:2:0:0:
283,377,212220,1,2,0:0:0:0:
283,377,212292,1,2,1:2:0:0:
130,120,212435,1,0,0:0:0:0:
456,287,212578,2,0,L|332:268,1,110.400002105713,10|0,0:2|0:0,0:0:0:0:
375,35,212863,6,0,P|472:97|453:201,1,220.800004211426,6|8,1:2|0:2,0:0:0:0:
164,279,213292,1,0,3:0:0:0:
164,279,213363,1,0,3:0:0:0:
164,279,213434,1,2,1:2:0:0:
296,82,213577,5,2,0:2:0:0:
248,218,213720,1,10,0:2:0:0:
86,4,213863,1,2,0:2:0:0:
333,183,214006,1,0,1:2:0:0:
375,35,214149,1,0,0:0:0:0:
164,279,214292,1,8,0:2:0:0:
211,133,214435,1,0,0:0:0:0:
52,182,214578,6,0,L|125:169,1,55.2000010528565,2|0,1:2|0:0,0:0:0:0:
476,332,214720,1,2,1:2:0:0:
421,323,214792,1,0,1:0:0:0:
367,314,214863,1,10,0:2:0:0:
312,305,214935,1,8,0:0:0:0:
258,296,215006,1,8,0:0:0:0:
43,278,215149,6,0,P|108:376|217:341,1,220.800004211426,4|10,1:0|0:2,0:0:0:0:
238,160,215577,5,2,0:2:0:0:
439,274,215720,1,0,1:2:0:0:
315,86,215863,1,0,0:0:0:0:
270,254,216006,1,8,0:2:0:0:
399,15,216149,1,2,0:2:0:0:
361,212,216292,1,0,1:2:0:0:
177,302,216435,1,0,3:0:0:0:
177,302,216506,1,0,3:0:0:0:
177,302,216578,2,0,P|168:250|158:202,1,72.0000027465821,8|0,0:2|0:0,0:0:0:0:
203,76,216863,5,2,1:2:0:0:
0,28,217006,1,2,0:2:0:0:
104,120,217149,1,10,0:2:0:0:
286,0,217292,1,2,0:2:0:0:
439,274,217435,1,6,1:2:0:0:
243,182,217578,1,0,3:0:0:0:
243,182,217649,1,0,3:0:0:0:
243,182,217720,1,10,0:2:0:0:
407,111,217863,1,2,0:2:0:0:
335,284,218006,6,0,L|246:269,1,72.0000027465821,0|2,1:2|0:2,0:0:0:0:
104,120,218292,1,8,0:2:0:0:
419,3,218435,6,0,P|501:69|487:173,1,220.800004211426,2|0,0:2|0:0,0:0:0:0:
416,310,218863,2,0,P|407:371|403:408,1,72.0000027465821,8|0,0:2|0:0,0:0:0:0:
150,304,219149,5,2,1:2:0:0:
307,366,219292,1,0,0:2:0:0:
367,201,219434,1,10,0:2:0:0:
206,148,219578,1,0,0:0:0:0:
512,0,219720,6,0,P|444:12|414:16,1,72.0000027465821,6|0,1:2|0:0,0:0:0:0:
442,12,220006,1,10,0:2:0:0:
0,121,220149,6,0,P|69:133|99:137,1,72.0000027465821,2|0,0:2|1:2,0:0:0:0:
70,133,220435,1,2,0:2:0:0:
437,171,220578,6,0,P|369:183|339:187,1,72.0000027465821,10|0,0:2|0:0,0:0:0:0:
366,183,220863,1,2,1:2:0:0:
98,274,221006,6,0,P|167:286|197:290,1,72.0000027465821,2|8,0:2|0:2,0:0:0:0:
168,286,221292,1,2,0:2:0:0:
258,0,221434,6,0,P|271:109|283:219,1,220.800004211426,2|14,1:2|0:2,0:0:0:0:
56,56,222006,5,4,1:0:0:0:
469,112,222149,1,0,0:0:0:0:
148,101,222292,1,8,0:2:0:0:
379,160,222434,1,0,3:0:0:0:
196,199,222577,1,0,1:2:0:0:
357,256,222720,1,2,0:2:0:0:
357,256,222863,1,10,0:2:0:0:
167,302,223006,1,2,1:2:0:0:
403,344,223149,6,0,L|475:324,1,72.0000027465821,4|0,1:2|0:0,0:0:0:0:
99,187,223434,2,0,L|27:167,1,72.0000027465821,2|0,1:3|0:0,0:0:0:0:
226,137,223720,5,8,0:0:0:0:
279,128,223791,1,8,0:0:0:0:
316,167,223862,1,8,0:0:0:0:
305,220,223934,1,8,0:0:0:0:
256,243,224005,1,8,0:0:0:0:
208,265,224077,1,8,0:0:0:0:
198,318,224149,1,8,0:0:0:0:
234,358,224220,1,8,0:0:0:0:
289,351,224291,1,6,1:0:0:0:
0,270,233292,5,8,0:3:0:0:
0,270,233363,1,4,0:3:0:0:
0,270,233434,2,0,L|155:243,1,144.000005493164,2|0,1:2|0:0,0:0:0:0:
177,132,233863,1,2,0:0:0:0:
177,132,234006,2,0,L|332:105,1,144.000005493164,0|2,0:0|0:0,0:0:0:0:
371,324,234434,1,2,0:0:0:0:
371,324,234577,2,0,L|526:297,1,144.000005493164
405,18,235006,6,0,L|432:173,1,144.000005493164,2|2,0:0|0:0,0:0:0:0:
429,159,235434,1,2,0:0:0:0:
10,146,235720,5,2,0:0:0:0:
80,372,236006,1,2,0:0:0:0:
10,146,236292,1,2,0:0:0:0:
80,372,236577,1,2,0:0:0:0:
245,220,236863,5,2,0:0:0:0:
225,304,237006,1,2,0:0:0:0:
392,164,237291,5,2,0:0:0:0:
392,164,237577,1,2,0:0:0:0:
456,361,237720,1,2,0:0:0:0:
434,49,238006,5,14,0:0:0:0:
306,10,238149,1,0,1:0:0:0:
56,236,238292,5,8,0:0:0:0:
189,194,238435,1,0,1:2:0:0:
483,194,238578,5,8,0:0:0:0:
253,130,238720,1,2,1:2:0:0:
253,130,238792,1,0,1:0:0:0:
253,130,238863,1,10,0:0:0:0:
310,369,239006,1,2,1:2:0:0:
52,0,239149,5,8,0:0:0:0:
192,51,239292,1,0,1:2:0:0:
373,209,239434,5,8,0:0:0:0:
236,272,239578,1,0,1:2:0:0:
85,117,239720,5,8,0:0:0:0:
360,0,239863,1,2,1:2:0:0:
360,0,239935,1,0,1:0:0:0:
360,0,240006,1,10,0:0:0:0:
326,283,240149,1,2,1:2:0:0:
156,310,240292,5,10,0:0:0:0:
85,117,240435,1,8,0:0:0:0:
453,249,240577,5,8,0:0:0:0:
506,67,240720,1,8,0:0:0:0:
156,310,240863,5,8,0:0:0:0:
85,117,241006,1,10,0:0:0:0:
85,117,241078,1,8,0:0:0:0:
85,117,241149,1,10,0:0:0:0:
380,189,241292,5,4,1:0:0:0:
433,0,241578,1,2,0:0:0:0:
228,220,241720,5,2,0:3:0:0:
146,29,241863,1,2,0:3:0:0:
35,348,242006,5,8,0:0:0:0:
94,358,242077,1,8,0:0:0:0:
135,314,242148,1,8,0:0:0:0:
123,255,242220,1,8,0:0:0:0:
68,230,242291,1,8,0:0:0:0:
15,205,242363,1,8,0:0:0:0:
4,146,242435,1,8,0:0:0:0:
44,102,242506,1,8,0:0:0:0:
104,104,242577,6,0,P|154:111|249:128,1,110.400002105713,6|0,1:0|0:0,0:0:0:0:
336,55,242863,1,8,0:2:0:0:
126,232,243006,1,2,0:3:0:0:
376,309,243149,6,0,L|394:205,1,72.0000027465821,2|0,1:3|0:0,0:0:0:0:
220,130,243434,1,8,0:2:0:0:
488,340,243577,1,2,0:3:0:0:
201,277,243720,6,0,L|219:381,1,72.0000027465821,2|0,1:3|0:0,0:0:0:0:
45,278,244005,1,8,0:2:0:0:
361,114,244148,1,2,0:3:0:0:
116,70,244292,6,0,L|134:-34,1,72.0000027465821,2|0,1:3|0:0,0:0:0:0:
0,32,244577,1,8,0:2:0:0:
288,241,244720,1,2,0:3:0:0:
39,174,244863,6,0,L|127:159,1,72.0000027465821,2|0,1:3|0:0,0:0:0:0:
416,45,245149,2,0,P|516:123|489:229,1,220.800004211426,8|2,0:2|1:3,0:0:0:0:
201,277,245577,1,0,0:0:0:0:
378,143,245720,1,8,0:2:0:0:
95,0,245863,1,2,0:3:0:0:
289,107,246006,6,0,L|219:94,1,72.0000027465821,2|0,1:3|0:0,0:0:0:0:
124,369,246292,2,0,P|24:291|51:185,1,220.800004211426,8|2,0:2|1:3,0:0:0:0:
118,124,246720,1,0,0:0:0:0:
382,250,246863,2,0,L|290:265,1,72.0000027465821,10|2,0:2|0:3,0:0:0:0:
306,101,247149,5,4,1:0:0:0:
210,276,247292,1,2,0:0:0:0:
236,36,247434,1,8,0:2:0:0:
276,346,247577,1,2,0:3:0:0:
143,36,247720,1,2,1:3:0:0:
369,346,247863,1,2,0:0:0:0:
83,103,248006,1,8,0:2:0:0:
429,280,248149,1,2,0:3:0:0:
88,204,248292,6,0,L|0:181,1,72.0000027465821,2|0,1:3|0:0,0:0:0:0:
369,346,248577,1,8,0:2:0:0:
143,36,248720,1,2,0:3:0:0:
276,346,248863,1,2,1:3:0:0:
236,36,249006,1,0,0:0:0:0:
412,175,249150,2,0,L|482:192,1,72.0000027465821,10|2,0:2|0:3,0:0:0:0:
190,119,249434,5,6,1:2:0:0:
322,261,249577,1,0,0:0:0:0:
327,34,249720,1,8,0:2:0:0:
186,348,249863,1,2,0:3:0:0:
186,348,249934,1,0,3:0:0:0:
186,348,250006,1,2,1:3:0:0:
505,260,250149,5,2,0:0:0:0:
7,123,250292,1,10,0:2:0:0:
505,260,250434,1,2,0:3:0:0:
189,4,250577,6,0,P|196:40|200:76,1,72.0000027465821,2|0,1:3|0:0,0:0:0:0:
324,379,250863,2,0,P|317:343|312:308,1,72.0000027465821,8|2,0:0|0:3,0:0:0:0:
230,145,251149,5,8,0:0:0:0:
298,156,251220,1,8,0:0:0:0:
308,224,251292,1,10,0:0:0:0:
247,256,251363,1,8,0:0:0:0:
199,206,251434,1,10,0:0:0:0:
199,75,251720,5,14,0:0:0:0:
292,324,251863,1,0,1:2:0:0:
512,182,252006,1,8,0:2:0:0:
375,377,252149,2,0,L|389:289,1,72.0000027465821,2|8,1:2|0:2,0:0:0:0:
386,305,252363,1,0,1:0:0:0:
386,305,252434,1,2,1:2:0:0:
491,97,252577,1,10,0:2:0:0:
374,224,252720,1,2,1:2:0:0:
283,4,252863,5,8,0:2:0:0:
242,196,253006,1,0,1:2:0:0:
63,113,253149,1,8,0:2:0:0:
192,281,253292,2,0,L|210:364,1,72.0000027465821,2|8,1:2|0:2,0:0:0:0:
167,58,253577,6,0,L|162:94,1,36.0000013732911,2|0,1:2|1:2,0:0:0:0:
324,166,253720,1,10,0:2:0:0:
320,148,253791,1,0,1:0:0:0:
317,130,253862,1,0,1:2:0:0:
313,112,253934,1,0,1:2:0:0:
310,95,254005,1,10,0:2:0:0:
140,208,254149,1,0,1:2:0:0:
341,278,254292,5,10,0:2:0:0:
140,208,254434,1,0,1:2:0:0:
402,116,254577,5,10,0:2:0:0:
140,208,254720,1,0,1:2:0:0:
301,380,254863,5,10,0:2:0:0:
140,208,255006,1,0,1:2:0:0:
487,145,255149,5,10,0:2:0:0:
341,278,255292,1,2,1:2:0:0:
167,90,255435,1,8,0:2:0:0:
244,251,255578,2,0,L|230:163,1,72.0000027465821,2|8,1:2|0:2,0:0:0:0:
233,179,255792,1,0,1:0:0:0:
233,179,255863,1,2,1:2:0:0:
0,53,256006,1,10,0:2:0:0:
402,183,256292,5,14,0:2:0:0:
239,6,256435,1,0,1:2:0:0:
72,184,256578,5,8,0:2:0:0:
250,366,256721,1,0,1:2:0:0:
280,102,256864,1,8,0:2:0:0:
361,278,257006,1,2,1:2:0:0:
361,278,257078,1,0,1:2:0:0:
361,278,257149,1,10,0:2:0:0:
512,0,257292,1,2,1:2:0:0:
140,115,257435,5,8,0:2:0:0:
212,269,257578,1,0,1:2:0:0:
418,384,257721,5,8,0:2:0:0:
333,178,257864,1,0,1:2:0:0:
512,225,258006,1,8,0:2:0:0:
280,102,258149,1,2,1:2:0:0:
280,102,258221,1,0,1:0:0:0:
280,102,258292,1,10,0:2:0:0:
497,47,258435,1,2,1:2:0:0:
323,329,258578,5,10,0:2:0:0:
111,266,258721,1,0,1:2:0:0:
125,19,258863,5,8,0:2:0:0:
374,139,259006,1,0,1:2:0:0:
32,218,259149,5,8,0:2:0:0:
363,45,259292,1,2,1:2:0:0:
363,45,259364,1,0,1:0:0:0:
363,45,259435,1,10,0:2:0:0:
214,8,259578,1,2,1:2:0:0:
503,275,259721,1,12,0:2:0:0:
503,275,259792,1,0,1:0:0:0:
503,275,259864,1,0,1:0:0:0:
174,153,260006,5,8,0:0:0:0:
437,0,260149,1,0,0:0:0:0:
267,211,260292,1,8,0:0:0:0:
0,65,260435,1,8,0:0:0:0:
267,211,260578,1,10,0:0:0:0:
512,240,260863,6,0,P|450:294|368:265,2,144.000005493164,4|2|8,1:0|0:3|0:0,0:0:0:0:
377,117,261577,1,2,0:0:0:0:
377,117,261720,1,2,0:3:0:0:
377,117,261863,2,0,L|298:107,1,72.0000027465821,2|4,0:0|1:2,0:0:0:0:
31,234,262149,6,0,P|82:249|151:173,1,144.000005493164,8|0,0:0|1:0,0:0:0:0:
148,197,262506,1,0,1:0:0:0:
148,197,262577,1,8,0:0:0:0:
241,243,262720,5,2,0:0:0:0:
65,81,262863,1,2,0:3:0:0:
65,81,263006,1,2,0:0:0:0:
65,81,263149,2,0,L|216:108,1,144.000005493164,4|2,1:2|0:3,0:0:0:0:
336,206,263577,2,0,L|325:278,1,72.0000027465821,0|12,1:0|0:0,0:0:0:0:
183,366,263863,5,2,1:2:0:0:
183,366,264006,1,10,0:0:0:0:
183,366,264149,2,0,L|171:290,1,72.0000027465821,2|0,0:0|1:2,0:0:0:0:
296,0,264434,5,10,0:0:0:0:
296,0,264506,1,8,0:0:0:0:
296,0,264577,1,8,0:0:0:0:
367,35,264720,1,8,0:0:0:0:
257,125,264863,1,8,0:3:0:0:
326,167,265006,1,8,0:3:0:0:
220,244,265149,1,4,0:3:0:0:
288,288,265292,1,4,0:3:0:0:
166,333,265434,5,14,0:0:0:0:
124,221,265577,1,2,0:0:0:0:
124,221,265649,1,2,0:0:0:0:
124,221,265720,1,0,1:0:0:0:
432,231,265863,1,10,0:0:0:0:
391,133,266006,1,2,1:2:0:0:
391,133,266077,1,0,1:2:0:0:
391,133,266149,1,4,0:3:0:0:
247,209,266292,5,6,1:2:0:0:
169,118,266434,1,2,0:0:0:0:
169,118,266506,1,2,0:0:0:0:
169,118,266577,1,0,1:0:0:0:
509,92,266720,1,10,0:0:0:0:
438,0,266863,1,10,0:0:0:0:
438,0,266934,1,0,1:0:0:0:
438,0,267006,1,8,0:3:0:0:
346,366,267149,5,2,1:2:0:0:
205,305,267292,1,0,0:0:0:0:
368,59,267434,1,12,0:0:0:0:
233,0,267577,1,0,0:0:0:0:
166,218,267720,5,4,1:0:0:0:
84,119,267863,1,2,0:0:0:0:
84,119,267934,1,2,0:0:0:0:
84,119,268006,1,0,1:2:0:0:
418,268,268149,1,10,0:0:0:0:
327,177,268292,1,2,1:2:0:0:
327,177,268363,1,0,1:2:0:0:
327,177,268434,1,8,0:3:0:0:
131,384,268577,5,12,0:0:0:0:
0,204,268720,1,2,0:0:0:0:
0,204,268792,1,2,0:0:0:0:
0,204,268863,1,0,1:0:0:0:
512,178,269006,1,8,0:3:0:0:
370,2,269149,1,2,1:2:0:0:
370,2,269220,1,0,1:0:0:0:
370,2,269292,1,0,1:0:0:0:
61,70,269434,6,0,L|70:159,1,72.0000027465821,8|8,0:0|0:0,0:0:0:0:
445,309,269577,2,0,L|438:233,1,72.0000027465821,8|8,0:0|0:0,0:0:0:0:
131,384,269720,2,0,L|202:377,1,72.0000027465821,8|8,0:0|0:0,0:0:0:0:
370,2,269863,2,0,L|298:9,1,72.0000027465821,8|8,0:0|0:0,0:0:0:0:
256,192,270577,12,0,274292,0:0:0:0:
