osu file format v14

[General]
AudioFilename: audio.mp3
AudioLeadIn: 0
PreviewTime: 41138
Countdown: 0
SampleSet: Soft
StackLeniency: 0.7
Mode: 3
LetterboxInBreaks: 0
SpecialStyle: 0
WidescreenStoryboard: 1

[Editor]
Bookmarks: 14956,28047,41138,54229,67320,81502,94593
DistanceSpacing: 0.4
BeatDivisor: 6
GridSize: 16
TimelineZoom: 1.950004

[Metadata]
Title:CHOCOLATE PHILOSOPHY
TitleUnicode:CHOCOLATE PHILOSOPHY
Artist:Yu Tokiwa
ArtistUnicode:常盤ゆう
Creator:Xnery
Version:Normal
Source:GUITARFREAKS 8thMIX & drummania 7thMIX
Tags:tokiwa yuu socrates gf8 dm7 gitadora ddr dancedancerevolution dance revolution ultramix4 a20 masterpiece silver pop'n music 9 ee'mall 14 fever! reflec beat groovin'!! upper plus volzza 2 bemani focus pack 01 ノスタルジア nostalgia op. 2 スウィングワルツ メリーゴーラウンド merry go round chanson jazz swing waltz english engrish video game tomosuke funaki 舟木智介 yu_tokiwa mutsuhiko izumi 泉陸奥彦 hirofumi mizuno 水野 弘文 marble LC-1363 -re edition- LC-1785 やまちゃん yama-chang ギターフリークス&ドラムマニア ベスト・トラックス kola-024 best tracks konami digital music entertainment media コナミ accordion 573
BeatmapID:3059755
BeatmapSetID:1453807

[Difficulty]
HPDrainRate:6.5
CircleSize:4
OverallDifficulty:6.5
ApproachRate:5
SliderMultiplier:1.4
SliderTickRate:1

[Events]
//Background and Video events
0,0,"chocrates.jpg",0,0
//Break Periods
//Storyboard Layer 0 (Background)
//Storyboard Layer 1 (Fail)
//Storyboard Layer 2 (Pass)
//Storyboard Layer 3 (Foreground)
//Storyboard Layer 4 (Overlay)
//Storyboard Sound Samples
Sample,14593,0,"tom03.wav",30
Sample,14866,0,"tom04.wav",30
Sample,40411,0,"soft-hitclap.wav",30
Sample,40956,0,"soft-hitclap.wav",30
Sample,47229,0,"soft-hitclap.wav",30
Sample,47502,0,"tom02.wav",30
Sample,59775,0,"soft-hitclap.wav",30
Sample,60684,0,"tom04.wav",30
Sample,66866,0,"tom03.wav",30
Sample,70411,0,"soft-hitwhistle.wav",30
Sample,77046,0,"soft-hitwhistle.wav",30
Sample,81046,0,"soft-hitclap.wav",30
Sample,106410,0,"soft-hitclap.wav",30
Sample,106682,0,"soft-hitwhistle.wav",30

[TimingPoints]
1866,272.727272727273,3,2,1,30,1,0
41138,-100,3,2,1,30,0,1
54229,-100,3,2,1,30,0,0
73866,272.727272727273,5,2,1,30,1,0
76592,272.727272727273,3,2,1,30,1,0
81501,-100,3,2,1,30,0,1
94592,-100,3,2,1,30,0,0

[HitObjects]
64,192,1320,128,0,1593:0:0:0:0:
192,192,1593,128,0,1866:0:0:0:0:
320,192,1866,1,4,0:0:0:0:
448,192,1866,128,2,2138:0:0:0:0:
64,192,2047,1,8,0:0:0:0:
320,192,2138,128,0,2320:0:0:0:0:
192,192,2320,1,2,0:0:0:0:
64,192,2411,1,8,0:0:0:0:
320,192,2684,1,2,0:0:0:0:
64,192,2956,1,8,0:0:0:0:
448,192,3229,1,8,0:0:0:0:
192,192,3502,128,2,4047:0:0:0:0:
448,192,3684,1,8,0:0:0:0:
320,192,3775,1,0,0:0:0:0:
320,192,3956,1,2,0:0:0:0:
448,192,4047,1,8,0:0:0:0:
192,192,4229,1,0,0:0:0:0:
320,192,4320,1,2,0:0:0:0:
64,192,4593,1,8,0:0:0:0:
448,192,4866,1,8,0:0:0:0:
192,192,5138,128,2,5411:0:0:0:0:
448,192,5320,1,8,0:0:0:0:
320,192,5411,1,0,0:0:0:0:
320,192,5593,1,2,0:0:0:0:
448,192,5684,128,8,5956:0:0:0:0:
320,192,5956,128,2,6229:0:0:0:0:
192,192,6229,128,8,6502:0:0:0:0:
320,192,6502,1,8,0:0:0:0:
64,192,6775,128,2,7047:0:0:0:0:
320,192,6956,1,8,0:0:0:0:
192,192,7047,128,0,7320:0:0:0:0:
448,192,7229,1,2,0:0:0:0:
320,192,7320,128,8,7593:0:0:0:0:
448,192,7593,128,2,7866:0:0:0:0:
64,192,7775,1,8,0:0:0:0:
320,192,7866,128,8,8138:0:0:0:0:
192,192,8047,1,0,0:0:0:70:tom02.wav
64,192,8138,1,2,0:0:0:0:
192,192,8320,1,0,0:0:0:70:tom04.wav
320,192,8411,1,4,0:0:0:0:
448,192,8411,128,2,8684:0:0:0:0:
64,192,8593,1,8,0:0:0:0:
320,192,8684,128,0,8866:0:0:0:0:
192,192,8866,1,2,0:0:0:0:
64,192,8956,1,8,0:0:0:0:
320,192,9229,1,2,0:0:0:0:
192,192,9502,1,8,0:0:0:0:
448,192,9775,1,8,0:0:0:0:
192,192,10047,128,2,10593:0:0:0:0:
448,192,10229,1,8,0:0:0:0:
320,192,10320,1,0,0:0:0:0:
320,192,10502,1,2,0:0:0:0:
448,192,10593,1,8,0:0:0:0:
192,192,10775,1,0,0:0:0:0:
320,192,10866,1,2,0:0:0:0:
64,192,11138,1,8,0:0:0:0:
448,192,11411,1,8,0:0:0:0:
192,192,11684,128,2,11956:0:0:0:0:
448,192,11866,1,8,0:0:0:0:
320,192,11956,1,0,0:0:0:0:
320,192,12138,1,2,0:0:0:0:
448,192,12229,128,8,12502:0:0:0:0:
320,192,12502,128,2,12775:0:0:0:0:
192,192,12775,128,8,13047:0:0:0:0:
320,192,13047,128,8,13320:0:0:0:0:
448,192,13320,128,2,14411:0:0:0:0:
64,192,13502,1,8,0:0:0:0:
320,192,13593,1,0,0:0:0:0:
320,192,13775,1,2,0:0:0:0:
64,192,13866,1,8,0:0:0:0:
64,192,14138,1,8,0:0:0:0:
192,192,14411,128,0,14684:0:0:0:70:tom01.wav
320,192,14684,128,0,14956:0:0:0:70:tom03.wav
64,192,14956,1,4,0:0:0:0:
448,192,14956,128,2,15411:0:0:0:0:
320,192,15411,1,0,0:0:0:0:
64,192,15502,128,0,15775:0:0:0:0:
192,192,15775,128,0,16047:0:0:0:0:
64,192,16047,128,0,16320:0:0:0:0:
320,192,16320,128,0,16593:0:0:0:0:
448,192,16593,128,0,16866:0:0:0:0:
192,192,17047,1,0,0:0:0:0:
64,192,17138,128,0,17411:0:0:0:0:
192,192,17411,128,0,17684:0:0:0:0:
320,192,17684,128,0,17956:0:0:0:0:
448,192,17956,128,0,18229:0:0:0:0:
320,192,18229,128,0,18502:0:0:0:0:
448,192,18684,1,0,0:0:0:0:
192,192,18775,128,0,19047:0:0:0:0:
64,192,19047,128,0,19320:0:0:0:0:
192,192,19320,128,0,19593:0:0:0:0:
320,192,19593,128,0,19866:0:0:0:0:
448,192,19866,128,0,20320:0:0:0:0:
320,192,20320,1,0,0:0:0:0:
64,192,20411,128,0,20684:0:0:0:0:
320,192,20593,1,0,0:0:0:0:
192,192,20684,1,0,0:0:0:0:
192,192,20956,128,0,21229:0:0:0:0:
320,192,21229,128,0,21502:0:0:0:0:
448,192,21502,128,0,21775:0:0:0:0:
320,192,21956,1,0,0:0:0:0:
64,192,22047,128,0,22320:0:0:0:0:
192,192,22320,128,0,22593:0:0:0:0:
64,192,22593,128,0,22866:0:0:0:0:
320,192,22866,128,0,23138:0:0:0:0:
448,192,23138,128,0,23411:0:0:0:0:
320,192,23593,1,0,0:0:0:0:
64,192,23684,128,0,23956:0:0:0:0:
192,192,23956,128,0,24229:0:0:0:0:
320,192,24229,1,0,0:0:0:0:
448,192,24502,1,0,0:0:0:0:
192,192,24775,128,0,25047:0:0:0:0:
320,192,25229,1,0,0:0:0:0:
64,192,25320,128,0,25593:0:0:0:0:
320,192,25593,128,0,25866:0:0:0:0:
64,192,25866,128,0,26138:0:0:0:0:
192,192,26138,128,0,26411:0:0:0:0:
448,192,26411,128,0,26866:0:0:0:0:
320,192,26866,1,0,0:0:0:0:
192,192,26956,128,0,27229:0:0:0:0:
448,192,27229,1,0,0:0:0:0:
320,192,27411,1,0,0:0:0:0:
64,192,27502,128,0,27775:0:0:0:0:
320,192,27684,1,0,0:0:0:0:
192,192,27775,128,0,28047:0:0:0:0:
320,192,27956,1,0,0:0:0:0:
64,192,28047,1,4,0:0:0:0:
448,192,28047,128,0,28320:0:0:0:0:
320,192,28502,1,0,0:0:0:0:
64,192,28593,1,0,0:0:0:0:
192,192,28866,1,0,0:0:0:0:
64,192,29138,128,0,29411:0:0:0:0:
320,192,29411,128,0,29684:0:0:0:0:
192,192,29684,128,0,30138:0:0:0:0:
64,192,30138,1,0,0:0:0:0:
448,192,30229,128,0,30502:0:0:0:0:
64,192,30411,1,0,0:0:0:0:
320,192,30502,1,0,0:0:0:0:
64,192,30775,128,0,31047:0:0:0:0:
192,192,31047,128,0,31320:0:0:0:0:
320,192,31320,128,0,31593:0:0:0:0:
448,192,31593,128,0,32138:0:0:0:0:
192,192,31775,1,0,0:0:0:0:
64,192,31866,1,0,0:0:0:0:
64,192,32138,1,0,0:0:0:0:
448,192,32411,128,0,32684:0:0:0:0:
320,192,32684,128,0,32956:0:0:0:0:
64,192,32956,128,0,33411:0:0:0:0:
192,192,33411,1,0,0:0:0:0:
448,192,33502,1,0,0:0:0:0:
448,192,33775,1,0,0:0:0:0:
192,192,34047,128,0,34320:0:0:0:0:
320,192,34320,128,0,34593:0:0:0:0:
64,192,34593,1,4,0:0:0:0:
448,192,34593,1,0,0:0:0:0:
320,192,34866,1,0,0:0:0:0:
192,192,35138,128,0,35411:0:0:0:0:
448,192,35320,1,0,0:0:0:0:
320,192,35411,1,0,0:0:0:0:
64,192,35684,128,0,35956:0:0:0:0:
448,192,35956,128,0,36229:0:0:0:0:
192,192,36229,128,0,36684:0:0:0:0:
64,192,36684,1,0,0:0:0:0:
448,192,36775,1,0,0:0:0:0:
64,192,36956,1,0,0:0:0:0:
448,192,37047,1,0,0:0:0:0:
192,192,37320,128,0,37593:0:0:0:0:
448,192,37593,128,0,37866:0:0:0:0:
320,192,37866,128,0,38320:0:0:0:0:
192,192,38320,1,0,0:0:0:0:
64,192,38411,1,0,0:0:0:0:
320,192,38684,128,0,38956:0:0:0:0:
192,192,38956,128,0,39229:0:0:0:0:
64,192,39229,128,0,39502:0:0:0:0:
192,192,39502,128,0,39956:0:0:0:0:
320,192,39956,1,0,0:0:0:0:
64,192,40047,1,0,0:0:0:0:
320,192,40229,1,0,0:0:0:0:
448,192,40320,1,2,0:0:0:0:
192,192,40502,1,8,0:0:0:0:
320,192,40593,1,2,0:0:0:0:
64,192,40775,1,8,0:0:0:0:
192,192,40866,1,2,0:0:0:0:
448,192,41047,1,8,0:0:0:0:
64,192,41138,1,4,0:0:0:0:
320,192,41138,128,2,41411:0:0:0:0:
448,192,41411,128,8,41684:0:0:0:0:
64,192,41593,1,2,0:0:0:0:
192,192,41684,128,8,41956:0:0:0:0:
448,192,41956,128,2,42229:0:0:0:0:
320,192,42229,128,8,42502:0:0:0:0:
192,192,42502,1,8,0:0:0:0:
448,192,42775,1,2,0:0:0:0:
192,192,42956,1,8,0:0:0:0:
320,192,43047,1,0,0:0:0:0:
64,192,43229,1,2,0:0:0:0:
192,192,43320,1,8,0:0:0:0:
448,192,43593,128,2,43866:0:0:0:0:
320,192,43866,128,8,44138:0:0:0:0:
64,192,44047,1,2,0:0:0:0:
192,192,44138,1,8,0:0:0:0:
192,192,44411,128,2,44956:0:0:0:0:
448,192,44684,1,0,0:0:0:0:
320,192,44866,1,2,0:0:0:0:
64,192,44956,1,8,0:0:0:0:
320,192,45229,1,2,0:0:0:0:
64,192,45411,1,0,0:0:0:0:
192,192,45502,1,8,0:0:0:0:
320,192,45775,128,8,46047:0:0:0:0:
448,192,46047,128,2,46320:0:0:0:0:
192,192,46229,1,8,0:0:0:0:
64,192,46320,1,0,0:0:0:0:
448,192,46502,1,2,0:0:0:0:
320,192,46593,128,8,46866:0:0:0:0:
64,192,46775,1,0,0:0:0:0:
192,192,46866,128,2,47320:0:0:0:0:
320,192,47047,1,8,0:0:0:0:
448,192,47138,1,8,0:0:0:0:
64,192,47320,1,0,0:0:0:70:tom01.wav
448,192,47411,1,2,0:0:0:0:
320,192,47593,1,0,0:0:0:70:tom03.wav
64,192,47684,128,4,47956:0:0:0:0:
192,192,47684,1,2,0:0:0:0:
320,192,47956,1,8,0:0:0:0:
192,192,48138,1,2,0:0:0:0:
320,192,48229,128,8,48502:0:0:0:0:
64,192,48502,1,2,0:0:0:0:
448,192,48775,128,8,49047:0:0:0:0:
320,192,49047,1,8,0:0:0:0:
192,192,49320,1,2,0:0:0:0:
320,192,49502,1,8,0:0:0:0:
64,192,49593,1,0,0:0:0:0:
64,192,49775,1,2,0:0:0:0:
320,192,49866,128,8,50138:0:0:0:0:
192,192,50138,128,2,50411:0:0:0:0:
64,192,50411,1,8,0:0:0:0:
320,192,50593,1,0,0:0:0:0:
448,192,50684,128,8,50956:0:0:0:0:
64,192,50956,128,2,51775:0:0:0:0:
448,192,51138,1,8,0:0:0:0:
192,192,51229,1,0,0:0:0:0:
192,192,51411,1,2,0:0:0:0:
448,192,51502,1,8,0:0:0:0:
320,192,51775,128,2,52229:0:0:0:0:
448,192,52047,1,8,0:0:0:0:
64,192,52229,1,2,0:0:0:0:
192,192,52320,1,8,0:0:0:0:
320,192,52502,1,0,0:0:0:0:
448,192,52593,128,2,52866:0:0:0:0:
192,192,52775,1,8,0:0:0:0:
64,192,52866,1,0,0:0:0:0:
64,192,53047,1,2,0:0:0:0:
448,192,53138,1,8,0:0:0:0:
320,192,53229,1,8,0:0:0:0:
192,192,53320,1,8,0:0:0:0:
64,192,53411,128,2,53866:0:0:0:0:
448,192,53593,1,8,0:0:0:0:
320,192,53684,1,8,0:0:0:0:
192,192,53866,1,0,0:0:0:70:tom01.wav
320,192,53956,128,8,54229:0:0:0:0:
64,192,54138,1,0,0:0:0:70:tom03.wav
192,192,54229,1,4,0:0:0:0:
448,192,54229,128,2,54502:0:0:0:0:
320,192,54502,1,8,0:0:0:0:
192,192,54684,1,0,0:0:0:0:
64,192,54775,128,8,55047:0:0:0:0:
320,192,55047,1,2,0:0:0:0:
64,192,55320,1,8,0:0:0:0:
448,192,55593,1,8,0:0:0:0:
192,192,55866,128,2,56684:0:0:0:0:
64,192,56138,1,8,0:0:0:0:
64,192,56411,1,8,0:0:0:0:
448,192,56684,1,2,0:0:0:0:
320,192,56866,1,8,0:0:0:0:
64,192,56956,128,0,57229:0:0:0:0:
448,192,57138,1,2,0:0:0:0:
192,192,57229,128,8,57502:0:0:0:0:
320,192,57502,1,4,0:0:0:0:
448,192,57502,128,2,58320:0:0:0:0:
64,192,57775,1,8,0:0:0:0:
64,192,58047,1,8,0:0:0:0:
320,192,58320,128,2,58593:0:0:0:0:
192,192,58593,128,8,58866:0:0:0:0:
64,192,58866,128,8,59138:0:0:0:0:
320,192,59138,128,2,59411:0:0:0:0:
64,192,59411,1,8,0:0:0:0:
192,192,59593,1,2,0:0:0:0:
320,192,59684,1,8,0:0:0:0:
64,192,59866,1,8,0:0:0:0:
448,192,59956,128,8,60502:0:0:0:0:
192,192,60138,1,0,0:0:0:70:tom01.wav
64,192,60229,1,8,0:0:0:0:
320,192,60411,1,0,0:0:0:70:tom03.wav
64,192,60502,128,8,60775:0:0:0:0:
320,192,60775,1,4,0:0:0:0:
448,192,60775,1,2,0:0:0:0:
320,192,61047,1,8,0:0:0:0:
192,192,61229,1,0,0:0:0:0:
64,192,61320,128,8,61593:0:0:0:0:
320,192,61593,1,2,0:0:0:0:
64,192,61866,128,8,62138:0:0:0:0:
448,192,62138,1,8,0:0:0:0:
192,192,62411,128,2,63229:0:0:0:0:
448,192,62684,1,8,0:0:0:0:
448,192,62956,1,8,0:0:0:0:
64,192,63229,1,2,0:0:0:0:
320,192,63411,1,8,0:0:0:0:
192,192,63502,1,8,0:0:0:0:
192,192,63684,1,2,0:0:0:0:
320,192,63775,1,4,0:0:0:0:
448,192,63775,1,0,0:0:0:0:
448,192,64047,128,2,64593:0:0:0:0:
64,192,64320,1,8,0:0:0:0:
64,192,64593,1,4,0:0:0:0:
192,192,64593,1,0,0:0:0:0:
320,192,64866,128,2,65138:0:0:0:0:
64,192,65138,128,4,65411:0:0:0:0:
192,192,65138,1,0,0:0:0:0:
320,192,65411,1,0,0:0:0:70:cymbal.wav
448,192,65411,128,0,65684:0:0:0:0:
192,192,65684,128,2,65956:0:0:0:0:
320,192,65956,1,4,0:0:0:0:
448,192,65956,1,0,0:0:0:0:
64,192,66229,1,0,0:0:0:70:cymbal.wav
192,192,66229,1,0,0:0:0:0:
320,192,66502,128,4,66956:0:0:0:0:
448,192,66502,1,8,0:0:0:0:
64,192,66684,1,0,0:0:0:70:tom01.wav
192,192,66775,1,0,0:0:0:70:tom02.wav
64,192,66956,128,0,67229:0:0:0:70:tom04.wav
448,192,67047,1,8,0:0:0:0:
192,192,67229,1,0,0:0:0:70:tom03.wav
320,192,67320,1,4,0:0:0:0:
448,192,67320,1,2,0:0:0:0:
192,192,67502,1,0,0:0:0:0:
320,192,67593,1,0,0:0:0:0:
64,192,67729,1,0,0:0:0:0:
192,192,67797,1,0,0:0:0:0:
320,192,67866,1,0,0:0:0:0:
448,192,68047,1,0,0:0:0:0:
320,192,68138,1,0,0:0:0:0:
192,192,68320,1,8,0:0:0:0:
64,192,68411,1,0,0:0:0:0:
192,192,68593,1,0,0:0:0:0:
448,192,68684,1,8,0:0:0:0:
320,192,68866,1,0,0:0:0:0:
64,192,68956,1,4,0:0:0:0:
192,192,68956,1,2,0:0:0:0:
448,192,69138,1,0,0:0:0:0:
320,192,69229,1,0,0:0:0:0:
192,192,69411,1,0,0:0:0:0:
64,192,69502,1,0,0:0:0:0:
192,192,69684,1,0,0:0:0:0:
320,192,69775,1,4,0:0:0:0:
448,192,69775,1,2,0:0:0:0:
64,192,69956,1,0,0:0:0:0:
192,192,70047,1,0,0:0:0:0:
448,192,70229,1,0,0:0:0:0:
320,192,70320,1,2,0:0:0:0:
192,192,70502,1,8,0:0:0:0:
64,192,70593,1,2,0:0:0:0:
64,192,70866,1,0,0:0:0:0:
192,192,70956,1,0,0:0:0:0:
320,192,71093,1,0,0:0:0:0:
448,192,71184,1,0,0:0:0:0:
320,192,71366,1,0,0:0:0:0:
192,192,71456,1,0,0:0:0:0:
64,192,71593,1,8,0:0:0:0:
320,192,71684,1,0,0:0:0:0:
64,192,71775,1,0,0:0:0:0:
192,192,71866,1,0,0:0:0:0:
320,192,71956,1,4,0:0:0:0:
448,192,71956,1,8,0:0:0:0:
64,192,72138,1,0,0:0:0:0:
320,192,72229,1,4,0:0:0:0:
448,192,72229,1,2,0:0:0:0:
192,192,72366,1,0,0:0:0:0:
320,192,72434,1,0,0:0:0:0:
448,192,72502,1,0,0:0:0:0:
320,192,72684,1,0,0:0:0:0:
192,192,72775,1,0,0:0:0:0:
64,192,72956,1,0,0:0:0:0:
320,192,73047,1,2,0:0:0:0:
448,192,73229,1,8,0:0:0:0:
192,192,73320,1,0,0:0:0:70:tom02.wav
320,192,73502,1,0,0:0:0:70:tom04.wav
64,192,73593,1,0,0:0:0:70:cymbal.wav
192,192,73684,1,0,0:0:0:0:
320,192,73775,1,0,0:0:0:0:
64,192,73866,1,4,0:0:0:0:
448,192,73866,1,2,0:0:0:0:
320,192,74047,1,8,0:0:0:0:
192,192,74138,1,0,0:0:0:0:
64,192,74320,1,2,0:0:0:0:
448,192,74411,1,8,0:0:0:0:
64,192,74593,1,0,0:0:0:0:
320,192,74684,1,0,0:0:0:70:cymbal.wav
448,192,74684,1,0,0:0:0:0:
64,192,74956,1,0,0:0:0:70:cymbal.wav
192,192,74956,1,0,0:0:0:0:
192,192,75229,1,4,0:0:0:0:
320,192,75229,1,2,0:0:0:0:
448,192,75411,1,8,0:0:0:0:
192,192,75502,1,0,0:0:0:0:
64,192,75684,1,2,0:0:0:0:
320,192,75775,1,8,0:0:0:0:
64,192,75956,1,0,0:0:0:0:
320,192,76047,1,0,0:0:0:70:cymbal.wav
448,192,76047,1,0,0:0:0:0:
64,192,76320,1,0,0:0:0:70:cymbal.wav
192,192,76320,1,0,0:0:0:0:
320,192,76592,1,4,0:0:0:0:
448,192,76592,1,0,0:0:0:0:
320,192,76773,1,8,0:0:0:0:
192,192,76864,1,0,0:0:0:0:
64,192,77001,1,0,0:0:0:0:
192,192,77069,1,0,0:0:0:0:
448,192,77137,1,8,0:0:0:0:
320,192,77273,1,0,0:0:0:0:
448,192,77342,1,0,0:0:0:0:
64,192,77410,1,2,0:0:0:0:
192,192,77501,1,0,0:0:0:0:
320,192,77592,1,8,0:0:0:0:
448,192,77682,128,0,77864:0:0:0:0:
320,192,77864,1,2,0:0:0:0:
64,192,77955,1,8,0:0:0:0:
192,192,78092,1,0,0:0:0:0:
64,192,78228,128,2,79046:0:0:0:0:
448,192,78228,1,0,0:0:0:0:
192,192,78410,1,8,0:0:0:0:
320,192,78501,1,0,0:0:0:0:
320,192,78682,1,2,0:0:0:0:
192,192,78773,1,8,0:0:0:0:
448,192,79046,1,2,0:0:0:0:
448,192,79319,1,8,0:0:0:0:
448,192,79592,1,8,0:0:0:0:
64,192,79864,128,2,80137:0:0:0:0:
448,192,80046,1,8,0:0:0:0:
192,192,80137,1,2,0:0:0:0:
320,192,80319,1,0,0:0:0:70:tom01.wav
192,192,80410,1,2,0:0:0:0:
64,192,80592,1,0,0:0:0:70:tom02.wav
320,192,80682,128,2,80955:0:0:0:0:
192,192,80864,1,0,0:0:0:70:tom03.wav
448,192,80955,1,2,0:0:0:0:
64,192,81137,1,8,0:0:0:0:
448,192,81228,1,8,0:0:0:0:
64,192,81501,1,4,0:0:0:0:
320,192,81501,128,2,81773:0:0:0:0:
448,192,81773,128,8,82046:0:0:0:0:
64,192,81955,1,2,0:0:0:0:
192,192,82046,128,8,82319:0:0:0:0:
320,192,82319,128,2,82592:0:0:0:0:
448,192,82592,128,8,82864:0:0:0:0:
192,192,82864,1,8,0:0:0:0:
448,192,83137,1,2,0:0:0:0:
192,192,83319,1,8,0:0:0:0:
320,192,83410,1,0,0:0:0:0:
64,192,83592,1,2,0:0:0:0:
192,192,83682,128,8,83955:0:0:0:0:
320,192,83955,128,2,84228:0:0:0:0:
64,192,84228,128,8,84501:0:0:0:0:
320,192,84410,1,2,0:0:0:0:
448,192,84501,128,8,84773:0:0:0:0:
192,192,84773,128,2,85319:0:0:0:0:
320,192,84955,1,8,0:0:0:0:
448,192,85046,1,0,0:0:0:0:
320,192,85228,1,2,0:0:0:0:
64,192,85319,1,8,0:0:0:0:
64,192,85592,128,2,85864:0:0:0:0:
192,192,85864,128,8,86137:0:0:0:0:
320,192,86137,128,8,86410:0:0:0:0:
448,192,86410,1,2,0:0:0:0:
320,192,86592,1,8,0:0:0:0:
64,192,86682,1,0,0:0:0:0:
64,192,86864,1,2,0:0:0:0:
320,192,86955,128,8,87228:0:0:0:0:
64,192,87228,128,2,87501:0:0:0:0:
448,192,87410,1,8,0:0:0:0:
320,192,87501,1,8,0:0:0:0:
192,192,87592,1,8,0:0:0:0:
64,192,87682,1,0,0:0:0:70:tom01.wav
448,192,87773,1,2,0:0:0:0:
320,192,87955,1,0,0:0:0:70:tom03.wav
64,192,88046,1,4,0:0:0:0:
192,192,88046,128,2,88319:0:0:0:0:
320,192,88228,1,8,0:0:0:0:
448,192,88319,128,0,88592:0:0:0:0:
64,192,88501,1,2,0:0:0:0:
320,192,88592,128,8,88864:0:0:0:0:
192,192,88864,1,2,0:0:0:0:
448,192,89137,128,8,89410:0:0:0:0:
320,192,89410,128,8,89682:0:0:0:0:
192,192,89682,128,2,89955:0:0:0:0:
448,192,89864,1,8,0:0:0:0:
64,192,89955,128,0,90228:0:0:0:0:
320,192,90137,1,2,0:0:0:0:
448,192,90228,128,8,90501:0:0:0:0:
192,192,90501,128,2,90773:0:0:0:0:
64,192,90773,1,8,0:0:0:0:
448,192,91046,128,8,91319:0:0:0:0:
64,192,91319,128,2,92046:0:0:0:0:
448,192,91501,1,8,0:0:0:0:
192,192,91592,1,0,0:0:0:0:
192,192,91773,1,2,0:0:0:0:
448,192,91864,1,8,0:0:0:0:
320,192,92046,1,0,0:0:0:0:
448,192,92137,1,2,0:0:0:0:
192,192,92410,1,8,0:0:0:0:
64,192,92592,1,0,0:0:0:0:
320,192,92682,1,8,0:0:0:0:
448,192,92955,128,2,93228:0:0:0:0:
192,192,93137,1,8,0:0:0:0:
320,192,93228,1,0,0:0:0:0:
320,192,93410,1,2,0:0:0:0:
192,192,93501,128,8,93773:0:0:0:0:
320,192,93773,128,2,94046:0:0:0:0:
64,192,94046,128,8,94319:0:0:0:0:
192,192,94319,128,8,94592:0:0:0:0:
320,192,94592,1,4,0:0:0:0:
448,192,94592,128,2,94864:0:0:0:0:
64,192,94773,1,8,0:0:0:0:
320,192,94864,128,0,95046:0:0:0:0:
192,192,95046,1,2,0:0:0:0:
64,192,95137,1,8,0:0:0:0:
320,192,95410,1,2,0:0:0:0:
64,192,95682,1,8,0:0:0:0:
448,192,95955,1,8,0:0:0:0:
192,192,96228,128,2,96773:0:0:0:0:
448,192,96410,1,8,0:0:0:0:
320,192,96501,1,0,0:0:0:0:
320,192,96682,1,2,0:0:0:0:
448,192,96773,1,8,0:0:0:0:
192,192,96955,1,0,0:0:0:0:
320,192,97046,1,2,0:0:0:0:
64,192,97319,1,8,0:0:0:0:
448,192,97592,1,8,0:0:0:0:
192,192,97864,128,2,98137:0:0:0:0:
448,192,98046,1,8,0:0:0:0:
320,192,98137,1,0,0:0:0:0:
320,192,98319,1,2,0:0:0:0:
448,192,98410,128,8,98682:0:0:0:0:
320,192,98682,128,2,98955:0:0:0:0:
192,192,98955,128,8,99228:0:0:0:0:
320,192,99228,128,8,99501:0:0:0:0:
64,192,99501,128,2,99773:0:0:0:0:
320,192,99682,1,8,0:0:0:0:
192,192,99773,128,0,100046:0:0:0:0:
448,192,99955,1,0,0:0:0:70:tom01.wav
320,192,100046,128,8,100319:0:0:0:0:
64,192,100228,1,0,0:0:0:70:tom03.wav
448,192,100319,128,2,100592:0:0:0:0:
192,192,100501,1,8,0:0:0:0:
320,192,100592,128,8,100864:0:0:0:0:
64,192,100773,1,0,0:0:0:70:tom01.wav
192,192,100864,128,8,101137:0:0:0:0:
320,192,101137,1,4,0:0:0:0:
448,192,101137,128,2,101410:0:0:0:0:
64,192,101319,1,8,0:0:0:0:
320,192,101410,128,0,101592:0:0:0:0:
192,192,101592,1,2,0:0:0:0:
64,192,101682,1,8,0:0:0:0:
320,192,101955,1,2,0:0:0:0:
64,192,102228,1,8,0:0:0:0:
448,192,102501,1,8,0:0:0:0:
192,192,102773,128,2,103228:0:0:0:0:
448,192,102955,1,8,0:0:0:0:
320,192,103046,1,0,0:0:0:0:
320,192,103228,1,2,0:0:0:0:
448,192,103319,1,8,0:0:0:0:
192,192,103501,1,0,0:0:0:0:
320,192,103592,1,2,0:0:0:0:
64,192,103864,1,8,0:0:0:0:
448,192,104137,1,8,0:0:0:0:
192,192,104410,128,2,104682:0:0:0:0:
448,192,104592,1,8,0:0:0:0:
320,192,104682,1,0,0:0:0:0:
320,192,104864,1,2,0:0:0:0:
448,192,104955,128,8,105228:0:0:0:0:
320,192,105228,128,2,105501:0:0:0:0:
192,192,105501,128,8,105773:0:0:0:0:
320,192,105773,128,8,106046:0:0:0:0:
64,192,106046,128,2,106773:0:0:0:0:
192,192,106228,1,8,0:0:0:0:
448,192,106319,1,8,0:0:0:0:
192,192,106501,1,10,0:0:0:0:
448,192,106592,1,8,0:0:0:0:
192,192,106773,1,8,0:0:0:0:
320,192,106864,1,4,0:0:0:0:
448,192,106864,128,2,107955:0:0:0:0:
