osu file format v14

[General]
AudioFilename: audio.mp3
AudioLeadIn: 0
PreviewTime: 41138
Countdown: 0
SampleSet: Soft
StackLeniency: 0.7
Mode: 3
LetterboxInBreaks: 0
SpecialStyle: 0
WidescreenStoryboard: 1

[Editor]
Bookmarks: 5775,14956,28047,41138,54229,67320,81502,94593
DistanceSpacing: 0.4
BeatDivisor: 3
GridSize: 16
TimelineZoom: 0.9500029

[Metadata]
Title:CHOCOLATE PHILOSOPHY
TitleUnicode:CHOCOLATE PHILOSOPHY
Artist:Yu Tokiwa
ArtistUnicode:常盤ゆう
Creator:Xnery
Version:Easy
Source:GUITARFREAKS 8thMIX & drummania 7thMIX
Tags:tokiwa yuu socrates gf8 dm7 gitadora ddr dancedancerevolution dance revolution ultramix4 a20 masterpiece silver pop'n music 9 ee'mall 14 fever! reflec beat groovin'!! upper plus volzza 2 bemani focus pack 01 ノスタルジア nostalgia op. 2 スウィングワルツ メリーゴーラウンド merry go round chanson jazz swing waltz english engrish video game tomosuke funaki 舟木智介 yu_tokiwa mutsuhiko izumi 泉陸奥彦 hirofumi mizuno 水野 弘文 marble LC-1363 -re edition- LC-1785 やまちゃん yama-chang ギターフリークス&ドラムマニア ベスト・トラックス kola-024 best tracks konami digital music entertainment media コナミ accordion 573
BeatmapID:3057797
BeatmapSetID:1453807

[Difficulty]
HPDrainRate:6
CircleSize:4
OverallDifficulty:6
ApproachRate:5
SliderMultiplier:1.4
SliderTickRate:1

[Events]
//Background and Video events
0,0,"chocrates.jpg",0,0
//Break Periods
//Storyboard Layer 0 (Background)
//Storyboard Layer 1 (Fail)
//Storyboard Layer 2 (Pass)
//Storyboard Layer 3 (Foreground)
//Storyboard Layer 4 (Overlay)
//Storyboard Sound Samples
Sample,2047,0,"soft-hitclap.wav",30
Sample,2320,0,"soft-hitwhistle.wav",30
Sample,3684,0,"soft-hitclap.wav",30
Sample,3956,0,"soft-hitwhistle.wav",30
Sample,4047,0,"soft-hitclap.wav",30
Sample,5320,0,"soft-hitclap.wav",30
Sample,5593,0,"soft-hitwhistle.wav",30
Sample,6956,0,"soft-hitclap.wav",30
Sample,7229,0,"soft-hitwhistle.wav",30
Sample,7775,0,"soft-hitclap.wav",30
Sample,8047,0,"tom02.wav",30
Sample,8320,0,"tom04.wav",30
Sample,8593,0,"soft-hitclap.wav",30
Sample,8866,0,"soft-hitwhistle.wav",30
Sample,10229,0,"soft-hitclap.wav",30
Sample,10502,0,"soft-hitwhistle.wav",30
Sample,10593,0,"soft-hitclap.wav",30
Sample,11866,0,"soft-hitclap.wav",30
Sample,12138,0,"soft-hitwhistle.wav",30
Sample,13502,0,"soft-hitclap.wav",30
Sample,13775,0,"soft-hitwhistle.wav",30
Sample,13866,0,"soft-hitclap.wav",30
Sample,14593,0,"tom03.wav",30
Sample,14866,0,"tom04.wav",30
Sample,40411,0,"soft-hitclap.wav",30
Sample,40502,0,"soft-hitclap.wav",30
Sample,40775,0,"soft-hitclap.wav",30
Sample,40956,0,"soft-hitclap.wav",30
Sample,41047,0,"soft-hitclap.wav",30
Sample,41593,0,"soft-hitwhistle.wav",30
Sample,42956,0,"soft-hitclap.wav",30
Sample,43229,0,"soft-hitwhistle.wav",30
Sample,44047,0,"soft-hitwhistle.wav",30
Sample,44866,0,"soft-hitwhistle.wav",30
Sample,46229,0,"soft-hitclap.wav",30
Sample,46502,0,"soft-hitwhistle.wav",30
Sample,47047,0,"soft-hitclap.wav",30
Sample,47138,0,"soft-hitclap.wav",30
Sample,47229,0,"soft-hitclap.wav",30
Sample,47320,0,"tom01.wav",30
Sample,47502,0,"tom02.wav",30
Sample,47593,0,"tom03.wav",30
Sample,48138,0,"soft-hitwhistle.wav",30
Sample,49502,0,"soft-hitclap.wav",30
Sample,49775,0,"soft-hitwhistle.wav",30
Sample,51138,0,"soft-hitclap.wav",30
Sample,51411,0,"soft-hitwhistle.wav",30
Sample,51502,0,"soft-hitclap.wav",30
Sample,52047,0,"soft-hitclap.wav",30
Sample,52229,0,"soft-hitwhistle.wav",30
Sample,52775,0,"soft-hitclap.wav",30
Sample,53047,0,"soft-hitwhistle.wav",30
Sample,53229,0,"soft-hitclap.wav",30
Sample,53320,0,"soft-hitclap.wav",30
Sample,53593,0,"soft-hitclap.wav",30
Sample,53684,0,"soft-hitclap.wav",30
Sample,53866,0,"tom01.wav",30
Sample,54138,0,"tom03.wav",30
Sample,55047,0,"soft-hitwhistle.wav",30
Sample,56138,0,"soft-hitclap.wav",30
Sample,56411,0,"soft-hitclap.wav",30
Sample,56684,0,"soft-hitwhistle.wav",30
Sample,56866,0,"soft-hitclap.wav",30
Sample,57138,0,"soft-hitwhistle.wav",30
Sample,57775,0,"soft-hitclap.wav",30
Sample,58047,0,"soft-hitclap.wav",30
Sample,59411,0,"soft-hitclap.wav",30
Sample,59593,0,"soft-hitwhistle.wav",30
Sample,59684,0,"soft-hitclap.wav",30
Sample,59775,0,"soft-hitclap.wav",30
Sample,59866,0,"soft-hitclap.wav",30
Sample,60138,0,"tom01.wav",30
Sample,60411,0,"tom03.wav",30
Sample,60684,0,"tom04.wav",30
Sample,61593,0,"soft-hitwhistle.wav",30
Sample,62684,0,"soft-hitclap.wav",30
Sample,62956,0,"soft-hitclap.wav",30
Sample,63229,0,"soft-hitwhistle.wav",30
Sample,63411,0,"soft-hitclap.wav",30
Sample,63684,0,"soft-hitwhistle.wav",30
Sample,66684,0,"tom01.wav",30
Sample,66775,0,"tom02.wav",30
Sample,66866,0,"tom03.wav",30
Sample,66956,0,"tom04.wav",30
Sample,67229,0,"tom03.wav",30
Sample,68320,0,"soft-hitclap.wav",30
Sample,70411,0,"soft-hitwhistle.wav",30
Sample,70502,0,"soft-hitclap.wav",30
Sample,71593,0,"soft-hitclap.wav",30
Sample,73229,0,"soft-hitclap.wav",30
Sample,73320,0,"tom02.wav",30
Sample,73502,0,"tom04.wav",30
Sample,74047,0,"soft-hitclap.wav",30
Sample,74320,0,"soft-hitwhistle.wav",30
Sample,75411,0,"soft-hitclap.wav",30
Sample,75684,0,"soft-hitwhistle.wav",30
Sample,76773,0,"soft-hitclap.wav",30
Sample,77046,0,"soft-hitwhistle.wav",30
Sample,77592,0,"soft-hitclap.wav",30
Sample,77864,0,"soft-hitwhistle.wav",30
Sample,78410,0,"soft-hitclap.wav",30
Sample,78682,0,"soft-hitwhistle.wav",30
Sample,78773,0,"soft-hitclap.wav",30
Sample,80046,0,"soft-hitclap.wav",30
Sample,80319,0,"tom01.wav",30
Sample,80592,0,"tom02.wav",30
Sample,80864,0,"tom03.wav",30
Sample,81046,0,"soft-hitclap.wav",30
Sample,81137,0,"soft-hitclap.wav",30
Sample,81955,0,"soft-hitwhistle.wav",30
Sample,83319,0,"soft-hitclap.wav",30
Sample,83592,0,"soft-hitwhistle.wav",30
Sample,84410,0,"soft-hitwhistle.wav",30
Sample,84955,0,"soft-hitclap.wav",30
Sample,85228,0,"soft-hitwhistle.wav",30
Sample,86592,0,"soft-hitclap.wav",30
Sample,86864,0,"soft-hitwhistle.wav",30
Sample,87410,0,"soft-hitclap.wav",30
Sample,87501,0,"soft-hitclap.wav",30
Sample,87592,0,"soft-hitclap.wav",30
Sample,87682,0,"tom01.wav",30
Sample,87955,0,"tom03.wav",30
Sample,88228,0,"soft-hitclap.wav",30
Sample,88501,0,"soft-hitwhistle.wav",30
Sample,89864,0,"soft-hitclap.wav",30
Sample,90137,0,"soft-hitwhistle.wav",30
Sample,91501,0,"soft-hitclap.wav",30
Sample,91773,0,"soft-hitwhistle.wav",30
Sample,91864,0,"soft-hitclap.wav",30
Sample,92410,0,"soft-hitclap.wav",30
Sample,92682,0,"soft-hitclap.wav",30
Sample,93137,0,"soft-hitclap.wav",30
Sample,93410,0,"soft-hitwhistle.wav",30
Sample,94046,0,"soft-hitclap.wav",30
Sample,94773,0,"soft-hitclap.wav",30
Sample,95046,0,"soft-hitwhistle.wav",30
Sample,96410,0,"soft-hitclap.wav",30
Sample,96682,0,"soft-hitwhistle.wav",30
Sample,96773,0,"soft-hitclap.wav",30
Sample,98046,0,"soft-hitclap.wav",30
Sample,98319,0,"soft-hitwhistle.wav",30
Sample,99682,0,"soft-hitclap.wav",30
Sample,99955,0,"tom01.wav",30
Sample,100228,0,"tom03.wav",30
Sample,100501,0,"soft-hitclap.wav",30
Sample,100773,0,"tom01.wav",30
Sample,101319,0,"soft-hitclap.wav",30
Sample,101592,0,"soft-hitwhistle.wav",30
Sample,102955,0,"soft-hitclap.wav",30
Sample,103228,0,"soft-hitwhistle.wav",30
Sample,103319,0,"soft-hitclap.wav",30
Sample,104592,0,"soft-hitclap.wav",30
Sample,104864,0,"soft-hitwhistle.wav",30
Sample,106228,0,"soft-hitclap.wav",30
Sample,106410,0,"soft-hitclap.wav",30
Sample,106501,0,"soft-hitwhistle.wav",30
Sample,106501,0,"soft-hitclap.wav",30
Sample,106682,0,"soft-hitwhistle.wav",30
Sample,106773,0,"soft-hitclap.wav",30

[TimingPoints]
1866,272.727272727273,3,2,1,30,1,0
41138,-100,3,2,1,30,0,1
54229,-100,3,2,1,30,0,0
73866,272.727272727273,5,2,1,30,1,0
76592,272.727272727273,3,2,1,30,1,0
81501,-100,3,2,1,30,0,1
94592,-100,3,2,1,30,0,0

[HitObjects]
64,192,1320,128,0,1593:0:0:0:0:
192,192,1593,128,0,1866:0:0:0:0:
320,192,1866,1,4,0:0:0:0:
448,192,1866,128,2,2138:0:0:0:0:
192,192,2138,1,0,0:0:0:0:
64,192,2411,1,8,0:0:0:0:
320,192,2684,1,2,0:0:0:0:
64,192,2956,1,8,0:0:0:0:
448,192,3229,1,8,0:0:0:0:
320,192,3502,128,2,4047:0:0:0:0:
320,192,4320,1,2,0:0:0:0:
64,192,4593,1,8,0:0:0:0:
448,192,4866,1,8,0:0:0:0:
320,192,5138,128,2,5411:0:0:0:0:
320,192,5684,128,8,5956:0:0:0:0:
192,192,5956,128,2,6229:0:0:0:0:
64,192,6229,128,8,6502:0:0:0:0:
192,192,6502,128,8,6775:0:0:0:0:
320,192,6775,128,2,7047:0:0:0:0:
64,192,7047,128,0,7320:0:0:0:0:
192,192,7320,128,8,7593:0:0:0:0:
448,192,7593,128,2,7866:0:0:0:0:
320,192,7866,128,8,8138:0:0:0:0:
192,192,8138,128,2,8411:0:0:0:0:
320,192,8411,1,4,0:0:0:0:
448,192,8411,128,2,8684:0:0:0:0:
192,192,8684,1,0,0:0:0:0:
64,192,8956,1,8,0:0:0:0:
320,192,9229,1,2,0:0:0:0:
64,192,9502,1,8,0:0:0:0:
448,192,9775,1,8,0:0:0:0:
320,192,10047,128,2,10593:0:0:0:0:
320,192,10866,1,2,0:0:0:0:
64,192,11138,1,8,0:0:0:0:
448,192,11411,1,8,0:0:0:0:
320,192,11684,128,2,11956:0:0:0:0:
320,192,12229,128,8,12502:0:0:0:0:
192,192,12502,128,2,12775:0:0:0:0:
64,192,12775,128,8,13047:0:0:0:0:
192,192,13047,128,8,13320:0:0:0:0:
320,192,13320,128,2,14411:0:0:0:0:
192,192,14138,1,8,0:0:0:0:
64,192,14411,128,0,14684:0:0:0:70:tom01.wav
192,192,14684,128,0,14956:0:0:0:70:tom03.wav
320,192,14956,1,4,0:0:0:0:
448,192,14956,128,2,15502:0:0:0:0:
320,192,15502,128,0,15775:0:0:0:0:
64,192,15775,128,0,16047:0:0:0:0:
192,192,16047,128,0,16320:0:0:0:0:
320,192,16320,128,0,16593:0:0:0:0:
448,192,16593,128,0,16866:0:0:0:0:
64,192,17138,1,0,0:0:0:0:
192,192,17411,128,0,17684:0:0:0:0:
320,192,17684,1,0,0:0:0:0:
448,192,17956,128,0,18229:0:0:0:0:
64,192,18229,128,0,18502:0:0:0:0:
320,192,18775,1,0,0:0:0:0:
192,192,19047,1,0,0:0:0:0:
64,192,19320,1,0,0:0:0:0:
192,192,19593,128,0,19866:0:0:0:0:
448,192,19866,128,0,20411:0:0:0:0:
320,192,20411,128,0,20684:0:0:0:0:
64,192,20956,128,0,21229:0:0:0:0:
192,192,21229,128,0,21502:0:0:0:0:
448,192,21502,1,0,0:0:0:0:
320,192,22047,128,0,22320:0:0:0:0:
64,192,22320,128,0,22593:0:0:0:0:
192,192,22593,1,0,0:0:0:0:
320,192,22866,128,0,23138:0:0:0:0:
448,192,23138,128,0,23411:0:0:0:0:
64,192,23684,1,0,0:0:0:0:
192,192,23956,128,0,24229:0:0:0:0:
320,192,24229,1,0,0:0:0:0:
448,192,24502,1,0,0:0:0:0:
320,192,24775,128,0,25047:0:0:0:0:
64,192,25320,1,0,0:0:0:0:
192,192,25593,1,0,0:0:0:0:
64,192,25866,128,0,26138:0:0:0:0:
320,192,26138,1,0,0:0:0:0:
448,192,26411,128,0,26956:0:0:0:0:
320,192,26956,128,0,27229:0:0:0:0:
448,192,27229,1,0,0:0:0:0:
64,192,27502,128,0,27775:0:0:0:0:
192,192,27775,128,0,28047:0:0:0:0:
320,192,28047,1,4,0:0:0:0:
448,192,28047,128,0,28320:0:0:0:0:
320,192,28593,1,0,0:0:0:0:
192,192,28866,1,0,0:0:0:0:
64,192,29138,128,0,29411:0:0:0:0:
320,192,29411,128,0,29684:0:0:0:0:
192,192,29684,128,0,30229:0:0:0:0:
448,192,30229,128,0,30502:0:0:0:0:
64,192,30775,128,0,31047:0:0:0:0:
192,192,31047,128,0,31320:0:0:0:0:
320,192,31320,128,0,31593:0:0:0:0:
448,192,31593,128,0,32138:0:0:0:0:
448,192,32411,128,0,32684:0:0:0:0:
192,192,32684,128,0,32956:0:0:0:0:
64,192,32956,128,0,33502:0:0:0:0:
448,192,33502,1,0,0:0:0:0:
64,192,34047,128,0,34320:0:0:0:0:
192,192,34320,128,0,34593:0:0:0:0:
320,192,34593,1,4,0:0:0:0:
448,192,34593,1,0,0:0:0:0:
192,192,34866,1,0,0:0:0:0:
64,192,35138,128,0,35411:0:0:0:0:
192,192,35684,1,0,0:0:0:0:
448,192,35956,1,0,0:0:0:0:
320,192,36229,128,0,36775:0:0:0:0:
448,192,36775,1,0,0:0:0:0:
192,192,37320,1,0,0:0:0:0:
448,192,37593,1,0,0:0:0:0:
320,192,37866,128,0,38411:0:0:0:0:
64,192,38411,1,0,0:0:0:0:
320,192,38684,128,0,38956:0:0:0:0:
192,192,38956,128,0,39229:0:0:0:0:
64,192,39229,1,0,0:0:0:0:
192,192,39502,128,0,40320:0:0:0:0:
448,192,40320,1,2,0:0:0:0:
320,192,40593,1,2,0:0:0:0:
192,192,40866,1,2,0:0:0:0:
64,192,41138,128,4,41411:0:0:0:0:
192,192,41138,1,2,0:0:0:0:
320,192,41411,1,8,0:0:0:0:
192,192,41684,1,8,0:0:0:0:
448,192,41956,1,2,0:0:0:0:
192,192,42229,1,8,0:0:0:0:
64,192,42502,1,8,0:0:0:0:
320,192,42775,1,2,0:0:0:0:
192,192,43047,1,0,0:0:0:0:
320,192,43320,1,8,0:0:0:0:
448,192,43593,128,2,43866:0:0:0:0:
320,192,43866,1,8,0:0:0:0:
192,192,44138,1,8,0:0:0:0:
64,192,44411,128,2,44956:0:0:0:0:
320,192,44956,128,8,45229:0:0:0:0:
64,192,45229,1,2,0:0:0:0:
192,192,45502,1,8,0:0:0:0:
320,192,45775,128,8,46047:0:0:0:0:
448,192,46047,128,2,46320:0:0:0:0:
320,192,46593,128,8,46866:0:0:0:0:
64,192,46866,128,2,47411:0:0:0:0:
320,192,47411,128,2,47684:0:0:0:0:
64,192,47684,1,4,0:0:0:0:
192,192,47684,128,2,47956:0:0:0:0:
320,192,47956,1,8,0:0:0:0:
192,192,48229,128,8,48502:0:0:0:0:
64,192,48502,1,2,0:0:0:0:
448,192,48775,128,8,49047:0:0:0:0:
192,192,49047,1,8,0:0:0:0:
320,192,49320,1,2,0:0:0:0:
64,192,49593,1,0,0:0:0:0:
320,192,49866,128,8,50138:0:0:0:0:
192,192,50138,128,2,50411:0:0:0:0:
64,192,50411,1,8,0:0:0:0:
448,192,50684,128,8,50956:0:0:0:0:
320,192,50956,128,2,51775:0:0:0:0:
64,192,51775,128,2,52320:0:0:0:0:
192,192,52320,128,8,52593:0:0:0:0:
448,192,52593,128,2,52866:0:0:0:0:
320,192,53138,128,8,53411:0:0:0:0:
64,192,53411,128,2,53956:0:0:0:0:
448,192,53956,128,8,54229:0:0:0:0:
64,192,54229,1,4,0:0:0:0:
192,192,54229,128,2,54502:0:0:0:0:
448,192,54502,1,8,0:0:0:0:
320,192,54775,128,8,55047:0:0:0:0:
64,192,55320,1,8,0:0:0:0:
448,192,55593,1,8,0:0:0:0:
192,192,55866,128,2,56684:0:0:0:0:
64,192,56956,128,0,57229:0:0:0:0:
192,192,57229,128,8,57502:0:0:0:0:
320,192,57502,1,4,0:0:0:0:
448,192,57502,128,2,58320:0:0:0:0:
320,192,58320,128,2,58593:0:0:0:0:
192,192,58593,128,8,58866:0:0:0:0:
64,192,58866,128,8,59138:0:0:0:0:
192,192,59138,128,2,59956:0:0:0:0:
448,192,59956,128,8,60229:0:0:0:0:
320,192,60229,128,8,60502:0:0:0:0:
192,192,60502,128,8,60775:0:0:0:0:
64,192,60775,1,4,0:0:0:0:
448,192,60775,1,2,0:0:0:0:
320,192,61047,1,8,0:0:0:0:
192,192,61320,128,8,61593:0:0:0:0:
64,192,61866,128,8,62138:0:0:0:0:
448,192,62138,1,8,0:0:0:0:
192,192,62411,128,2,63229:0:0:0:0:
64,192,63502,1,8,0:0:0:0:
192,192,63775,1,4,0:0:0:0:
320,192,63775,128,0,64047:0:0:0:0:
448,192,64047,128,2,64593:0:0:0:0:
64,192,64320,1,8,0:0:0:0:
192,192,64593,1,4,0:0:0:0:
320,192,64593,1,0,0:0:0:0:
64,192,64866,128,2,65138:0:0:0:0:
192,192,65138,128,4,65411:0:0:0:0:
448,192,65138,1,0,0:0:0:0:
320,192,65411,128,0,65684:0:0:0:70:cymbal.wav
192,192,65684,128,2,65956:0:0:0:0:
64,192,65956,1,4,0:0:0:0:
448,192,65956,1,0,0:0:0:0:
320,192,66229,1,0,0:0:0:70:cymbal.wav
64,192,66502,1,4,0:0:0:0:
448,192,66502,128,8,67047:0:0:0:0:
64,192,67047,1,8,0:0:0:0:
320,192,67320,1,4,0:0:0:0:
448,192,67320,1,2,0:0:0:0:
192,192,67593,1,0,0:0:0:0:
448,192,67866,1,0,0:0:0:0:
320,192,68138,1,0,0:0:0:0:
192,192,68411,1,0,0:0:0:0:
320,192,68684,1,8,0:0:0:0:
64,192,68956,1,4,0:0:0:0:
448,192,68956,1,2,0:0:0:0:
192,192,69229,1,0,0:0:0:0:
64,192,69502,1,0,0:0:0:0:
192,192,69775,1,4,0:0:0:0:
320,192,69775,1,2,0:0:0:0:
448,192,70047,1,0,0:0:0:0:
320,192,70320,1,2,0:0:0:0:
192,192,70593,1,2,0:0:0:0:
64,192,70866,1,0,0:0:0:0:
320,192,71138,1,0,0:0:0:0:
192,192,71411,1,0,0:0:0:0:
64,192,71684,1,0,0:0:0:0:
320,192,71956,1,4,0:0:0:0:
448,192,71956,1,8,0:0:0:0:
64,192,72229,1,4,0:0:0:0:
192,192,72229,1,2,0:0:0:0:
448,192,72502,1,0,0:0:0:0:
192,192,72775,1,0,0:0:0:0:
320,192,73047,1,2,0:0:0:0:
64,192,73593,1,0,0:0:0:70:cymbal.wav
192,192,73593,1,0,0:0:0:0:
320,192,73866,1,4,0:0:0:0:
448,192,73866,1,2,0:0:0:0:
64,192,74138,1,0,0:0:0:0:
192,192,74411,1,8,0:0:0:0:
320,192,74684,1,0,0:0:0:70:cymbal.wav
448,192,74684,1,0,0:0:0:0:
64,192,74956,1,0,0:0:0:70:cymbal.wav
192,192,74956,1,0,0:0:0:0:
320,192,75229,1,4,0:0:0:0:
448,192,75229,1,2,0:0:0:0:
64,192,75502,1,0,0:0:0:0:
192,192,75775,1,8,0:0:0:0:
320,192,76047,1,0,0:0:0:70:cymbal.wav
448,192,76047,1,0,0:0:0:0:
64,192,76320,1,0,0:0:0:70:cymbal.wav
192,192,76320,1,0,0:0:0:0:
320,192,76592,1,4,0:0:0:0:
448,192,76592,1,0,0:0:0:0:
64,192,76864,1,0,0:0:0:0:
192,192,77137,1,8,0:0:0:0:
320,192,77410,1,2,0:0:0:0:
448,192,77682,1,0,0:0:0:0:
320,192,77955,1,8,0:0:0:0:
192,192,78228,128,2,79046:0:0:0:0:
320,192,79046,1,2,0:0:0:0:
320,192,79319,1,8,0:0:0:0:
320,192,79592,1,8,0:0:0:0:
64,192,79864,128,2,80137:0:0:0:0:
192,192,80137,1,2,0:0:0:0:
192,192,80410,1,2,0:0:0:0:
320,192,80682,128,2,80955:0:0:0:0:
448,192,80955,1,2,0:0:0:0:
448,192,81228,1,8,0:0:0:0:
64,192,81501,1,4,0:0:0:0:
192,192,81501,128,2,81773:0:0:0:0:
448,192,81773,1,8,0:0:0:0:
192,192,82046,1,8,0:0:0:0:
320,192,82319,128,2,82592:0:0:0:0:
448,192,82592,1,8,0:0:0:0:
64,192,82864,1,8,0:0:0:0:
448,192,83137,1,2,0:0:0:0:
320,192,83410,1,0,0:0:0:0:
448,192,83682,1,8,0:0:0:0:
192,192,83955,128,2,84228:0:0:0:0:
320,192,84228,1,8,0:0:0:0:
448,192,84501,128,8,84773:0:0:0:0:
64,192,84773,128,2,85319:0:0:0:0:
320,192,85319,128,8,85592:0:0:0:0:
64,192,85592,1,2,0:0:0:0:
192,192,85864,1,8,0:0:0:0:
320,192,86137,128,8,86410:0:0:0:0:
448,192,86410,128,2,86682:0:0:0:0:
320,192,86955,128,8,87228:0:0:0:0:
64,192,87228,128,2,87773:0:0:0:0:
448,192,87773,128,2,88046:0:0:0:0:
64,192,88046,1,4,0:0:0:0:
192,192,88046,128,2,88319:0:0:0:0:
320,192,88319,1,0,0:0:0:0:
192,192,88592,128,8,88864:0:0:0:0:
64,192,88864,1,2,0:0:0:0:
448,192,89137,128,8,89410:0:0:0:0:
192,192,89410,1,8,0:0:0:0:
320,192,89682,1,2,0:0:0:0:
64,192,89955,1,0,0:0:0:0:
320,192,90228,128,8,90501:0:0:0:0:
192,192,90501,128,2,90773:0:0:0:0:
64,192,90773,128,8,91046:0:0:0:0:
448,192,91046,128,8,91319:0:0:0:0:
320,192,91319,128,2,92137:0:0:0:0:
64,192,92137,128,2,92955:0:0:0:0:
448,192,92955,128,2,93228:0:0:0:0:
320,192,93501,128,8,93773:0:0:0:0:
64,192,93773,128,2,94319:0:0:0:0:
192,192,94319,128,8,94592:0:0:0:0:
320,192,94592,1,4,0:0:0:0:
448,192,94592,1,2,0:0:0:0:
192,192,94864,1,0,0:0:0:0:
64,192,95137,128,8,95410:0:0:0:0:
320,192,95410,1,2,0:0:0:0:
64,192,95682,1,8,0:0:0:0:
448,192,95955,1,8,0:0:0:0:
320,192,96228,128,2,96773:0:0:0:0:
320,192,97046,1,2,0:0:0:0:
64,192,97319,1,8,0:0:0:0:
448,192,97592,1,8,0:0:0:0:
320,192,97864,128,2,98137:0:0:0:0:
320,192,98410,128,8,98682:0:0:0:0:
192,192,98682,128,2,98955:0:0:0:0:
64,192,98955,128,8,99228:0:0:0:0:
192,192,99228,128,8,99501:0:0:0:0:
320,192,99501,128,2,99773:0:0:0:0:
64,192,99773,128,0,100046:0:0:0:0:
192,192,100046,128,8,100319:0:0:0:0:
448,192,100319,128,2,100592:0:0:0:0:
320,192,100592,128,8,100864:0:0:0:0:
192,192,100864,128,8,101137:0:0:0:0:
320,192,101137,1,4,0:0:0:0:
448,192,101137,128,2,101410:0:0:0:0:
192,192,101410,1,0,0:0:0:0:
64,192,101682,128,8,101955:0:0:0:0:
320,192,101955,1,2,0:0:0:0:
64,192,102228,1,8,0:0:0:0:
448,192,102501,1,8,0:0:0:0:
320,192,102773,128,2,103319:0:0:0:0:
320,192,103592,1,2,0:0:0:0:
64,192,103864,1,8,0:0:0:0:
448,192,104137,1,8,0:0:0:0:
320,192,104410,128,2,104682:0:0:0:0:
320,192,104955,128,8,105228:0:0:0:0:
64,192,105228,128,2,105501:0:0:0:0:
448,192,105501,128,8,105773:0:0:0:0:
192,192,105773,128,8,106046:0:0:0:0:
64,192,106046,128,2,106319:0:0:0:0:
448,192,106319,1,8,0:0:0:0:
448,192,106592,1,8,0:0:0:0:
64,192,106864,1,4,0:0:0:0:
448,192,106864,128,2,107955:0:0:0:0:
