osu file format v14

[General]
AudioFilename: audio.mp3
AudioLeadIn: 0
PreviewTime: 41138
Countdown: 0
SampleSet: Soft
StackLeniency: 0.7
Mode: 3
LetterboxInBreaks: 0
SpecialStyle: 0
WidescreenStoryboard: 0

[Editor]
Bookmarks: 14956,28047,41138,54229,67320,81502,94593
DistanceSpacing: 0.4
BeatDivisor: 3
GridSize: 16
TimelineZoom: 1.550003

[Metadata]
Title:CHOCOLATE PHILOSOPHY
TitleUnicode:CHOCOLATE PHILOSOPHY
Artist:Yu Tokiwa
ArtistUnicode:常盤ゆう
Creator:Xnery
Version:Chocrates
Source:GUITARFREAKS 8thMIX & drummania 7thMIX
Tags:tokiwa yuu socrates gf8 dm7 gitadora ddr dancedancerevolution dance revolution ultramix4 a20 masterpiece silver pop'n music 9 ee'mall 14 fever! reflec beat groovin'!! upper plus volzza 2 bemani focus pack 01 ノスタルジア nostalgia op. 2 スウィングワルツ メリーゴーラウンド merry go round chanson jazz swing waltz english engrish video game tomosuke funaki 舟木智介 yu_tokiwa mutsuhiko izumi 泉陸奥彦 hirofumi mizuno 水野 弘文 marble LC-1363 -re edition- LC-1785 やまちゃん yama-chang ギターフリークス&ドラムマニア ベスト・トラックス kola-024 best tracks konami digital music entertainment media コナミ accordion 573
BeatmapID:2988737
BeatmapSetID:1453807

[Difficulty]
HPDrainRate:7.5
CircleSize:4
OverallDifficulty:7.5
ApproachRate:5
SliderMultiplier:1.4
SliderTickRate:1

[Events]
//Background and Video events
0,0,"chocrates.jpg",0,0
//Break Periods
//Storyboard Layer 0 (Background)
//Storyboard Layer 1 (Fail)
//Storyboard Layer 2 (Pass)
//Storyboard Layer 3 (Foreground)
//Storyboard Layer 4 (Overlay)
//Storyboard Sound Samples
Sample,59593,0,"soft-hitwhistle.wav",30
Sample,59775,0,"soft-hitclap.wav",30
Sample,77046,0,"soft-hitwhistle.wav",30
Sample,81046,0,"soft-hitclap.wav",30
Sample,87410,0,"soft-hitclap.wav",30
Sample,106410,0,"soft-hitclap.wav",30
Sample,106682,0,"soft-hitwhistle.wav",30

[TimingPoints]
1866,272.727272727273,3,2,1,30,1,0
41138,-100,3,2,1,30,0,1
54229,-100,3,2,1,30,0,0
73866,272.727272727273,5,2,1,30,1,0
76592,272.727272727273,3,2,1,30,1,0
81501,-100,3,2,1,30,0,1
94592,-100,3,2,1,30,0,0

[HitObjects]
64,192,229,5,0,0:0:0:0:
64,192,502,1,0,0:0:0:0:
64,192,775,1,0,0:0:0:0:
64,192,1047,1,0,0:0:0:0:
64,192,1320,128,0,1411:0:0:0:0:
192,192,1411,128,0,1502:0:0:0:0:
320,192,1502,128,0,1593:0:0:0:0:
64,192,1593,128,0,1684:0:0:0:0:
192,192,1684,128,0,1775:0:0:0:0:
320,192,1775,128,0,1866:0:0:0:0:
64,192,1866,1,4,0:0:0:0:
192,192,1866,1,2,0:0:0:0:
448,192,1866,128,0,2047:0:0:0:0:
64,192,2047,1,8,0:0:0:0:
192,192,2047,1,0,0:0:0:0:
320,192,2138,128,0,2320:0:0:0:0:
192,192,2320,128,2,2411:0:0:0:0:
64,192,2411,128,8,2684:0:0:0:0:
448,192,2411,1,0,0:0:0:0:
320,192,2684,128,2,2729:0:0:0:0:
192,192,2866,1,0,0:0:0:0:
64,192,2956,128,8,3002:0:0:0:0:
320,192,2956,1,0,0:0:0:0:
320,192,3138,1,0,0:0:0:0:
192,192,3229,1,8,0:0:0:0:
448,192,3229,128,0,3275:0:0:0:0:
320,192,3502,128,2,4229:0:0:0:0:
448,192,3502,1,0,0:0:0:0:
64,192,3684,1,8,0:0:0:0:
192,192,3684,1,0,0:0:0:0:
448,192,3775,1,0,0:0:0:0:
448,192,3956,1,2,0:0:0:0:
64,192,4047,1,8,0:0:0:0:
192,192,4047,1,0,0:0:0:0:
64,192,4229,1,0,0:0:0:0:
192,192,4275,1,0,0:0:0:0:
320,192,4320,128,2,4366:0:0:0:0:
448,192,4320,1,0,0:0:0:0:
192,192,4502,1,0,0:0:0:0:
64,192,4593,128,8,4638:0:0:0:0:
320,192,4593,1,0,0:0:0:0:
320,192,4775,1,0,0:0:0:0:
192,192,4866,1,8,0:0:0:0:
448,192,4866,128,0,4911:0:0:0:0:
64,192,5138,1,2,0:0:0:0:
320,192,5138,128,0,5593:0:0:0:0:
192,192,5320,1,8,0:0:0:0:
448,192,5320,1,0,0:0:0:0:
64,192,5411,1,0,0:0:0:0:
64,192,5593,1,2,0:0:0:0:
320,192,5684,128,8,5956:0:0:0:0:
448,192,5684,1,0,0:0:0:0:
192,192,5956,1,2,0:0:0:0:
448,192,6002,1,0,0:0:0:0:
192,192,6047,128,0,6229:0:0:0:0:
64,192,6229,128,8,6502:0:0:0:0:
448,192,6229,1,0,0:0:0:0:
320,192,6411,1,0,0:0:0:0:
192,192,6502,128,8,6547:0:0:0:0:
448,192,6502,1,0,0:0:0:0:
64,192,6775,128,2,6956:0:0:0:0:
448,192,6775,128,0,7320:0:0:0:0:
320,192,6956,1,8,0:0:0:0:
64,192,7047,1,0,0:0:0:0:
192,192,7047,128,0,7229:0:0:0:0:
64,192,7229,1,2,0:0:0:0:
192,192,7320,1,8,0:0:0:0:
320,192,7320,128,0,7593:0:0:0:0:
448,192,7593,128,2,7866:0:0:0:0:
64,192,7775,1,8,0:0:0:0:
192,192,7775,1,0,0:0:0:0:
320,192,7866,128,8,8138:0:0:0:0:
64,192,8047,1,0,0:0:0:70:tom02.wav
448,192,8047,1,0,0:0:0:0:
192,192,8138,128,2,8320:0:0:0:0:
320,192,8320,1,0,0:0:0:70:tom04.wav
64,192,8411,1,4,0:0:0:0:
192,192,8411,1,2,0:0:0:0:
448,192,8411,128,0,8593:0:0:0:0:
64,192,8593,1,8,0:0:0:0:
192,192,8593,1,0,0:0:0:0:
320,192,8684,128,0,8866:0:0:0:0:
192,192,8866,128,2,8956:0:0:0:0:
64,192,8956,128,8,9229:0:0:0:0:
448,192,8956,1,0,0:0:0:0:
320,192,9229,128,2,9275:0:0:0:0:
192,192,9411,1,0,0:0:0:0:
64,192,9502,128,8,9547:0:0:0:0:
320,192,9502,1,0,0:0:0:0:
320,192,9684,1,0,0:0:0:0:
192,192,9775,1,8,0:0:0:0:
448,192,9775,128,0,9820:0:0:0:0:
320,192,10047,128,2,10775:0:0:0:0:
448,192,10047,1,0,0:0:0:0:
64,192,10229,1,8,0:0:0:0:
192,192,10229,1,0,0:0:0:0:
448,192,10320,1,0,0:0:0:0:
448,192,10502,1,2,0:0:0:0:
64,192,10593,1,8,0:0:0:0:
192,192,10593,1,0,0:0:0:0:
64,192,10775,1,0,0:0:0:0:
192,192,10820,1,0,0:0:0:0:
320,192,10866,128,2,10911:0:0:0:0:
448,192,10866,1,0,0:0:0:0:
192,192,11047,1,0,0:0:0:0:
64,192,11138,128,8,11184:0:0:0:0:
320,192,11138,1,0,0:0:0:0:
320,192,11320,1,0,0:0:0:0:
192,192,11411,1,8,0:0:0:0:
448,192,11411,128,0,11456:0:0:0:0:
64,192,11684,1,2,0:0:0:0:
320,192,11684,128,0,12138:0:0:0:0:
192,192,11866,1,8,0:0:0:0:
448,192,11866,1,0,0:0:0:0:
64,192,11956,1,0,0:0:0:0:
64,192,12138,1,2,0:0:0:0:
320,192,12229,128,8,12502:0:0:0:0:
448,192,12229,1,0,0:0:0:0:
192,192,12502,1,2,0:0:0:0:
448,192,12547,1,0,0:0:0:0:
192,192,12593,128,0,12775:0:0:0:0:
64,192,12775,128,8,13047:0:0:0:0:
448,192,12775,1,0,0:0:0:0:
320,192,12956,1,0,0:0:0:0:
192,192,13047,128,8,13320:0:0:0:0:
448,192,13047,1,0,0:0:0:0:
320,192,13320,1,2,0:0:0:0:
448,192,13320,128,0,14411:0:0:0:0:
64,192,13502,1,8,0:0:0:0:
320,192,13502,1,0,0:0:0:0:
192,192,13593,1,0,0:0:0:0:
192,192,13775,1,2,0:0:0:0:
64,192,13866,1,8,0:0:0:0:
320,192,13866,1,0,0:0:0:0:
64,192,14138,1,8,0:0:0:0:
320,192,14138,1,0,0:0:0:0:
192,192,14411,128,0,14593:0:0:0:70:tom01.wav
64,192,14593,1,0,0:0:0:70:tom03.wav
320,192,14684,128,0,14866:0:0:0:70:tom03.wav
192,192,14866,1,0,0:0:0:70:tom04.wav
64,192,14956,128,4,15229:0:0:0:0:
320,192,14956,1,2,0:0:0:0:
448,192,14956,128,0,15229:0:0:0:0:
192,192,15229,1,0,0:0:0:0:
320,192,15411,1,0,0:0:0:0:
448,192,15411,1,0,0:0:0:0:
192,192,15502,128,0,15684:0:0:0:0:
448,192,15684,1,0,0:0:0:0:
192,192,15775,128,0,16047:0:0:0:0:
64,192,16047,128,0,16229:0:0:0:0:
448,192,16047,128,0,16229:0:0:0:0:
320,192,16229,1,0,0:0:0:0:
192,192,16320,128,0,16593:0:0:0:0:
320,192,16593,128,0,16866:0:0:0:0:
448,192,16593,128,0,16866:0:0:0:0:
64,192,16866,1,0,0:0:0:0:
192,192,17047,1,0,0:0:0:0:
320,192,17047,1,0,0:0:0:0:
64,192,17138,128,0,17411:0:0:0:0:
448,192,17320,1,0,0:0:0:0:
192,192,17411,128,0,17684:0:0:0:0:
64,192,17684,128,0,17956:0:0:0:0:
320,192,17684,128,0,17956:0:0:0:0:
448,192,17956,128,0,18229:0:0:0:0:
64,192,18229,128,0,18502:0:0:0:0:
192,192,18229,128,0,18502:0:0:0:0:
320,192,18502,1,0,0:0:0:0:
64,192,18684,1,0,0:0:0:0:
192,192,18684,1,0,0:0:0:0:
448,192,18775,128,0,18956:0:0:0:0:
192,192,18956,1,0,0:0:0:0:
448,192,19047,128,0,19229:0:0:0:0:
64,192,19320,128,0,19502:0:0:0:0:
192,192,19320,128,0,19502:0:0:0:0:
448,192,19502,1,0,0:0:0:0:
320,192,19593,128,0,19866:0:0:0:0:
64,192,19775,1,0,0:0:0:0:
192,192,19866,128,0,20138:0:0:0:0:
448,192,19866,128,0,20138:0:0:0:0:
320,192,20138,1,0,0:0:0:0:
64,192,20320,1,0,0:0:0:0:
192,192,20320,1,0,0:0:0:0:
320,192,20411,128,0,20593:0:0:0:0:
64,192,20593,1,0,0:0:0:0:
192,192,20593,1,0,0:0:0:0:
448,192,20684,1,0,0:0:0:0:
192,192,20956,128,0,21229:0:0:0:0:
320,192,21229,128,0,21502:0:0:0:0:
64,192,21502,128,0,21775:0:0:0:0:
448,192,21502,128,0,21775:0:0:0:0:
320,192,21775,1,0,0:0:0:0:
64,192,21956,1,0,0:0:0:0:
192,192,21956,1,0,0:0:0:0:
320,192,22047,128,0,22229:0:0:0:0:
448,192,22229,1,0,0:0:0:0:
192,192,22320,128,0,22593:0:0:0:0:
320,192,22593,128,0,22866:0:0:0:0:
448,192,22593,128,0,22866:0:0:0:0:
64,192,22866,128,0,23138:0:0:0:0:
192,192,23138,128,0,23411:0:0:0:0:
320,192,23138,128,0,23411:0:0:0:0:
448,192,23411,1,0,0:0:0:0:
64,192,23593,1,0,0:0:0:0:
192,192,23593,1,0,0:0:0:0:
320,192,23684,128,0,23866:0:0:0:0:
448,192,23866,1,0,0:0:0:0:
64,192,23956,128,0,24229:0:0:0:0:
192,192,24229,128,0,24411:0:0:0:0:
320,192,24229,128,0,24411:0:0:0:0:
64,192,24411,1,0,0:0:0:0:
320,192,24502,1,0,0:0:0:0:
448,192,24502,128,0,24593:0:0:0:0:
64,192,24775,128,0,25229:0:0:0:0:
320,192,24775,128,0,25047:0:0:0:0:
448,192,25047,1,0,0:0:0:0:
320,192,25229,1,0,0:0:0:0:
448,192,25229,1,0,0:0:0:0:
192,192,25320,128,0,25502:0:0:0:0:
320,192,25502,1,0,0:0:0:0:
192,192,25593,128,0,25729:0:0:0:0:
64,192,25866,128,0,26138:0:0:0:0:
448,192,25866,128,0,26138:0:0:0:0:
192,192,26138,128,0,26411:0:0:0:0:
320,192,26138,128,0,26411:0:0:0:0:
64,192,26411,128,0,26684:0:0:0:0:
448,192,26411,128,0,26956:0:0:0:0:
192,192,26684,1,0,0:0:0:0:
64,192,26866,1,0,0:0:0:0:
192,192,26866,1,0,0:0:0:0:
320,192,26956,128,0,27161:0:0:0:0:
64,192,27229,1,0,0:0:0:0:
448,192,27229,128,0,27275:0:0:0:0:
320,192,27411,1,0,0:0:0:0:
448,192,27411,1,0,0:0:0:0:
64,192,27502,128,0,27775:0:0:0:0:
320,192,27684,1,0,0:0:0:0:
448,192,27684,1,0,0:0:0:0:
192,192,27775,128,0,27956:0:0:0:0:
448,192,27956,1,0,0:0:0:0:
64,192,28047,1,4,0:0:0:0:
192,192,28047,1,0,0:0:0:0:
320,192,28047,128,0,28320:0:0:0:0:
448,192,28229,128,0,28320:0:0:0:0:
192,192,28320,1,0,0:0:0:0:
192,192,28502,1,0,0:0:0:0:
320,192,28502,1,0,0:0:0:0:
64,192,28593,128,0,28866:0:0:0:0:
448,192,28593,128,0,28661:0:0:0:0:
192,192,28775,1,0,0:0:0:0:
320,192,28866,1,0,0:0:0:0:
448,192,28866,128,0,29684:0:0:0:0:
64,192,29138,1,0,0:0:0:0:
192,192,29138,128,0,29411:0:0:0:0:
320,192,29411,128,0,29684:0:0:0:0:
64,192,29684,128,0,29775:0:0:0:0:
192,192,29684,128,0,30229:0:0:0:0:
320,192,29956,1,0,0:0:0:0:
64,192,30138,128,0,30229:0:0:0:0:
448,192,30229,128,0,30411:0:0:0:0:
192,192,30411,1,0,0:0:0:0:
320,192,30411,1,0,0:0:0:0:
64,192,30502,128,0,31047:0:0:0:0:
448,192,30502,1,0,0:0:0:0:
192,192,30775,128,0,31047:0:0:0:0:
448,192,30775,1,0,0:0:0:0:
320,192,31047,128,0,31229:0:0:0:0:
64,192,31229,1,0,0:0:0:0:
192,192,31275,1,0,0:0:0:0:
320,192,31320,1,0,0:0:0:0:
448,192,31320,128,0,31502:0:0:0:0:
192,192,31593,128,0,32866:0:0:0:0:
448,192,31593,128,0,31775:0:0:0:0:
64,192,31775,1,0,0:0:0:0:
320,192,31775,1,0,0:0:0:0:
448,192,31866,1,0,0:0:0:0:
448,192,32047,1,0,0:0:0:0:
64,192,32138,1,0,0:0:0:0:
320,192,32138,1,0,0:0:0:0:
320,192,32411,1,0,0:0:0:0:
448,192,32411,128,0,32593:0:0:0:0:
64,192,32684,128,0,32866:0:0:0:0:
320,192,32684,1,0,0:0:0:0:
448,192,32866,1,0,0:0:0:0:
320,192,32911,1,0,0:0:0:0:
64,192,32956,128,0,33411:0:0:0:0:
192,192,32956,128,0,33047:0:0:0:0:
320,192,33229,1,0,0:0:0:0:
192,192,33411,128,0,33502:0:0:0:0:
320,192,33411,1,0,0:0:0:0:
64,192,33502,128,0,33593:0:0:0:0:
448,192,33502,128,0,33593:0:0:0:0:
192,192,33775,128,0,34047:0:0:0:0:
320,192,33775,1,0,0:0:0:0:
64,192,34047,128,0,34229:0:0:0:0:
320,192,34047,1,0,0:0:0:0:
320,192,34229,1,0,0:0:0:0:
192,192,34320,128,0,34411:0:0:0:0:
448,192,34320,1,0,0:0:0:0:
64,192,34593,1,4,0:0:0:0:
320,192,34593,1,0,0:0:0:0:
448,192,34593,128,0,34866:0:0:0:0:
192,192,34866,128,0,35047:0:0:0:0:
64,192,35047,1,0,0:0:0:0:
320,192,35138,128,0,35320:0:0:0:0:
192,192,35320,1,0,0:0:0:0:
64,192,35411,1,0,0:0:0:0:
448,192,35411,128,0,35502:0:0:0:0:
64,192,35684,128,0,35866:0:0:0:0:
192,192,35684,128,0,35866:0:0:0:0:
320,192,35956,1,0,0:0:0:0:
448,192,35956,128,0,36047:0:0:0:0:
64,192,36229,1,0,0:0:0:0:
192,192,36229,128,0,36775:0:0:0:0:
320,192,36502,128,0,36593:0:0:0:0:
64,192,36684,1,0,0:0:0:0:
448,192,36684,1,0,0:0:0:0:
320,192,36775,128,0,36866:0:0:0:0:
192,192,36956,1,0,0:0:0:0:
448,192,36956,1,0,0:0:0:0:
64,192,37047,1,0,0:0:0:0:
320,192,37047,128,0,37502:0:0:0:0:
448,192,37229,1,0,0:0:0:0:
64,192,37320,128,0,37593:0:0:0:0:
192,192,37320,128,0,37593:0:0:0:0:
320,192,37593,1,0,0:0:0:0:
448,192,37593,128,0,37866:0:0:0:0:
64,192,37866,1,0,0:0:0:0:
192,192,37866,128,0,38320:0:0:0:0:
448,192,38138,128,0,38229:0:0:0:0:
320,192,38320,1,0,0:0:0:0:
448,192,38320,128,0,38411:0:0:0:0:
64,192,38411,128,0,38502:0:0:0:0:
320,192,38684,1,0,0:0:0:0:
448,192,38684,128,0,39502:0:0:0:0:
64,192,38956,128,0,39047:0:0:0:0:
192,192,38956,1,0,0:0:0:0:
192,192,39229,128,0,39502:0:0:0:0:
320,192,39229,1,0,0:0:0:0:
64,192,39502,1,0,0:0:0:0:
320,192,39502,128,0,39956:0:0:0:0:
64,192,39775,1,0,0:0:0:0:
64,192,39956,1,0,0:0:0:0:
192,192,39956,1,0,0:0:0:0:
320,192,40047,1,0,0:0:0:0:
448,192,40047,1,0,0:0:0:0:
192,192,40229,1,0,0:0:0:0:
320,192,40320,128,2,40411:0:0:0:0:
448,192,40320,128,0,40411:0:0:0:0:
64,192,40411,1,8,0:0:0:0:
448,192,40502,1,8,0:0:0:0:
64,192,40593,128,2,40684:0:0:0:0:
192,192,40593,128,0,40684:0:0:0:0:
320,192,40775,1,8,0:0:0:0:
64,192,40866,128,2,40956:0:0:0:0:
448,192,40866,128,0,40956:0:0:0:0:
192,192,40956,1,8,0:0:0:0:
320,192,41047,1,8,0:0:0:0:
64,192,41138,1,4,0:0:0:0:
192,192,41138,128,2,41411:0:0:0:0:
448,192,41138,1,0,0:0:0:0:
320,192,41411,1,8,0:0:0:0:
448,192,41411,128,0,41684:0:0:0:0:
64,192,41593,1,2,0:0:0:0:
192,192,41684,128,8,41956:0:0:0:0:
320,192,41684,1,0,0:0:0:0:
448,192,41956,128,2,42229:0:0:0:0:
192,192,42229,128,8,42320:0:0:0:0:
320,192,42229,128,0,42320:0:0:0:0:
448,192,42411,1,0,0:0:0:0:
64,192,42502,128,8,42593:0:0:0:0:
192,192,42502,128,0,42593:0:0:0:0:
320,192,42775,128,2,42956:0:0:0:0:
64,192,42956,1,8,0:0:0:0:
192,192,42956,1,0,0:0:0:0:
320,192,43047,128,0,43229:0:0:0:0:
192,192,43229,1,2,0:0:0:0:
320,192,43320,128,8,43411:0:0:0:0:
448,192,43320,128,0,43411:0:0:0:0:
64,192,43593,128,2,43866:0:0:0:0:
192,192,43638,128,0,43866:0:0:0:0:
320,192,43866,128,8,43956:0:0:0:0:
448,192,43866,128,0,43956:0:0:0:0:
64,192,44047,128,2,44093:0:0:0:0:
192,192,44138,128,8,44229:0:0:0:0:
320,192,44138,128,0,44229:0:0:0:0:
64,192,44411,128,2,45047:0:0:0:0:
320,192,44684,1,0,0:0:0:0:
320,192,44866,1,2,0:0:0:0:
192,192,44956,128,8,45047:0:0:0:0:
448,192,44956,1,0,0:0:0:0:
64,192,45229,128,2,45411:0:0:0:0:
448,192,45411,1,0,0:0:0:0:
192,192,45502,128,8,45593:0:0:0:0:
320,192,45502,1,0,0:0:0:0:
320,192,45775,128,8,46047:0:0:0:0:
448,192,45775,1,0,0:0:0:0:
64,192,46047,128,2,46229:0:0:0:0:
448,192,46047,128,0,46229:0:0:0:0:
320,192,46229,1,8,0:0:0:0:
192,192,46275,128,0,46456:0:0:0:0:
448,192,46320,1,0,0:0:0:0:
320,192,46366,128,0,46456:0:0:0:0:
64,192,46502,128,2,46684:0:0:0:0:
192,192,46593,128,8,46866:0:0:0:0:
448,192,46593,128,0,46684:0:0:0:0:
320,192,46775,128,0,47047:0:0:0:0:
448,192,46866,128,2,47047:0:0:0:0:
64,192,47047,128,8,47138:0:0:0:0:
192,192,47138,128,8,47229:0:0:0:0:
320,192,47138,1,0,0:0:0:0:
448,192,47229,1,8,0:0:0:0:
64,192,47320,128,0,47411:0:0:0:70:tom01.wav
192,192,47320,128,0,47411:0:0:0:0:
320,192,47411,128,2,47593:0:0:0:0:
448,192,47411,128,0,47593:0:0:0:0:
64,192,47502,1,0,0:0:0:70:tom02.wav
192,192,47593,128,0,47956:0:0:0:70:tom03.wav
64,192,47684,128,4,48502:0:0:0:0:
320,192,47684,1,2,0:0:0:0:
448,192,47684,1,0,0:0:0:0:
320,192,47956,1,8,0:0:0:0:
448,192,47956,128,0,48047:0:0:0:0:
320,192,48138,1,2,0:0:0:0:
192,192,48229,128,8,48502:0:0:0:0:
448,192,48229,1,0,0:0:0:0:
320,192,48502,128,2,48593:0:0:0:0:
448,192,48502,1,0,0:0:0:0:
320,192,48775,128,8,48956:0:0:0:0:
448,192,48775,128,0,48956:0:0:0:0:
64,192,48956,1,0,0:0:0:0:
192,192,49047,128,8,49138:0:0:0:0:
320,192,49047,128,0,49138:0:0:0:0:
64,192,49320,128,2,49411:0:0:0:0:
192,192,49320,128,0,49502:0:0:0:0:
320,192,49502,1,8,0:0:0:0:
448,192,49502,1,0,0:0:0:0:
64,192,49593,128,0,49775:0:0:0:0:
192,192,49775,1,2,0:0:0:0:
320,192,49866,128,8,50138:0:0:0:0:
448,192,49866,128,0,50138:0:0:0:0:
64,192,50138,128,2,50411:0:0:0:0:
192,192,50411,128,8,50502:0:0:0:0:
320,192,50411,128,0,50502:0:0:0:0:
320,192,50593,1,0,0:0:0:0:
64,192,50684,128,8,50956:0:0:0:0:
448,192,50684,128,0,50956:0:0:0:0:
320,192,50956,128,2,51638:0:0:0:0:
64,192,51138,1,8,0:0:0:0:
192,192,51138,1,0,0:0:0:0:
448,192,51229,1,0,0:0:0:0:
448,192,51411,1,2,0:0:0:0:
64,192,51502,1,8,0:0:0:0:
192,192,51502,1,0,0:0:0:0:
320,192,51775,128,2,52047:0:0:0:0:
448,192,51775,128,0,52229:0:0:0:0:
64,192,52047,1,8,0:0:0:0:
192,192,52047,1,0,0:0:0:0:
320,192,52229,1,2,0:0:0:0:
64,192,52320,128,8,52411:0:0:0:0:
192,192,52320,128,0,52593:0:0:0:0:
320,192,52502,128,0,52593:0:0:0:0:
64,192,52593,128,2,52775:0:0:0:0:
448,192,52593,128,0,52684:0:0:0:0:
192,192,52775,1,8,0:0:0:0:
448,192,52775,128,0,52866:0:0:0:0:
320,192,52866,128,0,53047:0:0:0:0:
64,192,52956,128,0,53138:0:0:0:0:
192,192,53047,1,2,0:0:0:0:
320,192,53138,1,8,0:0:0:0:
448,192,53138,128,0,53593:0:0:0:0:
64,192,53229,1,8,0:0:0:0:
192,192,53320,1,8,0:0:0:0:
320,192,53320,1,0,0:0:0:0:
64,192,53411,128,2,53866:0:0:0:0:
192,192,53593,1,8,0:0:0:0:
320,192,53593,1,0,0:0:0:0:
448,192,53684,128,8,53775:0:0:0:0:
320,192,53775,128,0,53866:0:0:0:0:
192,192,53866,1,0,0:0:0:70:tom01.wav
320,192,53956,128,8,54138:0:0:0:0:
448,192,53956,128,0,54138:0:0:0:0:
64,192,54138,1,0,0:0:0:70:tom03.wav
192,192,54229,1,4,0:0:0:0:
320,192,54229,1,2,0:0:0:0:
448,192,54229,128,0,54502:0:0:0:0:
64,192,54502,128,8,54593:0:0:0:0:
320,192,54502,128,0,54593:0:0:0:0:
320,192,54684,1,0,0:0:0:0:
64,192,54775,128,8,55047:0:0:0:0:
192,192,54775,128,0,55047:0:0:0:0:
320,192,55047,1,2,0:0:0:0:
192,192,55320,128,8,55411:0:0:0:0:
320,192,55320,128,0,55411:0:0:0:0:
192,192,55593,128,8,55684:0:0:0:0:
448,192,55593,128,0,55684:0:0:0:0:
64,192,55866,128,2,56502:0:0:0:0:
320,192,55866,128,0,56502:0:0:0:0:
192,192,56138,128,8,56229:0:0:0:0:
448,192,56138,128,0,56229:0:0:0:0:
192,192,56411,128,8,56502:0:0:0:0:
448,192,56411,128,0,56502:0:0:0:0:
192,192,56684,1,2,0:0:0:0:
64,192,56866,1,8,0:0:0:0:
320,192,56866,1,0,0:0:0:0:
192,192,56956,128,0,57229:0:0:0:0:
448,192,56956,128,0,57047:0:0:0:0:
448,192,57138,1,2,0:0:0:0:
64,192,57229,128,8,57320:0:0:0:0:
320,192,57229,128,0,57320:0:0:0:0:
64,192,57502,1,4,0:0:0:0:
192,192,57502,128,2,58138:0:0:0:0:
448,192,57502,128,0,58138:0:0:0:0:
64,192,57775,128,8,57866:0:0:0:0:
320,192,57775,128,0,57866:0:0:0:0:
64,192,58047,128,8,58138:0:0:0:0:
320,192,58047,128,0,58138:0:0:0:0:
64,192,58320,128,2,58593:0:0:0:0:
320,192,58320,128,0,58684:0:0:0:0:
192,192,58593,128,8,58684:0:0:0:0:
448,192,58593,128,0,58684:0:0:0:0:
64,192,58866,128,8,58956:0:0:0:0:
192,192,58866,128,0,58956:0:0:0:0:
64,192,59138,128,2,59411:0:0:0:0:
320,192,59138,128,0,59320:0:0:0:0:
192,192,59320,128,0,59502:0:0:0:0:
320,192,59411,128,8,59502:0:0:0:0:
448,192,59411,128,0,59502:0:0:0:0:
64,192,59547,128,0,59684:0:0:0:0:
320,192,59616,128,0,59775:0:0:0:0:
192,192,59684,128,8,59775:0:0:0:0:
448,192,59684,128,0,59866:0:0:0:0:
192,192,59866,128,8,60138:0:0:0:0:
64,192,59956,1,8,0:0:0:0:
448,192,59956,128,0,60502:0:0:0:0:
64,192,60138,1,0,0:0:0:70:tom01.wav
192,192,60229,1,8,0:0:0:0:
320,192,60229,1,0,0:0:0:0:
320,192,60411,1,0,0:0:0:70:tom03.wav
64,192,60502,128,8,60684:0:0:0:0:
192,192,60502,128,0,60684:0:0:0:0:
448,192,60684,1,0,0:0:0:70:tom04.wav
64,192,60775,128,4,60866:0:0:0:0:
192,192,60775,128,2,60866:0:0:0:0:
320,192,60775,128,0,61866:0:0:0:0:
192,192,61047,128,8,61138:0:0:0:0:
448,192,61047,128,0,61138:0:0:0:0:
448,192,61229,1,0,0:0:0:0:
64,192,61320,128,8,61593:0:0:0:0:
192,192,61320,128,0,61593:0:0:0:0:
448,192,61593,1,2,0:0:0:0:
64,192,61866,128,8,62138:0:0:0:0:
192,192,61866,128,0,62229:0:0:0:0:
320,192,62138,128,8,63047:0:0:0:0:
448,192,62138,128,0,62229:0:0:0:0:
64,192,62411,128,2,63047:0:0:0:0:
192,192,62684,128,8,62775:0:0:0:0:
448,192,62684,128,0,62775:0:0:0:0:
192,192,62956,128,8,63047:0:0:0:0:
448,192,62956,128,0,63047:0:0:0:0:
192,192,63229,1,2,0:0:0:0:
320,192,63411,1,8,0:0:0:0:
64,192,63502,128,8,63593:0:0:0:0:
448,192,63502,128,0,63593:0:0:0:0:
320,192,63684,1,2,0:0:0:0:
64,192,63775,128,4,64047:0:0:0:0:
192,192,63775,128,0,64411:0:0:0:0:
448,192,63775,128,0,63866:0:0:0:0:
448,192,64047,128,2,64411:0:0:0:0:
64,192,64320,128,8,64411:0:0:0:0:
320,192,64320,128,0,64411:0:0:0:0:
64,192,64593,128,4,64684:0:0:0:0:
320,192,64593,128,0,64684:0:0:0:0:
448,192,64593,128,0,64684:0:0:0:0:
192,192,64866,128,2,65229:0:0:0:0:
64,192,65138,128,4,65502:0:0:0:0:
320,192,65138,128,0,65229:0:0:0:0:
448,192,65138,128,0,65229:0:0:0:0:
192,192,65411,128,0,65502:0:0:0:70:cymbal.wav
320,192,65411,128,0,65502:0:0:0:0:
320,192,65684,128,2,65956:0:0:0:0:
448,192,65684,1,0,0:0:0:0:
64,192,65956,128,4,66047:0:0:0:0:
192,192,65956,128,0,66047:0:0:0:0:
448,192,65956,128,0,66047:0:0:0:0:
64,192,66229,128,0,66320:0:0:0:70:cymbal.wav
448,192,66229,128,0,66320:0:0:0:0:
64,192,66502,128,4,66684:0:0:0:0:
192,192,66502,128,8,66775:0:0:0:0:
448,192,66502,128,0,66956:0:0:0:0:
320,192,66684,1,0,0:0:0:70:tom01.wav
64,192,66775,1,0,0:0:0:70:tom02.wav
192,192,66866,1,0,0:0:0:70:tom03.wav
320,192,66956,1,0,0:0:0:70:tom04.wav
64,192,67047,1,8,0:0:0:0:
448,192,67047,1,0,0:0:0:0:
320,192,67093,1,0,0:0:0:0:
192,192,67138,1,0,0:0:0:0:
64,192,67229,1,0,0:0:0:70:tom03.wav
192,192,67320,1,4,0:0:0:0:
320,192,67320,128,2,67502:0:0:0:0:
448,192,67320,1,0,0:0:0:0:
64,192,67502,1,0,0:0:0:0:
320,192,67593,128,0,67729:0:0:0:0:
64,192,67729,128,0,67866:0:0:0:0:
192,192,67797,128,0,68002:0:0:0:0:
320,192,67866,128,0,68002:0:0:0:0:
448,192,68047,128,0,68138:0:0:0:0:
320,192,68138,128,0,68275:0:0:0:0:
64,192,68320,128,8,68411:0:0:0:0:
448,192,68320,1,0,0:0:0:0:
192,192,68411,128,0,68502:0:0:0:0:
320,192,68593,128,0,68684:0:0:0:0:
64,192,68684,128,8,68775:0:0:0:0:
448,192,68684,128,0,68866:0:0:0:0:
320,192,68866,128,0,68956:0:0:0:0:
64,192,68956,1,4,0:0:0:0:
192,192,68956,128,2,69138:0:0:0:0:
448,192,68956,1,0,0:0:0:0:
448,192,69138,128,0,69229:0:0:0:0:
192,192,69229,128,0,69411:0:0:0:0:
320,192,69411,128,0,69502:0:0:0:0:
64,192,69502,128,0,69684:0:0:0:0:
192,192,69684,128,0,69866:0:0:0:0:
64,192,69775,1,4,0:0:0:0:
320,192,69775,128,2,69866:0:0:0:0:
448,192,69775,128,0,69956:0:0:0:0:
64,192,69956,128,0,70229:0:0:0:0:
320,192,70047,128,0,70320:0:0:0:0:
448,192,70229,128,0,70411:0:0:0:0:
192,192,70320,128,2,70502:0:0:0:0:
64,192,70411,1,2,0:0:0:0:
320,192,70502,1,8,0:0:0:0:
448,192,70502,1,0,0:0:0:0:
64,192,70593,128,2,70638:0:0:0:0:
192,192,70593,128,0,70638:0:0:0:0:
64,192,70866,128,0,71047:0:0:0:0:
192,192,70956,128,0,71138:0:0:0:0:
320,192,71093,128,0,71229:0:0:0:0:
64,192,71138,1,0,0:0:0:0:
448,192,71184,128,0,71366:0:0:0:0:
320,192,71366,128,0,71502:0:0:0:0:
64,192,71411,1,0,0:0:0:0:
192,192,71456,128,0,71593:0:0:0:0:
320,192,71593,1,8,0:0:0:0:
448,192,71593,1,0,0:0:0:0:
64,192,71684,128,0,71866:0:0:0:0:
192,192,71775,128,0,71866:0:0:0:0:
320,192,71866,128,0,71956:0:0:0:0:
64,192,71956,128,4,72138:0:0:0:0:
192,192,71956,1,8,0:0:0:0:
448,192,71956,128,0,72138:0:0:0:0:
320,192,72138,128,0,72229:0:0:0:0:
64,192,72229,128,4,72366:0:0:0:0:
192,192,72229,1,2,0:0:0:0:
448,192,72229,128,0,72366:0:0:0:0:
192,192,72366,128,0,72502:0:0:0:0:
320,192,72434,128,0,72502:0:0:0:0:
448,192,72502,1,0,0:0:0:0:
448,192,72684,128,0,72866:0:0:0:0:
320,192,72775,128,0,72866:0:0:0:0:
64,192,72956,128,0,73138:0:0:0:0:
192,192,73047,128,2,73138:0:0:0:0:
320,192,73047,128,0,73138:0:0:0:0:
320,192,73229,1,8,0:0:0:0:
448,192,73229,1,0,0:0:0:0:
192,192,73320,1,0,0:0:0:70:tom02.wav
192,192,73502,1,0,0:0:0:70:tom04.wav
64,192,73593,128,0,73775:0:0:0:70:cymbal.wav
320,192,73593,1,0,0:0:0:0:
448,192,73593,1,0,0:0:0:0:
192,192,73684,128,0,73775:0:0:0:0:
320,192,73775,128,0,73866:0:0:0:0:
64,192,73866,1,4,0:0:0:0:
192,192,73866,1,2,0:0:0:0:
448,192,73866,128,0,73956:0:0:0:0:
64,192,74047,128,8,74229:0:0:0:0:
448,192,74047,128,0,74138:0:0:0:0:
320,192,74138,128,0,74229:0:0:0:0:
192,192,74320,128,2,74502:0:0:0:0:
320,192,74411,128,8,74502:0:0:0:0:
448,192,74411,128,0,74502:0:0:0:0:
192,192,74593,128,0,74752:0:0:0:0:
64,192,74684,128,0,74752:0:0:0:70:cymbal.wav
320,192,74684,128,0,74752:0:0:0:0:
448,192,74684,128,0,74752:0:0:0:0:
64,192,74956,128,0,75025:0:0:0:70:cymbal.wav
192,192,74956,128,0,75025:0:0:0:0:
448,192,74956,128,0,75025:0:0:0:0:
64,192,75229,1,4,0:0:0:0:
192,192,75229,1,2,0:0:0:0:
320,192,75229,128,0,75320:0:0:0:0:
320,192,75411,128,8,75502:0:0:0:0:
448,192,75411,128,0,75593:0:0:0:0:
192,192,75502,128,0,75593:0:0:0:0:
64,192,75684,128,2,75866:0:0:0:0:
320,192,75775,128,8,75866:0:0:0:0:
448,192,75775,128,0,75866:0:0:0:0:
64,192,75956,128,0,76116:0:0:0:0:
192,192,76047,128,0,76116:0:0:0:70:cymbal.wav
320,192,76047,128,0,76116:0:0:0:0:
448,192,76047,128,0,76116:0:0:0:0:
64,192,76320,128,0,76388:0:0:0:70:cymbal.wav
192,192,76320,128,0,76388:0:0:0:0:
320,192,76320,128,0,76388:0:0:0:0:
64,192,76592,128,4,76773:0:0:0:0:
192,192,76592,1,0,0:0:0:0:
448,192,76592,1,0,0:0:0:0:
192,192,76773,1,8,0:0:0:0:
320,192,76773,1,0,0:0:0:0:
448,192,76864,128,0,77001:0:0:0:0:
64,192,77001,128,0,77137:0:0:0:0:
192,192,77069,128,0,77137:0:0:0:0:
320,192,77137,1,8,0:0:0:0:
448,192,77137,1,0,0:0:0:0:
192,192,77205,128,0,77342:0:0:0:0:
320,192,77273,128,0,77410:0:0:0:0:
448,192,77342,128,0,77410:0:0:0:0:
64,192,77410,128,2,77501:0:0:0:0:
192,192,77501,128,0,77592:0:0:0:0:
320,192,77592,1,8,0:0:0:0:
448,192,77592,1,0,0:0:0:0:
448,192,77682,128,0,77864:0:0:0:0:
320,192,77864,128,2,77955:0:0:0:0:
64,192,77955,1,8,0:0:0:0:
192,192,77955,128,0,78046:0:0:0:0:
320,192,78092,128,0,78228:0:0:0:0:
64,192,78228,128,2,79046:0:0:0:0:
448,192,78228,1,0,0:0:0:0:
192,192,78410,1,8,0:0:0:0:
448,192,78410,1,0,0:0:0:0:
320,192,78501,1,0,0:0:0:0:
320,192,78682,1,2,0:0:0:0:
192,192,78773,1,8,0:0:0:0:
448,192,78773,1,0,0:0:0:0:
320,192,79046,1,2,0:0:0:0:
448,192,79046,1,0,0:0:0:0:
320,192,79319,1,8,0:0:0:0:
448,192,79319,1,0,0:0:0:0:
320,192,79592,1,8,0:0:0:0:
448,192,79592,1,0,0:0:0:0:
64,192,79864,1,2,0:0:0:0:
192,192,79864,128,0,80137:0:0:0:0:
448,192,80046,1,8,0:0:0:0:
64,192,80137,128,2,80205:0:0:0:0:
320,192,80137,128,0,80205:0:0:0:0:
448,192,80319,1,0,0:0:0:70:tom01.wav
64,192,80410,128,2,80478:0:0:0:0:
320,192,80410,128,0,80478:0:0:0:0:
192,192,80592,1,0,0:0:0:70:tom02.wav
320,192,80682,128,2,80955:0:0:0:0:
448,192,80682,1,0,0:0:0:0:
64,192,80864,1,0,0:0:0:70:tom03.wav
192,192,80955,128,2,81023:0:0:0:0:
448,192,80955,128,0,81023:0:0:0:0:
64,192,81137,1,8,0:0:0:0:
320,192,81137,1,0,0:0:0:0:
192,192,81228,128,8,81296:0:0:0:0:
448,192,81228,128,0,81296:0:0:0:0:
64,192,81501,128,4,81773:0:0:0:0:
192,192,81501,128,2,81773:0:0:0:0:
448,192,81501,1,0,0:0:0:0:
320,192,81773,128,8,81864:0:0:0:0:
448,192,81773,1,0,0:0:0:0:
64,192,81955,1,2,0:0:0:0:
320,192,82046,128,8,82228:0:0:0:0:
448,192,82046,1,0,0:0:0:0:
64,192,82228,128,0,82364:0:0:0:0:
192,192,82319,128,2,82501:0:0:0:0:
320,192,82501,128,0,82682:0:0:0:0:
192,192,82592,128,8,82682:0:0:0:0:
448,192,82592,128,0,82682:0:0:0:0:
448,192,82773,128,0,82955:0:0:0:0:
64,192,82864,128,8,82955:0:0:0:0:
320,192,82864,128,0,82955:0:0:0:0:
192,192,83137,128,2,83273:0:0:0:0:
448,192,83228,128,0,83364:0:0:0:0:
64,192,83319,128,8,83455:0:0:0:0:
320,192,83319,128,0,83455:0:0:0:0:
192,192,83410,128,0,83546:0:0:0:0:
448,192,83501,128,0,83637:0:0:0:0:
320,192,83592,128,2,83773:0:0:0:0:
64,192,83682,128,8,83819:0:0:0:0:
192,192,83682,1,0,0:0:0:0:
448,192,83773,128,0,83955:0:0:0:0:
320,192,83864,128,0,83955:0:0:0:0:
192,192,83955,128,2,84092:0:0:0:0:
320,192,84046,128,0,84182:0:0:0:0:
64,192,84137,128,0,84273:0:0:0:0:
192,192,84228,128,8,84410:0:0:0:0:
448,192,84228,128,0,84364:0:0:0:0:
320,192,84319,128,0,84455:0:0:0:0:
64,192,84410,128,2,84592:0:0:0:0:
192,192,84501,1,8,0:0:0:0:
448,192,84501,128,0,84637:0:0:0:0:
320,192,84592,128,0,84773:0:0:0:0:
192,192,84682,128,0,84773:0:0:0:0:
64,192,84773,128,2,84910:0:0:0:0:
448,192,84864,128,0,85001:0:0:0:0:
192,192,84955,128,8,85092:0:0:0:0:
320,192,84955,1,0,0:0:0:0:
64,192,85046,128,0,85182:0:0:0:0:
320,192,85137,128,0,85228:0:0:0:0:
192,192,85228,128,2,85319:0:0:0:0:
320,192,85319,128,8,85455:0:0:0:0:
448,192,85319,1,0,0:0:0:0:
192,192,85410,128,0,85592:0:0:0:0:
64,192,85501,128,0,85592:0:0:0:0:
448,192,85592,128,2,85728:0:0:0:0:
320,192,85660,128,0,85796:0:0:0:0:
192,192,85728,128,0,85864:0:0:0:0:
64,192,85864,1,8,0:0:0:0:
448,192,85864,128,0,85955:0:0:0:0:
320,192,85910,128,0,86001:0:0:0:0:
192,192,85955,128,0,86046:0:0:0:0:
64,192,86001,128,0,86137:0:0:0:0:
320,192,86137,128,8,86410:0:0:0:0:
448,192,86137,1,0,0:0:0:0:
192,192,86319,128,0,86410:0:0:0:0:
64,192,86410,128,2,86682:0:0:0:0:
448,192,86410,128,0,86592:0:0:0:0:
320,192,86592,1,8,0:0:0:0:
192,192,86682,1,0,0:0:0:0:
192,192,86864,1,2,0:0:0:0:
320,192,86955,128,8,87228:0:0:0:0:
448,192,86955,128,0,87319:0:0:0:0:
64,192,87228,128,2,87410:0:0:0:0:
192,192,87319,128,0,87410:0:0:0:0:
320,192,87387,128,0,87501:0:0:0:0:
448,192,87455,128,0,87682:0:0:0:0:
64,192,87501,1,8,0:0:0:0:
192,192,87501,1,0,0:0:0:0:
320,192,87592,1,8,0:0:0:0:
192,192,87682,128,0,87773:0:0:0:70:tom01.wav
64,192,87773,128,2,87955:0:0:0:0:
192,192,87955,128,0,88046:0:0:0:70:tom03.wav
64,192,88046,128,4,88319:0:0:0:0:
320,192,88046,128,2,88319:0:0:0:0:
448,192,88046,1,0,0:0:0:0:
448,192,88228,1,8,0:0:0:0:
192,192,88319,128,0,88501:0:0:0:0:
320,192,88501,1,2,0:0:0:0:
64,192,88592,128,8,88773:0:0:0:0:
192,192,88592,128,0,88773:0:0:0:0:
320,192,88773,128,0,88864:0:0:0:0:
192,192,88864,128,2,89046:0:0:0:0:
448,192,88864,128,0,89046:0:0:0:0:
64,192,89046,1,0,0:0:0:0:
320,192,89137,128,8,89228:0:0:0:0:
448,192,89137,128,0,89319:0:0:0:0:
192,192,89319,128,0,89410:0:0:0:0:
64,192,89410,128,8,89592:0:0:0:0:
320,192,89410,128,0,89592:0:0:0:0:
192,192,89682,128,2,89864:0:0:0:0:
320,192,89682,128,0,89773:0:0:0:0:
448,192,89864,128,8,89955:0:0:0:0:
64,192,89955,128,0,90137:0:0:0:0:
320,192,89955,128,0,90046:0:0:0:0:
320,192,90137,1,2,0:0:0:0:
192,192,90228,128,8,90319:0:0:0:0:
448,192,90228,128,0,90410:0:0:0:0:
64,192,90319,1,0,0:0:0:0:
320,192,90410,128,0,90501:0:0:0:0:
192,192,90501,128,2,90592:0:0:0:0:
64,192,90773,128,8,90864:0:0:0:0:
320,192,90773,128,0,90864:0:0:0:0:
192,192,90955,128,0,91046:0:0:0:0:
64,192,91046,128,8,91137:0:0:0:0:
448,192,91046,128,0,91319:0:0:0:0:
64,192,91319,128,2,92137:0:0:0:0:
320,192,91319,128,0,91501:0:0:0:0:
192,192,91501,1,8,0:0:0:0:
448,192,91501,1,0,0:0:0:0:
320,192,91592,1,0,0:0:0:0:
320,192,91773,1,2,0:0:0:0:
192,192,91864,1,8,0:0:0:0:
448,192,91864,1,0,0:0:0:0:
192,192,92046,1,0,0:0:0:0:
320,192,92092,1,0,0:0:0:0:
448,192,92137,1,2,0:0:0:0:
320,192,92410,1,8,0:0:0:0:
448,192,92410,128,0,92955:0:0:0:0:
192,192,92592,1,0,0:0:0:0:
64,192,92682,1,8,0:0:0:0:
320,192,92682,128,0,92955:0:0:0:0:
64,192,92955,128,2,93137:0:0:0:0:
192,192,92955,128,0,93137:0:0:0:0:
320,192,93137,1,8,0:0:0:0:
448,192,93137,1,0,0:0:0:0:
192,192,93228,1,0,0:0:0:0:
192,192,93410,1,2,0:0:0:0:
64,192,93501,128,8,94046:0:0:0:0:
448,192,93501,128,0,93773:0:0:0:0:
320,192,93773,128,2,94046:0:0:0:0:
192,192,94046,128,8,94137:0:0:0:0:
448,192,94046,1,0,0:0:0:0:
320,192,94137,128,0,94228:0:0:0:0:
448,192,94228,128,0,94319:0:0:0:0:
64,192,94319,1,8,0:0:0:0:
192,192,94319,128,0,94410:0:0:0:0:
320,192,94410,128,0,94501:0:0:0:0:
448,192,94501,128,0,94773:0:0:0:0:
64,192,94592,1,4,0:0:0:0:
192,192,94592,1,2,0:0:0:0:
320,192,94592,128,0,94773:0:0:0:0:
64,192,94773,1,8,0:0:0:0:
192,192,94773,1,0,0:0:0:0:
320,192,94864,128,0,95046:0:0:0:0:
192,192,95046,128,2,95137:0:0:0:0:
64,192,95137,128,8,95410:0:0:0:0:
448,192,95137,1,0,0:0:0:0:
320,192,95410,128,2,95455:0:0:0:0:
192,192,95592,1,0,0:0:0:0:
64,192,95682,128,8,95728:0:0:0:0:
320,192,95682,1,0,0:0:0:0:
320,192,95864,1,0,0:0:0:0:
192,192,95955,1,8,0:0:0:0:
448,192,95955,128,0,96001:0:0:0:0:
320,192,96228,128,2,97001:0:0:0:0:
448,192,96228,1,0,0:0:0:0:
64,192,96410,1,8,0:0:0:0:
192,192,96410,1,0,0:0:0:0:
448,192,96501,1,0,0:0:0:0:
448,192,96682,1,2,0:0:0:0:
64,192,96773,1,8,0:0:0:0:
192,192,96773,1,0,0:0:0:0:
64,192,97001,128,0,97046:0:0:0:0:
320,192,97046,128,2,97092:0:0:0:0:
448,192,97046,1,0,0:0:0:0:
192,192,97228,1,0,0:0:0:0:
64,192,97319,128,8,97364:0:0:0:0:
320,192,97319,1,0,0:0:0:0:
320,192,97501,1,0,0:0:0:0:
192,192,97592,1,8,0:0:0:0:
448,192,97592,128,0,97637:0:0:0:0:
64,192,97864,1,2,0:0:0:0:
320,192,97864,128,0,98319:0:0:0:0:
64,192,98046,1,8,0:0:0:0:
448,192,98046,1,0,0:0:0:0:
192,192,98137,1,0,0:0:0:0:
64,192,98319,1,2,0:0:0:0:
320,192,98410,128,8,98682:0:0:0:0:
448,192,98410,1,0,0:0:0:0:
192,192,98682,128,2,98773:0:0:0:0:
448,192,98773,1,0,0:0:0:0:
192,192,98864,128,0,98955:0:0:0:0:
64,192,98955,128,8,99228:0:0:0:0:
320,192,98955,1,0,0:0:0:0:
192,192,99228,128,8,99410:0:0:0:0:
448,192,99228,1,0,0:0:0:0:
64,192,99501,128,2,99682:0:0:0:0:
448,192,99501,128,0,100046:0:0:0:0:
320,192,99682,1,8,0:0:0:0:
64,192,99773,1,0,0:0:0:0:
192,192,99773,128,0,99955:0:0:0:0:
64,192,99955,1,0,0:0:0:70:tom01.wav
192,192,100046,1,8,0:0:0:0:
320,192,100046,128,0,100319:0:0:0:0:
64,192,100228,1,0,0:0:0:70:tom03.wav
448,192,100319,128,2,100592:0:0:0:0:
64,192,100501,1,8,0:0:0:0:
192,192,100501,1,0,0:0:0:0:
320,192,100592,128,8,100864:0:0:0:0:
64,192,100773,1,0,0:0:0:70:tom01.wav
448,192,100773,1,0,0:0:0:0:
192,192,100864,128,8,101137:0:0:0:0:
64,192,101137,1,4,0:0:0:0:
320,192,101137,1,2,0:0:0:0:
448,192,101137,128,0,101319:0:0:0:0:
64,192,101319,1,8,0:0:0:0:
192,192,101319,1,0,0:0:0:0:
320,192,101410,128,0,101592:0:0:0:0:
192,192,101592,128,2,101682:0:0:0:0:
64,192,101682,128,8,101955:0:0:0:0:
448,192,101682,1,0,0:0:0:0:
320,192,101955,128,2,102001:0:0:0:0:
192,192,102137,1,0,0:0:0:0:
64,192,102228,128,8,102273:0:0:0:0:
320,192,102228,1,0,0:0:0:0:
320,192,102410,1,0,0:0:0:0:
192,192,102501,1,8,0:0:0:0:
448,192,102501,128,0,102546:0:0:0:0:
320,192,102773,128,2,103546:0:0:0:0:
448,192,102773,1,0,0:0:0:0:
64,192,102955,1,8,0:0:0:0:
192,192,102955,1,0,0:0:0:0:
448,192,103046,1,0,0:0:0:0:
448,192,103228,1,2,0:0:0:0:
64,192,103319,1,8,0:0:0:0:
192,192,103319,1,0,0:0:0:0:
64,192,103546,128,0,103592:0:0:0:0:
320,192,103592,128,2,103637:0:0:0:0:
448,192,103592,1,0,0:0:0:0:
192,192,103773,1,0,0:0:0:0:
64,192,103864,128,8,103910:0:0:0:0:
320,192,103864,1,0,0:0:0:0:
320,192,104046,1,0,0:0:0:0:
192,192,104137,1,8,0:0:0:0:
448,192,104137,128,0,104182:0:0:0:0:
64,192,104410,1,2,0:0:0:0:
320,192,104410,128,0,104864:0:0:0:0:
192,192,104592,1,8,0:0:0:0:
448,192,104592,1,0,0:0:0:0:
64,192,104682,1,0,0:0:0:0:
64,192,104864,1,2,0:0:0:0:
192,192,104955,1,8,0:0:0:0:
448,192,104955,128,0,105228:0:0:0:0:
64,192,105228,128,2,105319:0:0:0:0:
320,192,105319,1,0,0:0:0:0:
64,192,105410,128,0,105501:0:0:0:0:
320,192,105501,128,8,105773:0:0:0:0:
448,192,105501,1,0,0:0:0:0:
192,192,105773,128,8,106046:0:0:0:0:
448,192,105773,1,0,0:0:0:0:
64,192,106046,128,2,106773:0:0:0:0:
448,192,106046,1,0,0:0:0:0:
192,192,106228,1,8,0:0:0:0:
320,192,106319,128,8,106410:0:0:0:0:
448,192,106319,128,0,106410:0:0:0:0:
192,192,106501,1,10,0:0:0:0:
320,192,106592,128,8,106682:0:0:0:0:
448,192,106592,128,0,106682:0:0:0:0:
192,192,106773,1,8,0:0:0:0:
64,192,106864,128,4,107682:0:0:0:0:
320,192,106864,128,2,107682:0:0:0:0:
448,192,106864,128,0,107955:0:0:0:0:
