osu file format v14

[General]
AudioFilename: audio.mp3
AudioLeadIn: 0
PreviewTime: 28469
Countdown: 0
SampleSet: Soft
StackLeniency: 0.7
Mode: 0
LetterboxInBreaks: 0
WidescreenStoryboard: 0

[Editor]
DistanceSpacing: 1.2
BeatDivisor: 4
GridSize: 4
TimelineZoom: 1

[Metadata]
Title:Harulmachi kuroba
TitleUnicode:Harulmachi kuroba
Artist:Yu EEE Anemone no Hanasak E
ArtistUnicode:Yu EEE Anemone no Hanasak E
Creator:RafaaXD
Version:DTHD B rank 85% Accuracy amogus loli 6 digit farm 169pp sussy 200k player
Source:
Tags:
BeatmapID:3270714
BeatmapSetID:1601574

[Difficulty]
HPDrainRate:5
CircleSize:3.5
OverallDifficulty:9
ApproachRate:9.6
SliderMultiplier:1.8
SliderTickRate:1

[Events]
//Background and Video events
0,0,"sdlkasdnkd.png",0,0
//Break Periods
//Storyboard Layer 0 (Background)
//Storyboard Layer 1 (Fail)
//Storyboard Layer 2 (Pass)
//Storyboard Layer 3 (Foreground)
//Storyboard Layer 4 (Overlay)
//Storyboard Sound Samples

[TimingPoints]
-369,422.535211267606,4,2,22,42,1,0
264,-133.333333333333,4,2,22,42,0,0
1321,-33.3333333333333,4,2,22,72,0,0
2166,-28.5714285714286,4,2,22,72,0,0
2377,-25,4,2,22,72,0,0
28469,-25,4,2,22,5,0,0

[HitObjects]
0,250,264,5,2,0:0:0:0:
148,383,476,2,0,P|188:386|225:363,1,67.5000025749208,2|0,0:0|0:0,0:0:0:0:
104,198,898,1,2,0:0:0:0:
27,381,1109,1,0,0:0:0:0:
167,292,1321,6,0,B|231:291|231:291|258:296|288:289|288:289|315:297|347:289|347:289|454:288,1,270.000010299683,6|0,0:0|0:0,0:0:0:0:
512,220,1638,1,0,0:0:0:0:
176,11,1743,2,0,B|116:20|116:20|104:27|104:27|34:37,1,135.000005149842,8|0,0:0|0:0,0:0:0:0:
247,123,1954,1,0,0:0:0:0:
181,186,2060,1,0,0:0:0:0:
442,0,2166,6,0,B|412:77|475:77|449:173,1,157.500001502037,2|0,0:0|0:0,0:0:0:0:
94,358,2377,2,0,B|56:372|56:372|57:315|57:315|70:300|70:300|74:217,1,180
435,284,2588,2,0,B|402:303|397:341|397:341|357:293|260:307,1,180,8|0,0:0|0:0,0:0:0:0:
354,125,2800,1,0,0:0:0:0:
370,225,2905,1,0,0:0:0:0:
86,13,3011,6,0,B|139:12|139:12|163:51|164:114|138:150,1,180,6|0,0:0|0:0,0:0:0:0:
0,272,3222,2,0,B|25:247|63:250|76:270|83:282|83:282|88:293|104:313|135:316|162:298,1,180
410,58,3433,2,0,B|395:79|397:113|397:113|378:136|378:136|382:163|382:163|361:187|373:239,1,180,8|0,0:0|0:0,0:0:0:0:
502,326,3645,5,0,0:0:0:0:
462,190,3750,1,0,0:0:0:0:
412,355,3856,6,0,B|350:326|291:379|291:379|254:318|180:299|180:299|132:342|174:383,1,360
338,184,4173,1,0,0:0:0:0:
176,184,4278,2,0,B|295:148|295:148|348:192,1,180,8|0,0:0|0:0,0:0:0:0:
166,375,4490,2,0,B|131:379|97:365|97:365|71:335|71:335|41:316|0:325,1,180
163,21,4701,6,0,B|201:41|201:41|302:13|302:13|286:29|288:74,1,180,6|0,0:0|0:0,0:0:0:0:
41,176,4912,2,0,B|17:50|17:50|104:-5,1,180
448,307,5123,2,0,P|327:323|264:340,1,180,8|0,0:0|0:0,0:0:0:0:
402,46,5335,2,0,P|455:120|419:208,1,180
163,135,5546,5,2,0:0:0:0:
504,0,5652,1,0,0:0:0:0:
338,139,5757,2,0,B|280:134|280:134|242:148|242:148|203:122|134:142,1,180
252,366,5969,2,0,P|188:320|198:209,1,180,8|0,0:0|0:0,0:0:0:0:
402,14,6180,2,0,L|366:190,1,180
29,305,6391,6,0,B|44:307|54:321|54:321|85:206|85:206|57:239,1,180,6|0,0:0|0:0,0:0:0:0:
212,316,6602,2,0,B|252:366|252:366|271:325|316:298|386:319,1,180
71,0,6814,2,0,B|8:39|8:39|49:155,1,180,8|0,0:0|0:0,0:0:0:0:
466,355,7025,2,0,B|444:297|444:297|469:246|469:246|444:163,1,180
126,88,7236,2,0,P|201:132|289:97,1,180,2|0,0:0|0:0,0:0:0:0:
112,347,7447,6,0,B|72:235|72:235|126:192,1,180
379,98,7659,2,0,B|387:202|290:147|311:282,1,180,8|0,0:0|0:0,0:0:0:0:
126,88,7870,1,0,0:0:0:0:
243,16,7976,1,0,0:0:0:0:
381,359,8081,6,0,P|279:335|176:317,1,180,6|0,0:0|0:0,0:0:0:0:
418,181,8292,2,0,B|462:152|461:106|437:80|437:80|389:76|354:123,1,180
112,313,8504,2,0,B|115:365|155:387|189:379|189:379|217:340|194:286,1,180,8|0,0:0|0:0,0:0:0:0:
243,16,8715,2,0,B|195:-7|156:16|146:50|146:50|166:93|224:100,1,180
459,312,8926,6,0,B|411:268|411:268|276:287,1,180,2|0,0:0|0:0,0:0:0:0:
28,63,9138,2,0,B|76:107|76:107|211:88,1,180
173,384,9349,2,0,L|150:193,1,180,8|0,0:0|0:0,0:0:0:0:
243,16,9560,1,0,0:0:0:0:
22,276,9666,1,0,0:0:0:0:
351,33,9771,6,0,B|485:22|485:22|457:25|436:55,1,180,6|0,0:0|0:0,0:0:0:0:
173,384,9983,2,0,L|150:193,1,180
420,157,10194,1,8,0:0:0:0:
317,358,10300,1,0,0:0:0:0:
78,43,10405,2,0,B|101:26|132:28|154:48|164:65|164:65|174:83|196:112|246:109|324:80,1,180
494,220,10616,2,0,P|417:248|323:137,1,180,2|0,0:0|0:0,0:0:0:0:
358,12,10828,2,0,P|420:64|371:201,1,180
106,256,11039,2,0,B|60:201|81:149|81:149|369:101,1,360,8|0,0:0|0:0,0:0:0:0:
419,156,11356,1,0,0:0:0:0:
297,371,11461,6,0,B|302:283|302:283|308:276|308:276|315:168,1,180,6|0,0:0|0:0,0:0:0:0:
413,45,11673,2,0,B|334:84|334:84|325:82|325:82|228:130,1,180
71,103,11884,2,0,B|144:151|144:151|147:160|147:160|237:220,1,180,8|0,0:0|0:0,0:0:0:0:
297,371,12095,2,0,B|302:283|302:283|308:276|308:276|315:168,1,180
150,0,12307,2,0,B|145:87|145:87|139:95|139:95|132:203,1,180,2|0,0:0|0:0,0:0:0:0:
380,384,12518,2,0,B|385:296|385:296|391:289|391:289|398:181,1,180
232,28,12730,2,0,B|227:115|227:115|221:123|221:123|214:231,1,180,8|0,0:0|0:0,0:0:0:0:
487,176,12940,2,0,P|445:127|321:148,1,180
60,384,13152,6,0,L|33:186,1,180,6|0,0:0|0:0,0:0:0:0:
177,0,13363,2,0,L|150:198,1,180
385,384,13574,6,0,L|412:186,1,180,4|0,0:0|0:0,0:0:0:0:
268,0,13785,2,0,L|295:198,1,180
60,384,13997,6,0,L|33:186,1,180,2|0,0:0|0:0,0:0:0:0:
177,0,14208,2,0,L|150:198,1,180
222,353,14419,5,8,0:0:0:0:
402,210,14525,1,8,0:0:0:0:
200,109,14631,1,8,0:0:0:0:
275,222,14736,1,8,0:0:0:0:
275,222,14842,6,0,P|306:70|324:2,1,180,6|0,0:0|0:0,0:0:0:0:
172,222,15053,2,0,P|102:264|9:219,1,180
332,153,15264,2,0,P|411:118|487:160,1,180,8|0,0:0|0:0,0:0:0:0:
304,384,15476,2,0,P|273:232|255:164,1,180
436,48,15687,2,0,B|459:163|459:163|355:232,1,180,2|0,0:0|0:0,0:0:0:0:
198,72,15898,2,0,P|256:7|356:12,1,180
94,362,16109,2,0,B|28:372|28:372|-9:334|-8:279|21:229,1,180,8|0,0:0|0:0,0:0:0:0:
295,94,16321,1,0,0:0:0:0:
295,94,16426,1,0,0:0:0:0:
56,10,16532,6,0,P|81:96|106:201,1,180,2|0,0:0|0:0,0:0:0:0:
416,196,16743,2,0,P|357:129|253:167,1,180
32,317,16954,2,0,P|114:326|229:357,1,180,8|0,0:0|0:0,0:0:0:0:
511,280,17166,2,0,P|429:289|314:320,1,180
122,235,17377,2,0,P|64:165|121:86,1,180,2|0,0:0|0:0,0:0:0:0:
271,73,17588,2,0,P|239:158|142:148,1,180
55,25,17800,2,0,P|144:9|184:98,1,180,8|0,0:0|0:0,0:0:0:0:
122,235,18011,1,0,0:0:0:0:
100,95,18116,1,0,0:0:0:0:
334,312,18222,6,0,P|353:227|402:111,1,180,6|0,0:0|0:0,0:0:0:0:
0,4,18433,2,0,P|32:87|52:175,1,180
476,123,18645,2,0,P|446:71|310:89,1,180,8|0,0:0|0:0,0:0:0:0:
2,250,18856,2,0,P|88:257|142:190,1,180
327,281,19067,2,0,P|379:251|361:115,1,180,2|0,0:0|0:0,0:0:0:0:
0,32,19278,2,0,P|-7:120|59:174,1,180
212,377,19490,2,0,L|256:188,1,180,8|0,0:0|0:0,0:0:0:0:
120,6,19701,2,0,L|164:195,1,180
482,57,19912,6,0,B|443:6|378:20|378:20|343:42|348:92,1,180,6|0,0:0|0:0,0:0:0:0:
0,323,20123,2,0,B|39:374|104:360|104:360|139:338|134:288,1,180
28,11,20335,6,0,B|-23:50|-9:115|-9:115|13:150|63:145,1,180,8|0,0:0|0:0,0:0:0:0:
465,384,20546,2,0,B|516:345|502:280|502:280|480:245|430:250,1,180
120,99,20757,1,2,0:0:0:0:
310,358,20864,1,0,0:0:0:0:
280,0,20969,1,0,0:0:0:0:
134,308,21075,1,0,0:0:0:0:
432,33,21180,5,8,0:0:0:0:
432,33,21391,2,0,L|232:57,1,180
447,264,21602,6,0,B|508:216|508:216|460:107,1,180,6|0,0:0|0:0,0:0:0:0:
232,258,21814,2,0,P|274:321|373:319,1,180
253,54,22025,1,8,0:0:0:0:
231,29,22236,5,0,0:0:0:0:
79,322,22342,1,0,0:0:0:0:
326,248,22447,2,0,B|368:143|368:143|354:94|295:92,1,180,8|0,0:0|0:0,0:0:0:0:
79,322,22659,2,0,B|37:217|37:217|51:168|110:166,1,180,2|0,0:0|0:0,0:0:0:0:
435,337,22870,2,0,P|323:351|248:365,1,180,8|0,0:0|0:0,0:0:0:0:
49,78,23081,6,0,B|436:20|436:20|390:28|338:36|307:157,1,540,6|0,0:0|0:0,0:0:0:0:
447,380,23504,2,0,L|478:193,1,180
136,384,23715,2,0,L|105:197,1,180,8|0,0:0|0:0,0:0:0:0:
447,24,23926,2,0,L|478:211,1,180
136,28,24137,2,0,L|105:215,1,180,2|0,0:0|0:0,0:0:0:0:
447,380,24349,2,0,L|478:193,1,180
136,28,24560,2,0,L|105:215,1,180,8|0,0:0|0:0,0:0:0:0:
424,68,24771,6,0,B|240:142|240:142|188:276|188:276|-24:343,1,540,6|0,0:0|0:0,0:0:0:0:
370,384,25194,2,0,L|316:213,1,180,2|0,0:0|0:0,0:0:0:0:
78,211,25405,1,8,0:0:0:0:
82,197,25616,1,0,0:0:0:0:
432,273,25721,1,0,0:0:0:0:
176,46,25828,2,0,B|50:29|50:29|79:40|91:75,1,180,2|0,0:0|0:0,0:0:0:0:
425,64,26039,2,0,B|433:40|462:29|462:29|336:46,1,180
86,319,26250,2,0,B|79:344|50:355|50:355|176:338,1,180,8|0,0:0|0:0,0:0:0:0:
512,169,26461,6,0,B|310:151|310:151|298:154|298:154|131:137|131:137|80:113|90:51|145:15|217:66,1,540,4|0,0:0|0:0,0:0:0:0:
78,205,26884,2,0,P|22:125|56:5,1,180,2|0,0:0|0:0,0:0:0:0:
302,15,27095,2,0,P|273:87|251:192,1,180,8|0,0:0|0:0,0:0:0:0:
481,372,27307,1,0,0:0:0:0:
443,101,27412,1,0,0:0:0:0:
234,282,27518,1,2,0:0:0:0:
208,295,27729,1,0,0:0:0:0:
184,311,27940,5,8,0:0:0:0:
445,64,28046,1,8,0:0:0:0:
507,384,28152,1,8,0:0:0:0:
317,10,28257,1,8,0:0:0:0:
255,384,28363,1,4,0:0:0:0:
256,192,28469,12,0,30264,0:0:0:0:
