osu file format v14

[General]
AudioFilename: audio.mp3
AudioLeadIn: 0
PreviewTime: 344228
Countdown: 0
SampleSet: Normal
StackLeniency: 1
Mode: 1
LetterboxInBreaks: 0
WidescreenStoryboard: 1

[Editor]
Bookmarks: 728,36728,55928,75128,94328,119528,136328,155528,181928,201128,210728,220328,258728,277928,297128,316328,335528,360728,385928
DistanceSpacing: 1.1
BeatDivisor: 4
GridSize: 32
TimelineZoom: 2.899999

[Metadata]
Title:Everyday Experience
TitleUnicode:Everyday Experience
Artist:Yu
ArtistUnicode:ゆう
Creator:Ak1o
Version:Taiko Collab Experience
Source:
Tags:Mew104 collaboration 埼玉最終兵器 S.S.H Saitama Saisyu Heiki Toshinori Hiramatsu 平松俊紀 Sword of Justice Phoenix Project
BeatmapID:1393010
BeatmapSetID:657643

[Difficulty]
HPDrainRate:4
CircleSize:2
OverallDifficulty:6
ApproachRate:8
SliderMultiplier:1.4
SliderTickRate:1

[Events]
//Background and Video events
0,0,"-font-b-touhou-b-font-font-b-youmu-b-font-sunset-house-sea-12x18-20X30.jpg",0,-140
//Break Periods
//Storyboard Layer 0 (Background)
//Storyboard Layer 1 (Fail)
//Storyboard Layer 2 (Pass)
//Storyboard Layer 3 (Foreground)
//Storyboard Sound Samples

[TimingPoints]
128,300,4,1,0,60,1,0
728,300,4,1,0,60,1,0
4853,-100,4,1,0,80,0,0
5603,-100,4,1,0,60,0,0
7778,-100,4,1,0,80,0,0
10703,-100,4,1,0,60,0,0
14453,-100,4,1,0,80,0,0
17528,-99.009900990099,4,1,0,80,0,0
17678,-98.0392156862745,4,1,0,80,0,0
17978,-97.0873786407767,4,1,0,80,0,0
18128,-96.1538461538461,4,1,0,80,0,0
18428,-95.2380952380952,4,1,0,80,0,0
18728,-94.3396226415094,4,1,0,80,0,0
19178,-93.4579439252336,4,1,0,80,0,0
19478,-92.5925925925926,4,1,0,80,0,0
19628,-91.743119266055,4,1,0,80,0,0
19928,-90.9090909090909,4,1,0,80,0,0
35528,-91.743119266055,4,1,0,80,0,0
35678,-92.5925925925926,4,1,0,80,0,0
35828,-93.4579439252336,4,1,0,80,0,0
35978,-94.3396226415094,4,1,0,80,0,0
36128,-95.2380952380952,4,1,0,80,0,0
36278,-96.1538461538461,4,1,0,80,0,0
36428,-97.0873786407767,4,1,0,80,0,0
36728,-100,4,1,0,80,0,0
74628,-101.010101010101,4,1,0,80,0,0
74728,-102.040816326531,4,1,0,80,0,0
74828,-103.092783505155,4,1,0,80,0,0
74928,-104.166666666667,4,1,0,80,0,0
75028,-105.263157894737,4,1,0,80,0,0
75128,-106.382978723404,4,1,0,80,0,0
89528,-105.263157894737,4,1,0,80,0,0
90128,-104.166666666667,4,1,0,80,0,0
90728,-103.092783505155,4,1,0,80,0,0
91328,-102.040816326531,4,1,0,80,0,0
91928,-101.010101010101,4,1,0,80,0,0
92528,-100,4,1,0,80,0,0
92828,-99.009900990099,4,1,0,80,0,0
93128,-98.0392156862745,4,1,0,80,0,0
93278,-97.0873786407767,4,1,0,80,0,0
93428,-96.1538461538461,4,1,0,80,0,0
93578,-95.2380952380952,4,1,0,80,0,0
93728,-94.3396226415094,4,1,0,80,0,0
93878,-93.4579439252336,4,1,0,80,0,0
94028,-92.5925925925926,4,1,0,80,0,0
94178,-91.743119266055,4,1,0,90,0,1
94328,-90.9090909090909,4,1,0,90,0,1
118328,-91.743119266055,4,1,0,90,0,1
118628,-92.5925925925926,4,1,0,90,0,1
118928,-93.4579439252336,4,1,0,90,0,1
119228,-94.3396226415094,4,1,0,90,0,1
119528,-95.2380952380952,4,1,0,90,0,1
135128,-96.1538461538461,4,1,0,90,0,1
135728,-98.0392156862745,4,1,0,90,0,1
136328,-100,4,1,0,80,0,0
160328,-83.3333333333333,4,1,0,80,0,0
162728,-100,4,1,0,80,0,0
178628,-95.2380952380952,4,1,0,80,0,0
178778,-90.9090909090909,4,1,0,80,0,0
178928,-86.9565217391304,4,1,0,80,0,0
179078,-83.3333333333333,4,1,0,80,0,0
179228,-80,4,1,0,80,0,0
179378,-76.9230769230769,4,1,0,80,0,0
180728,-76.9230769230769,4,1,0,80,0,0
180803,-78.125,4,1,0,80,0,0
180878,-79.3650793650794,4,1,0,80,0,0
180953,-80.6451612903226,4,1,0,80,0,0
181028,-81.9672131147541,4,1,0,80,0,0
181103,-83.3333333333333,4,1,0,80,0,0
181178,-84.7457627118644,4,1,0,80,0,0
181253,-86.2068965517241,4,1,0,80,0,0
181328,-87.719298245614,4,1,0,80,0,0
181403,-89.2857142857143,4,1,0,80,0,0
181478,-90.9090909090909,4,1,0,80,0,0
181553,-92.5925925925926,4,1,0,80,0,0
181628,-94.3396226415094,4,1,0,80,0,0
181928,-95.2380952380952,4,1,0,80,0,0
219128,-94.3396226415094,4,1,0,80,0,0
219428,-93.4579439252336,4,1,0,80,0,0
219728,-92.5925925925926,4,1,0,80,0,0
220028,-91.743119266055,4,1,0,80,0,0
220328,-90.9090909090909,4,1,0,90,0,1
238778,-90.9090909090909,4,1,0,80,0,0
239378,-90.9090909090909,4,1,0,90,0,1
243128,-91.743119266055,4,1,0,90,0,1
243428,-92.5925925925926,4,1,0,90,0,1
243728,-93.4579439252336,4,1,0,90,0,1
244028,-94.3396226415094,4,1,0,90,0,1
244328,-95.2380952380952,4,1,0,80,0,0
277528,-96.1538461538461,4,1,0,80,0,0
277628,-97.0873786407767,4,1,0,80,0,0
277728,-98.0392156862745,4,1,0,80,0,0
277828,-99.009900990099,4,1,0,80,0,0
277928,-100,4,1,0,80,0,0
335528,-111.111111111111,4,1,0,80,0,0
341528,-109.89010989011,4,1,0,80,0,0
341828,-108.695652173913,4,1,0,80,0,0
342128,-107.52688172043,4,1,0,80,0,0
342428,-106.382978723404,4,1,0,80,0,0
342728,-105.263157894737,4,1,0,80,0,0
343328,-104.166666666667,4,1,0,80,0,0
343928,-103.092783505155,4,1,0,80,0,0
344078,-102.040816326531,4,1,0,80,0,0
344228,-101.010101010101,4,1,0,80,0,0
344378,-100,4,1,0,80,0,0
344528,-99.009900990099,4,1,0,80,0,0
344678,-98.0392156862745,4,1,0,80,0,0
344828,-97.0873786407767,4,1,0,80,0,0
344978,-96.1538461538461,4,1,0,80,0,0
345128,-95.2380952380952,4,1,0,80,0,0
359528,-94.3396226415094,4,1,0,80,0,0
359828,-93.4579439252336,4,1,0,80,0,0
360128,-92.5925925925926,4,1,0,80,0,0
360428,-91.743119266055,4,1,0,80,0,0
360578,-91.743119266055,4,1,0,90,0,1
360728,-90.9090909090909,4,1,0,90,0,1
383528,-91.743119266055,4,1,0,90,0,1
383828,-92.5925925925926,4,1,0,90,0,1
384128,-93.4579439252336,4,1,0,90,0,1
384428,-94.3396226415094,4,1,0,90,0,1
384728,-95.2380952380952,4,1,0,90,0,1
385028,-96.1538461538461,4,1,0,90,0,1
385328,-97.0873786407767,4,1,0,90,0,1
385628,-98.0392156862745,4,1,0,90,0,1
385928,-99.009900990099,4,1,0,80,0,0
386228,-100,4,1,0,80,0,0

[HitObjects]
256,192,428,5,0,0:0:0:0:
256,192,728,1,2,0:0:0:0:
256,192,1028,1,0,0:0:0:0:
256,192,1178,1,2,0:0:0:0:
256,192,1478,1,0,0:0:0:0:
256,192,1628,1,2,0:0:0:0:
256,192,1928,1,0,0:0:0:0:
256,192,2078,1,0,0:0:0:0:
256,192,2378,1,0,0:0:0:0:
256,192,2528,1,2,0:0:0:0:
256,192,2828,1,0,0:0:0:0:
256,192,3128,1,2,0:0:0:0:
256,192,3428,1,0,0:0:0:0:
256,192,3578,1,2,0:0:0:0:
256,192,3878,1,0,0:0:0:0:
256,192,4028,1,2,0:0:0:0:
256,192,4328,1,0,0:0:0:0:
256,192,4478,1,0,0:0:0:0:
256,192,4778,1,0,0:0:0:0:
256,192,4928,1,4,0:0:0:0:
256,192,5228,1,6,0:0:0:0:
256,192,5528,1,4,0:0:0:0:
256,192,5678,1,0,0:0:0:0:
256,192,5828,1,0,0:0:0:0:
256,192,5978,1,2,0:0:0:0:
256,192,6278,1,0,0:0:0:0:
256,192,6428,1,2,0:0:0:0:
256,192,6728,1,0,0:0:0:0:
256,192,6878,1,0,0:0:0:0:
256,192,7178,1,0,0:0:0:0:
256,192,7328,1,2,0:0:0:0:
256,192,7478,1,2,0:0:0:0:
256,192,7553,1,2,0:0:0:0:
256,192,7628,1,2,0:0:0:0:
256,192,7928,1,4,0:0:0:0:
256,192,8078,1,0,0:0:0:0:
256,192,8153,1,0,0:0:0:0:
256,192,8228,1,2,0:0:0:0:
256,192,8378,1,0,0:0:0:0:
256,192,8528,1,6,0:0:0:0:
256,192,8978,1,0,0:0:0:0:
256,192,9053,1,0,0:0:0:0:
256,192,9128,1,2,0:0:0:0:
256,192,9203,1,2,0:0:0:0:
256,192,9278,1,0,0:0:0:0:
256,192,9353,1,0,0:0:0:0:
256,192,9428,1,0,0:0:0:0:
256,192,9503,1,0,0:0:0:0:
256,192,9578,1,2,0:0:0:0:
256,192,9653,1,0,0:0:0:0:
256,192,9728,1,0,0:0:0:0:
256,192,9803,1,0,0:0:0:0:
256,192,9878,1,0,0:0:0:0:
256,192,9953,1,0,0:0:0:0:
256,192,10028,1,2,0:0:0:0:
256,192,10328,1,4,0:0:0:0:
256,192,10478,1,4,0:0:0:0:
256,192,10628,1,6,0:0:0:0:
256,192,10778,1,0,0:0:0:0:
256,192,11078,1,0,0:0:0:0:
256,192,11228,1,2,0:0:0:0:
256,192,11528,1,0,0:0:0:0:
256,192,11678,1,2,0:0:0:0:
256,192,11978,1,0,0:0:0:0:
256,192,12128,1,0,0:0:0:0:
256,192,12278,1,6,0:0:0:0:
256,192,12578,1,4,0:0:0:0:
256,192,12878,1,6,0:0:0:0:
256,192,13178,1,2,0:0:0:0:
256,192,13478,1,0,0:0:0:0:
256,192,13628,1,2,0:0:0:0:
256,192,13928,1,0,0:0:0:0:
256,192,14078,1,0,0:0:0:0:
256,192,14378,1,0,0:0:0:0:
256,192,14528,1,4,0:0:0:0:
256,192,14828,1,6,0:0:0:0:
256,192,15128,1,4,0:0:0:0:
256,192,15278,1,0,0:0:0:0:
256,192,15353,1,0,0:0:0:0:
256,192,15428,1,0,0:0:0:0:
256,192,15728,1,2,0:0:0:0:
256,192,16028,1,2,0:0:0:0:
256,192,16328,1,0,0:0:0:0:
256,192,16628,1,0,0:0:0:0:
256,192,16928,1,2,0:0:0:0:
256,192,17078,1,0,0:0:0:0:
256,192,17153,1,0,0:0:0:0:
256,192,17228,1,2,0:0:0:0:
256,192,17528,1,2,0:0:0:0:
256,192,17603,1,0,0:0:0:0:
256,192,17678,1,2,0:0:0:0:
256,192,17753,1,0,0:0:0:0:
256,192,17828,1,0,0:0:0:0:
256,192,17903,1,0,0:0:0:0:
256,192,17978,1,2,0:0:0:0:
256,192,18053,1,0,0:0:0:0:
256,192,18128,1,2,0:0:0:0:
256,192,18203,1,2,0:0:0:0:
256,192,18278,1,0,0:0:0:0:
256,192,18353,1,0,0:0:0:0:
256,192,18428,1,2,0:0:0:0:
256,192,18503,1,0,0:0:0:0:
256,192,18578,1,0,0:0:0:0:
256,192,18653,1,0,0:0:0:0:
256,192,18728,1,2,0:0:0:0:
256,192,18803,1,2,0:0:0:0:
256,192,18878,1,0,0:0:0:0:
256,192,18953,1,0,0:0:0:0:
256,192,19028,1,0,0:0:0:0:
256,192,19103,1,0,0:0:0:0:
256,192,19178,1,2,0:0:0:0:
256,192,19253,1,0,0:0:0:0:
256,192,19328,1,0,0:0:0:0:
256,192,19403,1,0,0:0:0:0:
256,192,19478,1,2,0:0:0:0:
256,192,19553,1,0,0:0:0:0:
256,192,19628,1,2,0:0:0:0:
256,192,19703,1,2,0:0:0:0:
256,192,19778,1,0,0:0:0:0:
256,192,19928,5,6,0:0:0:0:
256,192,20228,1,0,0:0:0:0:
256,192,20378,1,2,0:0:0:0:
256,192,20453,1,2,0:0:0:0:
256,192,20528,1,0,0:0:0:0:
256,192,20678,1,0,0:0:0:0:
256,192,20828,1,0,0:0:0:0:
256,192,20978,1,6,0:0:0:0:
256,192,21278,1,2,0:0:0:0:
256,192,21353,1,0,0:0:0:0:
256,192,21428,1,0,0:0:0:0:
256,192,21578,1,0,0:0:0:0:
256,192,21728,1,2,0:0:0:0:
256,192,21878,1,0,0:0:0:0:
256,192,22028,1,6,0:0:0:0:
256,192,22328,1,0,0:0:0:0:
256,192,22403,1,0,0:0:0:0:
256,192,22478,1,0,0:0:0:0:
256,192,22628,1,2,0:0:0:0:
256,192,22778,1,0,0:0:0:0:
256,192,22928,1,0,0:0:0:0:
256,192,23003,1,0,0:0:0:0:
256,192,23078,1,2,0:0:0:0:
256,192,23228,1,0,0:0:0:0:
256,192,23303,1,2,0:0:0:0:
256,192,23378,1,0,0:0:0:0:
256,192,23678,1,0,0:0:0:0:
256,192,23828,1,2,0:0:0:0:
256,192,23978,1,0,0:0:0:0:
256,192,24128,1,2,0:0:0:0:
256,192,24278,1,0,0:0:0:0:
256,192,24428,1,2,0:0:0:0:
256,192,24503,1,0,0:0:0:0:
256,192,24578,1,2,0:0:0:0:
256,192,24728,1,6,0:0:0:0:
256,192,25028,1,0,0:0:0:0:
256,192,25178,1,2,0:0:0:0:
256,192,25253,1,2,0:0:0:0:
256,192,25328,1,2,0:0:0:0:
256,192,25478,1,0,0:0:0:0:
256,192,25628,1,0,0:0:0:0:
256,192,25778,1,6,0:0:0:0:
256,192,26078,1,2,0:0:0:0:
256,192,26153,1,0,0:0:0:0:
256,192,26228,1,0,0:0:0:0:
256,192,26378,1,0,0:0:0:0:
256,192,26453,1,0,0:0:0:0:
256,192,26528,1,2,0:0:0:0:
256,192,26678,1,0,0:0:0:0:
256,192,26828,1,6,0:0:0:0:
256,192,27128,1,2,0:0:0:0:
256,192,27203,1,2,0:0:0:0:
256,192,27278,1,0,0:0:0:0:
256,192,27428,1,2,0:0:0:0:
256,192,27578,1,0,0:0:0:0:
256,192,27728,1,2,0:0:0:0:
256,192,27803,1,0,0:0:0:0:
256,192,27878,1,2,0:0:0:0:
256,192,28028,1,0,0:0:0:0:
256,192,28103,1,2,0:0:0:0:
256,192,28178,1,2,0:0:0:0:
256,192,28478,1,0,0:0:0:0:
256,192,28628,1,2,0:0:0:0:
256,192,28778,1,0,0:0:0:0:
256,192,28928,1,0,0:0:0:0:
256,192,29003,1,0,0:0:0:0:
256,192,29078,1,0,0:0:0:0:
256,192,29153,1,0,0:0:0:0:
256,192,29228,1,2,0:0:0:0:
256,192,29378,1,0,0:0:0:0:
256,192,29528,1,6,0:0:0:0:
256,192,29828,1,0,0:0:0:0:
256,192,29978,1,2,0:0:0:0:
256,192,30053,1,0,0:0:0:0:
256,192,30128,1,2,0:0:0:0:
256,192,30278,1,0,0:0:0:0:
256,192,30428,1,0,0:0:0:0:
256,192,30578,1,6,0:0:0:0:
256,192,30878,1,2,0:0:0:0:
256,192,30953,1,0,0:0:0:0:
256,192,31028,1,0,0:0:0:0:
256,192,31178,1,0,0:0:0:0:
256,192,31328,1,2,0:0:0:0:
256,192,31478,1,0,0:0:0:0:
256,192,31628,1,6,0:0:0:0:
256,192,31928,1,0,0:0:0:0:
256,192,32003,1,0,0:0:0:0:
256,192,32078,1,0,0:0:0:0:
256,192,32228,1,2,0:0:0:0:
256,192,32378,1,0,0:0:0:0:
256,192,32528,1,0,0:0:0:0:
256,192,32603,1,0,0:0:0:0:
256,192,32678,1,2,0:0:0:0:
256,192,32828,1,0,0:0:0:0:
256,192,32903,1,2,0:0:0:0:
256,192,32978,1,0,0:0:0:0:
256,192,33278,1,0,0:0:0:0:
256,192,33428,1,2,0:0:0:0:
256,192,33578,1,0,0:0:0:0:
256,192,33728,1,2,0:0:0:0:
256,192,33878,1,0,0:0:0:0:
256,192,34028,1,6,0:0:0:0:
256,192,34178,1,2,0:0:0:0:
256,192,34328,1,6,0:0:0:0:
256,192,34628,1,2,0:0:0:0:
256,192,34703,1,2,0:0:0:0:
256,192,34778,1,0,0:0:0:0:
256,192,34853,1,0,0:0:0:0:
256,192,34928,1,0,0:0:0:0:
256,192,35078,1,6,0:0:0:0:
256,192,35228,1,0,0:0:0:0:
256,192,35378,1,2,0:0:0:0:
256,192,35528,1,2,0:0:0:0:
256,192,35603,1,2,0:0:0:0:
256,192,35678,1,0,0:0:0:0:
256,192,35753,1,0,0:0:0:0:
256,192,35828,1,0,0:0:0:0:
256,192,35903,1,0,0:0:0:0:
256,192,35978,1,2,0:0:0:0:
256,192,36053,1,0,0:0:0:0:
256,192,36128,1,0,0:0:0:0:
256,192,36203,1,0,0:0:0:0:
256,192,36278,1,0,0:0:0:0:
256,192,36353,1,0,0:0:0:0:
256,192,36428,1,2,0:0:0:0:
256,192,36728,5,4,0:0:0:0:
256,192,36878,1,0,0:0:0:0:
256,192,37028,1,8,0:0:0:0:
256,192,37328,1,0,0:0:0:0:
256,192,37478,1,0,0:0:0:0:
256,192,37628,1,8,0:0:0:0:
256,192,37778,1,8,0:0:0:0:
256,192,37928,1,0,0:0:0:0:
256,192,38228,1,8,0:0:0:0:
256,192,38378,1,0,0:0:0:0:
256,192,38678,1,0,0:0:0:0:
256,192,38828,1,8,0:0:0:0:
256,192,38978,1,8,0:0:0:0:
256,192,39128,1,0,0:0:0:0:
256,192,39203,1,0,0:0:0:0:
256,192,39278,1,0,0:0:0:0:
256,192,39428,1,8,0:0:0:0:
256,192,39578,1,0,0:0:0:0:
256,192,39728,1,8,0:0:0:0:
256,192,39878,1,8,0:0:0:0:
256,192,40028,1,0,0:0:0:0:
256,192,40178,1,8,0:0:0:0:
256,192,40253,1,8,0:0:0:0:
256,192,40328,1,0,0:0:0:0:
256,192,40478,1,8,0:0:0:0:
256,192,40628,1,0,0:0:0:0:
256,192,40778,1,8,0:0:0:0:
256,192,40853,1,0,0:0:0:0:
256,192,40928,1,8,0:0:0:0:
256,192,41003,1,8,0:0:0:0:
256,192,41078,1,0,0:0:0:0:
256,192,41228,1,8,0:0:0:0:
256,192,41378,1,8,0:0:0:0:
256,192,41528,1,0,0:0:0:0:
256,192,41828,1,8,0:0:0:0:
256,192,42128,1,0,0:0:0:0:
256,192,42278,1,0,0:0:0:0:
256,192,42428,1,8,0:0:0:0:
256,192,42578,1,0,0:0:0:0:
256,192,42728,1,8,0:0:0:0:
256,192,43028,1,0,0:0:0:0:
256,192,43178,1,8,0:0:0:0:
256,192,43328,1,12,0:0:0:0:
256,192,43628,1,4,0:0:0:0:
256,192,43928,1,8,0:0:0:0:
256,192,44078,1,0,0:0:0:0:
256,192,44153,1,0,0:0:0:0:
256,192,44228,1,8,0:0:0:0:
256,192,44303,1,8,0:0:0:0:
256,192,44378,1,0,0:0:0:0:
256,192,44528,1,8,0:0:0:0:
256,192,44678,1,0,0:0:0:0:
256,192,44753,1,0,0:0:0:0:
256,192,44828,1,8,0:0:0:0:
256,192,44903,1,8,0:0:0:0:
256,192,44978,1,8,0:0:0:0:
256,192,45053,1,8,0:0:0:0:
256,192,45128,1,0,0:0:0:0:
256,192,45278,1,0,0:0:0:0:
256,192,45428,1,8,0:0:0:0:
256,192,45578,1,12,0:0:0:0:
256,192,45878,1,0,0:0:0:0:
256,192,45953,1,0,0:0:0:0:
256,192,46028,1,8,0:0:0:0:
256,192,46328,1,4,0:0:0:0:
256,192,46478,1,0,0:0:0:0:
256,192,46628,1,8,0:0:0:0:
256,192,46928,1,0,0:0:0:0:
256,192,47078,1,0,0:0:0:0:
256,192,47228,1,8,0:0:0:0:
256,192,47378,1,8,0:0:0:0:
256,192,47528,1,0,0:0:0:0:
256,192,47828,1,8,0:0:0:0:
256,192,47978,1,0,0:0:0:0:
256,192,48278,1,0,0:0:0:0:
256,192,48428,1,8,0:0:0:0:
256,192,48578,1,0,0:0:0:0:
256,192,48728,1,0,0:0:0:0:
256,192,48803,1,0,0:0:0:0:
256,192,48878,1,0,0:0:0:0:
256,192,49028,1,8,0:0:0:0:
256,192,49178,1,0,0:0:0:0:
256,192,49328,1,8,0:0:0:0:
256,192,49478,1,8,0:0:0:0:
256,192,49628,1,0,0:0:0:0:
256,192,49778,1,8,0:0:0:0:
256,192,49853,1,8,0:0:0:0:
256,192,49928,1,0,0:0:0:0:
256,192,50078,1,8,0:0:0:0:
256,192,50228,1,0,0:0:0:0:
256,192,50378,1,8,0:0:0:0:
256,192,50453,1,0,0:0:0:0:
256,192,50528,1,8,0:0:0:0:
256,192,50603,1,8,0:0:0:0:
256,192,50678,1,0,0:0:0:0:
256,192,50828,1,12,0:0:0:0:
256,192,51128,1,4,0:0:0:0:
256,192,51428,1,8,0:0:0:0:
256,192,51728,1,0,0:0:0:0:
256,192,51878,1,8,0:0:0:0:
256,192,52028,1,8,0:0:0:0:
256,192,52178,1,0,0:0:0:0:
256,192,52328,1,12,0:0:0:0:
256,192,52628,1,8,0:0:0:0:
256,192,52778,1,0,0:0:0:0:
256,192,52928,1,8,0:0:0:0:
256,192,53078,1,0,0:0:0:0:
256,192,53153,1,8,0:0:0:0:
256,192,53228,1,8,0:0:0:0:
256,192,53378,1,0,0:0:0:0:
256,192,53453,1,0,0:0:0:0:
256,192,53528,1,8,0:0:0:0:
256,192,53678,1,0,0:0:0:0:
256,192,53753,1,0,0:0:0:0:
256,192,53828,1,0,0:0:0:0:
256,192,53903,1,0,0:0:0:0:
256,192,53978,1,8,0:0:0:0:
256,192,54128,1,0,0:0:0:0:
256,192,54203,1,0,0:0:0:0:
256,192,54278,1,0,0:0:0:0:
256,192,54353,1,0,0:0:0:0:
256,192,54428,1,8,0:0:0:0:
256,192,54578,1,0,0:0:0:0:
256,192,54653,1,0,0:0:0:0:
256,192,54728,1,0,0:0:0:0:
256,192,54803,1,0,0:0:0:0:
256,192,54878,1,8,0:0:0:0:
256,192,55028,1,0,0:0:0:0:
256,192,55103,1,0,0:0:0:0:
256,192,55178,1,8,0:0:0:0:
256,192,55253,1,0,0:0:0:0:
256,192,55328,1,8,0:0:0:0:
256,192,55478,1,0,0:0:0:0:
256,192,55628,1,12,0:0:0:0:
256,192,55778,1,8,0:0:0:0:
256,192,55928,5,4,0:0:0:0:
256,192,56228,1,2,0:0:0:0:
256,192,56378,1,0,0:0:0:0:
256,192,56678,1,0,0:0:0:0:
256,192,56828,1,2,0:0:0:0:
256,192,57128,1,2,0:0:0:0:
256,192,57428,1,0,0:0:0:0:
256,192,57578,1,2,0:0:0:0:
256,192,57878,1,2,0:0:0:0:
256,192,58028,1,2,0:0:0:0:
256,192,58178,1,0,0:0:0:0:
256,192,58328,1,2,0:0:0:0:
256,192,58478,1,0,0:0:0:0:
256,192,58553,1,0,0:0:0:0:
256,192,58628,1,0,0:0:0:0:
256,192,58778,1,2,0:0:0:0:
256,192,58928,1,0,0:0:0:0:
256,192,59078,1,0,0:0:0:0:
256,192,59228,1,2,0:0:0:0:
256,192,59378,1,0,0:0:0:0:
256,192,59453,1,0,0:0:0:0:
256,192,59528,1,0,0:0:0:0:
256,192,59678,1,2,0:0:0:0:
256,192,59828,1,0,0:0:0:0:
256,192,59978,1,0,0:0:0:0:
256,192,60128,1,2,0:0:0:0:
256,192,60278,1,0,0:0:0:0:
256,192,60353,1,0,0:0:0:0:
256,192,60428,1,2,0:0:0:0:
256,192,60578,1,0,0:0:0:0:
256,192,60728,1,2,0:0:0:0:
256,192,61028,1,2,0:0:0:0:
256,192,61178,1,0,0:0:0:0:
256,192,61478,1,0,0:0:0:0:
256,192,61628,1,2,0:0:0:0:
256,192,61928,1,2,0:0:0:0:
256,192,62228,1,0,0:0:0:0:
256,192,62378,1,2,0:0:0:0:
256,192,62528,1,6,0:0:0:0:
256,192,62678,1,0,0:0:0:0:
256,192,62828,1,6,0:0:0:0:
256,192,63128,1,4,0:0:0:0:
256,192,63278,1,0,0:0:0:0:
256,192,63428,1,2,0:0:0:0:
256,192,63728,1,0,0:0:0:0:
256,192,63878,1,0,0:0:0:0:
256,192,64028,1,2,0:0:0:0:
256,192,64328,1,2,0:0:0:0:
256,192,64403,1,2,0:0:0:0:
256,192,64478,1,0,0:0:0:0:
256,192,64628,1,2,0:0:0:0:
256,192,64778,1,6,0:0:0:0:
256,192,65078,1,0,0:0:0:0:
256,192,65153,1,0,0:0:0:0:
256,192,65228,1,2,0:0:0:0:
256,192,65378,1,0,0:0:0:0:
256,192,65528,1,4,0:0:0:0:
256,192,65828,1,2,0:0:0:0:
256,192,65978,1,0,0:0:0:0:
256,192,66128,1,0,0:0:0:0:
256,192,66278,1,2,0:0:0:0:
256,192,66578,1,0,0:0:0:0:
256,192,66728,1,2,0:0:0:0:
256,192,66878,1,0,0:0:0:0:
256,192,67028,1,0,0:0:0:0:
256,192,67178,1,2,0:0:0:0:
256,192,67478,1,0,0:0:0:0:
256,192,67628,1,2,0:0:0:0:
256,192,67778,1,0,0:0:0:0:
256,192,67928,1,2,0:0:0:0:
256,192,68078,1,0,0:0:0:0:
256,192,68153,1,0,0:0:0:0:
256,192,68228,1,2,0:0:0:0:
256,192,68378,1,2,0:0:0:0:
256,192,68528,1,0,0:0:0:0:
256,192,68678,1,0,0:0:0:0:
256,192,68828,1,2,0:0:0:0:
256,192,68978,1,0,0:0:0:0:
256,192,69053,1,0,0:0:0:0:
256,192,69128,1,0,0:0:0:0:
256,192,69278,1,2,0:0:0:0:
256,192,69428,1,0,0:0:0:0:
256,192,69578,1,0,0:0:0:0:
256,192,69728,1,2,0:0:0:0:
256,192,69878,1,0,0:0:0:0:
256,192,69953,1,0,0:0:0:0:
256,192,70028,1,2,0:0:0:0:
256,192,70178,1,0,0:0:0:0:
256,192,70328,1,6,0:0:0:0:
256,192,70628,1,0,0:0:0:0:
256,192,70778,1,2,0:0:0:0:
256,192,71078,1,0,0:0:0:0:
256,192,71228,1,0,0:0:0:0:
256,192,71303,1,2,0:0:0:0:
256,192,71378,1,2,0:0:0:0:
256,192,71528,1,6,0:0:0:0:
256,192,71828,1,2,0:0:0:0:
256,192,71978,1,0,0:0:0:0:
256,192,72278,1,0,0:0:0:0:
256,192,72353,1,0,0:0:0:0:
256,192,72428,1,2,0:0:0:0:
256,192,72503,1,2,0:0:0:0:
256,192,72578,1,0,0:0:0:0:
256,192,72653,1,0,0:0:0:0:
256,192,72728,1,2,0:0:0:0:
256,192,72803,1,2,0:0:0:0:
256,192,72878,1,2,0:0:0:0:
256,192,72953,1,0,0:0:0:0:
256,192,73028,1,0,0:0:0:0:
256,192,73103,1,0,0:0:0:0:
256,192,73178,1,2,0:0:0:0:
256,192,73253,1,0,0:0:0:0:
256,192,73328,1,0,0:0:0:0:
256,192,73403,1,0,0:0:0:0:
256,192,73478,1,0,0:0:0:0:
256,192,73553,1,0,0:0:0:0:
256,192,73628,1,2,0:0:0:0:
256,192,73703,1,2,0:0:0:0:
256,192,73778,1,0,0:0:0:0:
256,192,73853,1,0,0:0:0:0:
256,192,73928,1,0,0:0:0:0:
256,192,74003,1,0,0:0:0:0:
256,192,74078,1,2,0:0:0:0:
256,192,74153,1,0,0:0:0:0:
256,192,74228,1,0,0:0:0:0:
256,192,74303,1,0,0:0:0:0:
256,192,74378,1,0,0:0:0:0:
256,192,74453,1,0,0:0:0:0:
256,192,74528,1,2,0:0:0:0:
256,192,74628,1,2,0:0:0:0:
256,192,74728,1,0,0:0:0:0:
256,192,74828,1,2,0:0:0:0:
256,192,74928,1,0,0:0:0:0:
256,192,75028,1,0,0:0:0:0:
256,192,75128,5,0,0:0:0:0:
256,192,75278,1,0,0:0:0:0:
256,192,75428,1,8,0:0:0:0:
256,192,75728,1,0,0:0:0:0:
256,192,75878,1,8,0:0:0:0:
256,192,76178,1,0,0:0:0:0:
256,192,76478,1,0,0:0:0:0:
256,192,76628,1,0,0:0:0:0:
256,192,76778,1,0,0:0:0:0:
256,192,76928,1,8,0:0:0:0:
256,192,77228,1,8,0:0:0:0:
256,192,77378,1,8,0:0:0:0:
256,192,77528,1,0,0:0:0:0:
256,192,77978,1,0,0:0:0:0:
256,192,78128,1,8,0:0:0:0:
256,192,78428,1,0,0:0:0:0:
256,192,78578,1,0,0:0:0:0:
256,192,78878,1,0,0:0:0:0:
256,192,79178,1,0,0:0:0:0:
256,192,79328,1,8,0:0:0:0:
256,192,79478,1,8,0:0:0:0:
256,192,79628,1,0,0:0:0:0:
256,192,79703,1,0,0:0:0:0:
256,192,79778,1,0,0:0:0:0:
256,192,79928,1,8,0:0:0:0:
256,192,80228,1,0,0:0:0:0:
256,192,80378,1,0,0:0:0:0:
256,192,80453,1,0,0:0:0:0:
256,192,80528,1,8,0:0:0:0:
256,192,80828,1,0,0:0:0:0:
256,192,80978,1,0,0:0:0:0:
256,192,81278,1,0,0:0:0:0:
256,192,81428,1,0,0:0:0:0:
256,192,81728,1,8,0:0:0:0:
256,192,82028,1,8,0:0:0:0:
256,192,82178,1,8,0:0:0:0:
256,192,82328,1,0,0:0:0:0:
256,192,82628,1,0,0:0:0:0:
256,192,82778,1,0,0:0:0:0:
256,192,82928,1,8,0:0:0:0:
256,192,83228,1,0,0:0:0:0:
256,192,83378,1,12,0:0:0:0:
256,192,83528,1,0,0:0:0:0:
256,192,83678,1,12,0:0:0:0:
256,192,83828,1,0,0:0:0:0:
256,192,83903,1,0,0:0:0:0:
256,192,83978,1,0,0:0:0:0:
256,192,84128,1,12,0:0:0:0:
256,192,84278,1,0,0:0:0:0:
256,192,84353,1,0,0:0:0:0:
256,192,84428,1,8,0:0:0:0:
256,192,84578,1,0,0:0:0:0:
256,192,84728,1,8,0:0:0:0:
256,192,84828,1,0,0:0:0:0:
256,192,84928,1,0,0:0:0:0:
256,192,85028,1,8,0:0:0:0:
256,192,85128,1,0,0:0:0:0:
256,192,85228,1,0,0:0:0:0:
256,192,85328,1,8,0:0:0:0:
256,192,85553,1,0,0:0:0:0:
256,192,85628,1,8,0:0:0:0:
256,192,85778,1,0,0:0:0:0:
256,192,86078,1,0,0:0:0:0:
256,192,86228,1,0,0:0:0:0:
256,192,86528,1,8,0:0:0:0:
256,192,86828,1,8,0:0:0:0:
256,192,86978,1,8,0:0:0:0:
256,192,87128,1,0,0:0:0:0:
256,192,87428,1,0,0:0:0:0:
256,192,87578,1,0,0:0:0:0:
256,192,87728,1,8,0:0:0:0:
256,192,88028,1,0,0:0:0:0:
256,192,88178,1,0,0:0:0:0:
256,192,88478,1,0,0:0:0:0:
256,192,88778,1,0,0:0:0:0:
256,192,88928,1,12,0:0:0:0:
256,192,89078,1,0,0:0:0:0:
256,192,89228,1,12,0:0:0:0:
256,192,89378,1,8,0:0:0:0:
256,192,89528,1,4,0:0:0:0:
256,192,89678,1,0,0:0:0:0:
256,192,89753,1,0,0:0:0:0:
256,192,89828,1,8,0:0:0:0:
256,192,89978,1,0,0:0:0:0:
256,192,90128,1,8,0:0:0:0:
256,192,90278,1,8,0:0:0:0:
256,192,90428,1,0,0:0:0:0:
256,192,90578,1,8,0:0:0:0:
256,192,90878,1,0,0:0:0:0:
256,192,91028,1,8,0:0:0:0:
256,192,91103,1,8,0:0:0:0:
256,192,91178,1,8,0:0:0:0:
256,192,91328,1,0,0:0:0:0:
256,192,91478,1,12,0:0:0:0:
256,192,91778,1,12,0:0:0:0:
256,192,91928,1,0,0:0:0:0:
256,192,92003,1,0,0:0:0:0:
256,192,92078,1,0,0:0:0:0:
256,192,92228,1,8,0:0:0:0:
256,192,92378,1,0,0:0:0:0:
256,192,92528,1,8,0:0:0:0:
256,192,92678,1,12,0:0:0:0:
256,192,92828,1,0,0:0:0:0:
256,192,92978,1,0,0:0:0:0:
256,192,93053,1,0,0:0:0:0:
256,192,93128,1,8,0:0:0:0:
256,192,93203,1,8,0:0:0:0:
256,192,93278,1,0,0:0:0:0:
256,192,93353,1,0,0:0:0:0:
256,192,93428,1,8,0:0:0:0:
256,192,93503,1,0,0:0:0:0:
256,192,93578,1,0,0:0:0:0:
256,192,93653,1,0,0:0:0:0:
256,192,93728,1,8,0:0:0:0:
256,192,93803,1,8,0:0:0:0:
256,192,93878,1,8,0:0:0:0:
256,192,94028,1,0,0:0:0:0:
256,192,94178,1,12,0:0:0:0:
256,192,94478,5,0,0:0:0:0:
256,192,94553,1,0,0:0:0:0:
256,192,94628,1,2,0:0:0:0:
256,192,94778,1,2,0:0:0:0:
256,192,94928,1,0,0:0:0:0:
256,192,95003,1,0,0:0:0:0:
256,192,95078,1,2,0:0:0:0:
256,192,95228,1,0,0:0:0:0:
256,192,95378,1,2,0:0:0:0:
256,192,95678,1,0,0:0:0:0:
256,192,95828,1,2,0:0:0:0:
256,192,95903,1,0,0:0:0:0:
256,192,95978,1,0,0:0:0:0:
256,192,96128,1,0,0:0:0:0:
256,192,96278,1,2,0:0:0:0:
256,192,96353,1,2,0:0:0:0:
256,192,96428,1,0,0:0:0:0:
256,192,96578,1,2,0:0:0:0:
256,192,96728,1,0,0:0:0:0:
256,192,96803,1,0,0:0:0:0:
256,192,96878,1,0,0:0:0:0:
256,192,97028,1,2,0:0:0:0:
256,192,97103,1,0,0:0:0:0:
256,192,97178,1,0,0:0:0:0:
256,192,97328,1,0,0:0:0:0:
256,192,97478,1,2,0:0:0:0:
256,192,97553,1,2,0:0:0:0:
256,192,97628,1,0,0:0:0:0:
256,192,97703,1,2,0:0:0:0:
256,192,97778,1,0,0:0:0:0:
256,192,98078,1,0,0:0:0:0:
256,192,98153,1,0,0:0:0:0:
256,192,98228,1,2,0:0:0:0:
256,192,98378,1,0,0:0:0:0:
256,192,98528,1,0,0:0:0:0:
256,192,98603,1,0,0:0:0:0:
256,192,98678,1,2,0:0:0:0:
256,192,98753,1,2,0:0:0:0:
256,192,98828,1,0,0:0:0:0:
256,192,98978,1,2,0:0:0:0:
256,192,99128,1,0,0:0:0:0:
256,192,99203,1,0,0:0:0:0:
256,192,99278,1,0,0:0:0:0:
256,192,99428,1,6,0:0:0:0:
256,192,99578,1,2,0:0:0:0:
256,192,99728,1,0,0:0:0:0:
256,192,99803,1,2,0:0:0:0:
256,192,99878,1,2,0:0:0:0:
256,192,99953,1,0,0:0:0:0:
256,192,100028,1,0,0:0:0:0:
256,192,100178,1,2,0:0:0:0:
256,192,100478,1,0,0:0:0:0:
256,192,100628,1,2,0:0:0:0:
256,192,100703,1,0,0:0:0:0:
256,192,100778,1,0,0:0:0:0:
256,192,100928,1,6,0:0:0:0:
256,192,101078,1,0,0:0:0:0:
256,192,101228,1,6,0:0:0:0:
256,192,101528,1,4,0:0:0:0:
256,192,101678,1,0,0:0:0:0:
256,192,101828,1,2,0:0:0:0:
256,192,101903,1,2,0:0:0:0:
256,192,101978,1,0,0:0:0:0:
256,192,102128,1,2,0:0:0:0:
256,192,102278,1,0,0:0:0:0:
256,192,102353,1,0,0:0:0:0:
256,192,102428,1,2,0:0:0:0:
256,192,102578,1,4,0:0:0:0:
256,192,102878,1,0,0:0:0:0:
256,192,102953,1,0,0:0:0:0:
256,192,103028,1,2,0:0:0:0:
256,192,103103,1,2,0:0:0:0:
256,192,103178,1,0,0:0:0:0:
256,192,103253,1,0,0:0:0:0:
256,192,103328,1,2,0:0:0:0:
256,192,103403,1,0,0:0:0:0:
256,192,103478,1,0,0:0:0:0:
256,192,103553,1,0,0:0:0:0:
256,192,103628,1,2,0:0:0:0:
256,192,103778,1,6,0:0:0:0:
256,192,104078,1,0,0:0:0:0:
256,192,104153,1,0,0:0:0:0:
256,192,104228,1,2,0:0:0:0:
256,192,104378,1,0,0:0:0:0:
256,192,104528,1,2,0:0:0:0:
256,192,104603,1,2,0:0:0:0:
256,192,104678,1,0,0:0:0:0:
256,192,104828,1,2,0:0:0:0:
256,192,104978,1,0,0:0:0:0:
256,192,105278,1,0,0:0:0:0:
256,192,105428,1,2,0:0:0:0:
256,192,105503,1,0,0:0:0:0:
256,192,105578,1,0,0:0:0:0:
256,192,105728,1,2,0:0:0:0:
256,192,105878,1,0,0:0:0:0:
256,192,105953,1,0,0:0:0:0:
256,192,106028,1,2,0:0:0:0:
256,192,106178,1,0,0:0:0:0:
256,192,106328,1,2,0:0:0:0:
256,192,106478,1,0,0:0:0:0:
256,192,106553,1,0,0:0:0:0:
256,192,106628,1,2,0:0:0:0:
256,192,106703,1,0,0:0:0:0:
256,192,106778,1,0,0:0:0:0:
256,192,106928,1,0,0:0:0:0:
256,192,107078,1,2,0:0:0:0:
256,192,107153,1,0,0:0:0:0:
256,192,107228,1,2,0:0:0:0:
256,192,107303,1,2,0:0:0:0:
256,192,107378,1,0,0:0:0:0:
256,192,107678,1,0,0:0:0:0:
256,192,107753,1,0,0:0:0:0:
256,192,107828,1,2,0:0:0:0:
256,192,107978,1,0,0:0:0:0:
256,192,108128,1,2,0:0:0:0:
256,192,108203,1,2,0:0:0:0:
256,192,108278,1,0,0:0:0:0:
256,192,108353,1,0,0:0:0:0:
256,192,108428,1,2,0:0:0:0:
256,192,108578,1,0,0:0:0:0:
256,192,108728,1,2,0:0:0:0:
256,192,108803,1,2,0:0:0:0:
256,192,108878,1,0,0:0:0:0:
256,192,109028,1,6,0:0:0:0:
256,192,109178,1,0,0:0:0:0:
256,192,109328,1,2,0:0:0:0:
256,192,109403,1,0,0:0:0:0:
256,192,109478,1,0,0:0:0:0:
256,192,109553,1,0,0:0:0:0:
256,192,109628,1,2,0:0:0:0:
256,192,109778,1,0,0:0:0:0:
256,192,110078,1,0,0:0:0:0:
256,192,110228,1,6,0:0:0:0:
256,192,110378,1,0,0:0:0:0:
256,192,110528,1,6,0:0:0:0:
256,192,110828,1,6,0:0:0:0:
256,192,111128,1,4,0:0:0:0:
256,192,111278,1,0,0:0:0:0:
256,192,111428,1,2,0:0:0:0:
256,192,111503,1,2,0:0:0:0:
256,192,111578,1,0,0:0:0:0:
256,192,111728,1,2,0:0:0:0:
256,192,111878,1,0,0:0:0:0:
256,192,111953,1,0,0:0:0:0:
256,192,112028,1,2,0:0:0:0:
256,192,112178,1,4,0:0:0:0:
256,192,112478,1,0,0:0:0:0:
256,192,112553,1,0,0:0:0:0:
256,192,112628,1,2,0:0:0:0:
256,192,112703,1,0,0:0:0:0:
256,192,112778,1,2,0:0:0:0:
256,192,112853,1,2,0:0:0:0:
256,192,112928,1,0,0:0:0:0:
256,192,113003,1,0,0:0:0:0:
256,192,113078,1,2,0:0:0:0:
256,192,113153,1,0,0:0:0:0:
256,192,113228,1,2,0:0:0:0:
256,192,113303,1,2,0:0:0:0:
256,192,113378,1,0,0:0:0:0:
256,192,113453,1,0,0:0:0:0:
256,192,113528,1,2,0:0:0:0:
256,192,113678,1,0,0:0:0:0:
256,192,113828,1,2,0:0:0:0:
256,192,113903,1,2,0:0:0:0:
256,192,113978,1,0,0:0:0:0:
256,192,114128,1,0,0:0:0:0:
256,192,114278,1,0,0:0:0:0:
256,192,114353,1,0,0:0:0:0:
256,192,114428,1,2,0:0:0:0:
256,192,114578,1,6,0:0:0:0:
256,192,114878,1,0,0:0:0:0:
256,192,115028,1,2,0:0:0:0:
256,192,115103,1,0,0:0:0:0:
256,192,115178,1,0,0:0:0:0:
256,192,115328,1,2,0:0:0:0:
256,192,115478,1,0,0:0:0:0:
256,192,115553,1,0,0:0:0:0:
256,192,115628,1,2,0:0:0:0:
256,192,115778,1,0,0:0:0:0:
256,192,115928,1,2,0:0:0:0:
256,192,116003,1,2,0:0:0:0:
256,192,116078,1,0,0:0:0:0:
256,192,116153,1,0,0:0:0:0:
256,192,116228,1,2,0:0:0:0:
256,192,116303,1,2,0:0:0:0:
256,192,116378,1,0,0:0:0:0:
256,192,116528,1,6,0:0:0:0:
256,192,116678,1,6,0:0:0:0:
256,192,116978,1,4,0:0:0:0:
256,192,117278,1,0,0:0:0:0:
256,192,117353,1,0,0:0:0:0:
256,192,117428,1,2,0:0:0:0:
256,192,117503,1,0,0:0:0:0:
256,192,117578,1,2,0:0:0:0:
256,192,117653,1,2,0:0:0:0:
256,192,117728,1,0,0:0:0:0:
256,192,117803,1,2,0:0:0:0:
256,192,117878,1,0,0:0:0:0:
256,192,117953,1,0,0:0:0:0:
256,192,118028,1,2,0:0:0:0:
256,192,118103,1,0,0:0:0:0:
256,192,118178,1,0,0:0:0:0:
256,192,118253,1,0,0:0:0:0:
256,192,118328,1,2,0:0:0:0:
256,192,118403,1,0,0:0:0:0:
256,192,118478,1,2,0:0:0:0:
256,192,118553,1,2,0:0:0:0:
256,192,118628,1,0,0:0:0:0:
256,192,118703,1,2,0:0:0:0:
256,192,118778,1,0,0:0:0:0:
256,192,118853,1,0,0:0:0:0:
256,192,118928,1,2,0:0:0:0:
256,192,119078,1,0,0:0:0:0:
256,192,119228,1,6,0:0:0:0:
256,192,119528,5,4,0:0:0:0:
256,192,119678,1,8,0:0:0:0:
256,192,119753,1,8,0:0:0:0:
256,192,119828,1,0,0:0:0:0:
256,192,119978,1,0,0:0:0:0:
256,192,120128,1,8,0:0:0:0:
256,192,120203,1,8,0:0:0:0:
256,192,120278,1,8,0:0:0:0:
256,192,120428,1,0,0:0:0:0:
256,192,120578,1,12,0:0:0:0:
256,192,120878,1,0,0:0:0:0:
256,192,121028,1,8,0:0:0:0:
256,192,121103,1,0,0:0:0:0:
256,192,121178,1,8,0:0:0:0:
256,192,121328,1,0,0:0:0:0:
256,192,121478,1,0,0:0:0:0:
256,192,121553,1,0,0:0:0:0:
256,192,121628,1,8,0:0:0:0:
256,192,121703,1,8,0:0:0:0:
256,192,121778,1,8,0:0:0:0:
256,192,121928,1,4,0:0:0:0:
256,192,122078,1,0,0:0:0:0:
256,192,122228,1,8,0:0:0:0:
256,192,122528,1,0,0:0:0:0:
256,192,122678,1,8,0:0:0:0:
256,192,122828,1,0,0:0:0:0:
256,192,122978,1,8,0:0:0:0:
256,192,123278,1,0,0:0:0:0:
256,192,123428,1,8,0:0:0:0:
256,192,123578,1,0,0:0:0:0:
256,192,123728,1,8,0:0:0:0:
256,192,123803,1,8,0:0:0:0:
256,192,123878,1,8,0:0:0:0:
256,192,124028,1,0,0:0:0:0:
256,192,124103,1,0,0:0:0:0:
256,192,124178,1,0,0:0:0:0:
256,192,124328,1,12,0:0:0:0:
256,192,124478,1,0,0:0:0:0:
256,192,124553,1,0,0:0:0:0:
256,192,124628,1,8,0:0:0:0:
256,192,124703,1,0,0:0:0:0:
256,192,124778,1,8,0:0:0:0:
256,192,124928,1,8,0:0:0:0:
256,192,125003,1,8,0:0:0:0:
256,192,125078,1,0,0:0:0:0:
256,192,125228,1,0,0:0:0:0:
256,192,125378,1,12,0:0:0:0:
256,192,125678,1,0,0:0:0:0:
256,192,125828,1,8,0:0:0:0:
256,192,125978,1,8,0:0:0:0:
256,192,126053,1,0,0:0:0:0:
256,192,126128,1,8,0:0:0:0:
256,192,126203,1,8,0:0:0:0:
256,192,126278,1,0,0:0:0:0:
256,192,126428,1,8,0:0:0:0:
256,192,126503,1,8,0:0:0:0:
256,192,126578,1,8,0:0:0:0:
256,192,126728,1,4,0:0:0:0:
256,192,127028,1,0,0:0:0:0:
256,192,127178,1,8,0:0:0:0:
256,192,127328,1,8,0:0:0:0:
256,192,127478,1,8,0:0:0:0:
256,192,127628,1,0,0:0:0:0:
256,192,127778,1,8,0:0:0:0:
256,192,128078,1,0,0:0:0:0:
256,192,128228,1,8,0:0:0:0:
256,192,128378,1,8,0:0:0:0:
256,192,128528,1,0,0:0:0:0:
256,192,128603,1,0,0:0:0:0:
256,192,128678,1,0,0:0:0:0:
256,192,128753,1,0,0:0:0:0:
256,192,128828,1,8,0:0:0:0:
256,192,128978,1,0,0:0:0:0:
256,192,129128,1,12,0:0:0:0:
256,192,129278,1,0,0:0:0:0:
256,192,129353,1,0,0:0:0:0:
256,192,129428,1,8,0:0:0:0:
256,192,129503,1,8,0:0:0:0:
256,192,129578,1,0,0:0:0:0:
256,192,129728,1,8,0:0:0:0:
256,192,129803,1,0,0:0:0:0:
256,192,129878,1,8,0:0:0:0:
256,192,130028,1,0,0:0:0:0:
256,192,130178,1,12,0:0:0:0:
256,192,130478,1,0,0:0:0:0:
256,192,130628,1,8,0:0:0:0:
256,192,130703,1,8,0:0:0:0:
256,192,130778,1,0,0:0:0:0:
256,192,130853,1,8,0:0:0:0:
256,192,130928,1,0,0:0:0:0:
256,192,131078,1,8,0:0:0:0:
256,192,131153,1,0,0:0:0:0:
256,192,131228,1,8,0:0:0:0:
256,192,131303,1,8,0:0:0:0:
256,192,131378,1,8,0:0:0:0:
256,192,131528,1,4,0:0:0:0:
256,192,131678,1,8,0:0:0:0:
256,192,131828,1,8,0:0:0:0:
256,192,132128,1,0,0:0:0:0:
256,192,132278,1,8,0:0:0:0:
256,192,132428,1,0,0:0:0:0:
256,192,132578,1,8,0:0:0:0:
256,192,132878,1,0,0:0:0:0:
256,192,132953,1,0,0:0:0:0:
256,192,133028,1,8,0:0:0:0:
256,192,133178,1,0,0:0:0:0:
256,192,133328,1,8,0:0:0:0:
256,192,133403,1,8,0:0:0:0:
256,192,133478,1,8,0:0:0:0:
256,192,133628,1,0,0:0:0:0:
256,192,133703,1,0,0:0:0:0:
256,192,133778,1,0,0:0:0:0:
256,192,133928,1,12,0:0:0:0:
256,192,134078,1,0,0:0:0:0:
256,192,134153,1,0,0:0:0:0:
256,192,134228,1,8,0:0:0:0:
256,192,134378,1,0,0:0:0:0:
256,192,134453,1,0,0:0:0:0:
256,192,134528,1,0,0:0:0:0:
256,192,134678,1,12,0:0:0:0:
256,192,134978,1,12,0:0:0:0:
256,192,135128,1,0,0:0:0:0:
256,192,135203,1,0,0:0:0:0:
256,192,135278,1,0,0:0:0:0:
256,192,135353,1,0,0:0:0:0:
256,192,135428,1,0,0:0:0:0:
256,192,135578,1,12,0:0:0:0:
256,192,135728,1,0,0:0:0:0:
256,192,135803,1,0,0:0:0:0:
256,192,135878,1,0,0:0:0:0:
256,192,136028,1,12,0:0:0:0:
256,192,136178,1,0,0:0:0:0:
256,192,136328,1,4,0:0:0:0:
256,192,136628,5,2,0:0:0:0:
256,192,136928,1,0,0:0:0:0:
256,192,137078,1,0,0:0:0:0:
256,192,137228,1,2,0:0:0:0:
256,192,137378,1,0,0:0:0:0:
256,192,137528,1,2,0:0:0:0:
256,192,137828,1,0,0:0:0:0:
256,192,137978,1,2,0:0:0:0:
256,192,138278,1,2,0:0:0:0:
256,192,138428,1,2,0:0:0:0:
256,192,138578,1,0,0:0:0:0:
256,192,138728,1,2,0:0:0:0:
256,192,138878,1,0,0:0:0:0:
256,192,138953,1,0,0:0:0:0:
256,192,139028,1,0,0:0:0:0:
256,192,139103,1,0,0:0:0:0:
256,192,139178,1,2,0:0:0:0:
256,192,139328,1,0,0:0:0:0:
256,192,139478,1,0,0:0:0:0:
256,192,139628,1,2,0:0:0:0:
256,192,139778,1,0,0:0:0:0:
256,192,139853,1,0,0:0:0:0:
256,192,139928,1,0,0:0:0:0:
256,192,140078,1,2,0:0:0:0:
256,192,140228,1,0,0:0:0:0:
256,192,140378,1,0,0:0:0:0:
256,192,140528,1,2,0:0:0:0:
256,192,140678,1,0,0:0:0:0:
256,192,140753,1,0,0:0:0:0:
256,192,140828,1,2,0:0:0:0:
256,192,140978,1,0,0:0:0:0:
256,192,141128,1,0,0:0:0:0:
256,192,141428,1,2,0:0:0:0:
256,192,141728,1,0,0:0:0:0:
256,192,141878,1,0,0:0:0:0:
256,192,142028,1,2,0:0:0:0:
256,192,142178,1,0,0:0:0:0:
256,192,142328,1,2,0:0:0:0:
256,192,142628,1,0,0:0:0:0:
256,192,142778,1,2,0:0:0:0:
256,192,142928,1,6,0:0:0:0:
256,192,143078,1,0,0:0:0:0:
256,192,143228,1,6,0:0:0:0:
256,192,143528,1,6,0:0:0:0:
256,192,143678,1,0,0:0:0:0:
256,192,143753,1,0,0:0:0:0:
256,192,143828,1,2,0:0:0:0:
256,192,143978,1,0,0:0:0:0:
256,192,144128,1,2,0:0:0:0:
256,192,144278,1,0,0:0:0:0:
256,192,144353,1,0,0:0:0:0:
256,192,144428,1,0,0:0:0:0:
256,192,144578,1,0,0:0:0:0:
256,192,144728,1,2,0:0:0:0:
256,192,144803,1,2,0:0:0:0:
256,192,144878,1,0,0:0:0:0:
256,192,145028,1,0,0:0:0:0:
256,192,145178,1,6,0:0:0:0:
256,192,145328,1,0,0:0:0:0:
256,192,145478,1,2,0:0:0:0:
256,192,145553,1,0,0:0:0:0:
256,192,145628,1,2,0:0:0:0:
256,192,145778,1,0,0:0:0:0:
256,192,145928,1,4,0:0:0:0:
256,192,146228,1,2,0:0:0:0:
256,192,146528,1,0,0:0:0:0:
256,192,146678,1,0,0:0:0:0:
256,192,146828,1,2,0:0:0:0:
256,192,146978,1,0,0:0:0:0:
256,192,147128,1,2,0:0:0:0:
256,192,147428,1,0,0:0:0:0:
256,192,147578,1,2,0:0:0:0:
256,192,147878,1,0,0:0:0:0:
256,192,148028,1,2,0:0:0:0:
256,192,148178,1,0,0:0:0:0:
256,192,148328,1,2,0:0:0:0:
256,192,148478,1,0,0:0:0:0:
256,192,148553,1,0,0:0:0:0:
256,192,148628,1,2,0:0:0:0:
256,192,148703,1,0,0:0:0:0:
256,192,148778,1,2,0:0:0:0:
256,192,148928,1,0,0:0:0:0:
256,192,149078,1,0,0:0:0:0:
256,192,149228,1,2,0:0:0:0:
256,192,149378,1,0,0:0:0:0:
256,192,149453,1,0,0:0:0:0:
256,192,149528,1,0,0:0:0:0:
256,192,149678,1,2,0:0:0:0:
256,192,149828,1,0,0:0:0:0:
256,192,149978,1,0,0:0:0:0:
256,192,150128,1,2,0:0:0:0:
256,192,150278,1,0,0:0:0:0:
256,192,150353,1,0,0:0:0:0:
256,192,150428,1,2,0:0:0:0:
256,192,150578,1,0,0:0:0:0:
256,192,150728,1,6,0:0:0:0:
256,192,151028,1,0,0:0:0:0:
256,192,151178,1,2,0:0:0:0:
256,192,151478,1,2,0:0:0:0:
256,192,151628,1,0,0:0:0:0:
256,192,151703,1,2,0:0:0:0:
256,192,151778,1,2,0:0:0:0:
256,192,151928,1,6,0:0:0:0:
256,192,152228,1,0,0:0:0:0:
256,192,152303,1,0,0:0:0:0:
256,192,152378,1,2,0:0:0:0:
256,192,152678,1,0,0:0:0:0:
256,192,152753,1,0,0:0:0:0:
256,192,152828,1,2,0:0:0:0:
256,192,152903,1,2,0:0:0:0:
256,192,152978,1,0,0:0:0:0:
256,192,153053,1,0,0:0:0:0:
256,192,153128,1,2,0:0:0:0:
256,192,153203,1,2,0:0:0:0:
256,192,153278,1,2,0:0:0:0:
256,192,153353,1,0,0:0:0:0:
256,192,153428,1,0,0:0:0:0:
256,192,153503,1,0,0:0:0:0:
256,192,153578,1,2,0:0:0:0:
256,192,153653,1,0,0:0:0:0:
256,192,153728,1,0,0:0:0:0:
256,192,153803,1,0,0:0:0:0:
256,192,153878,1,0,0:0:0:0:
256,192,153953,1,0,0:0:0:0:
256,192,154028,1,2,0:0:0:0:
256,192,154103,1,2,0:0:0:0:
256,192,154178,1,0,0:0:0:0:
256,192,154253,1,0,0:0:0:0:
256,192,154328,1,0,0:0:0:0:
256,192,154403,1,0,0:0:0:0:
256,192,154478,1,2,0:0:0:0:
256,192,154553,1,0,0:0:0:0:
256,192,154628,1,0,0:0:0:0:
256,192,154703,1,0,0:0:0:0:
256,192,154778,1,0,0:0:0:0:
256,192,154853,1,0,0:0:0:0:
256,192,154928,1,2,0:0:0:0:
256,192,155003,1,2,0:0:0:0:
256,192,155078,1,2,0:0:0:0:
256,192,155153,1,2,0:0:0:0:
256,192,155228,1,0,0:0:0:0:
256,192,155303,1,0,0:0:0:0:
256,192,155378,1,0,0:0:0:0:
256,192,155453,1,0,0:0:0:0:
256,192,155528,1,0,0:0:0:0:
256,192,155828,5,8,0:0:0:0:
256,192,155903,1,8,0:0:0:0:
256,192,155978,1,8,0:0:0:0:
256,192,156128,1,0,0:0:0:0:
256,192,156278,1,8,0:0:0:0:
256,192,156428,1,0,0:0:0:0:
256,192,156503,1,0,0:0:0:0:
256,192,156578,1,8,0:0:0:0:
256,192,156728,1,0,0:0:0:0:
256,192,156878,1,8,0:0:0:0:
256,192,157028,1,8,0:0:0:0:
256,192,157103,1,8,0:0:0:0:
256,192,157178,1,8,0:0:0:0:
256,192,157328,1,0,0:0:0:0:
256,192,157478,1,8,0:0:0:0:
256,192,157553,1,0,0:0:0:0:
256,192,157628,1,8,0:0:0:0:
256,192,157703,1,8,0:0:0:0:
256,192,157778,1,0,0:0:0:0:
256,192,157853,1,8,0:0:0:0:
256,192,157928,1,0,0:0:0:0:
256,192,158078,1,0,0:0:0:0:
256,192,158228,1,8,0:0:0:0:
256,192,158303,1,8,0:0:0:0:
256,192,158378,1,0,0:0:0:0:
256,192,158453,1,0,0:0:0:0:
256,192,158528,1,8,0:0:0:0:
256,192,158678,1,8,0:0:0:0:
256,192,158828,1,0,0:0:0:0:
256,192,158903,1,0,0:0:0:0:
256,192,158978,1,8,0:0:0:0:
256,192,159128,1,0,0:0:0:0:
256,192,159278,1,8,0:0:0:0:
256,192,159353,1,0,0:0:0:0:
256,192,159428,1,8,0:0:0:0:
256,192,159503,1,8,0:0:0:0:
256,192,159578,1,0,0:0:0:0:
256,192,159728,1,12,0:0:0:0:
256,192,160028,1,4,0:0:0:0:
256,192,160178,1,0,0:0:0:0:
256,192,160328,2,4,L|448:192,7,167.999990867615
256,192,162728,1,0,0:0:0:0:
256,192,163028,1,0,0:0:0:0:
256,192,163178,1,0,0:0:0:0:
256,192,163328,1,8,0:0:0:0:
256,192,163478,1,8,0:0:0:0:
256,192,163778,1,8,0:0:0:0:
256,192,164078,1,0,0:0:0:0:
256,192,164228,1,8,0:0:0:0:
256,192,164378,1,0,0:0:0:0:
256,192,164528,1,8,0:0:0:0:
256,192,164678,1,0,0:0:0:0:
256,192,164828,1,8,0:0:0:0:
256,192,164978,1,8,0:0:0:0:
256,192,165128,1,4,0:0:0:0:
256,192,165428,1,8,0:0:0:0:
256,192,165578,1,8,0:0:0:0:
256,192,165653,1,8,0:0:0:0:
256,192,165728,1,0,0:0:0:0:
256,192,165878,1,8,0:0:0:0:
256,192,165953,1,0,0:0:0:0:
256,192,166028,1,0,0:0:0:0:
256,192,166178,1,8,0:0:0:0:
256,192,166328,1,0,0:0:0:0:
256,192,166478,1,8,0:0:0:0:
256,192,166553,1,8,0:0:0:0:
256,192,166628,1,8,0:0:0:0:
256,192,166778,1,0,0:0:0:0:
256,192,166928,1,8,0:0:0:0:
256,192,167003,1,8,0:0:0:0:
256,192,167078,1,0,0:0:0:0:
256,192,167153,1,0,0:0:0:0:
256,192,167228,1,8,0:0:0:0:
256,192,167303,1,0,0:0:0:0:
256,192,167378,1,8,0:0:0:0:
256,192,167528,1,0,0:0:0:0:
256,192,167603,1,0,0:0:0:0:
256,192,167678,1,0,0:0:0:0:
256,192,167828,1,8,0:0:0:0:
256,192,167978,1,0,0:0:0:0:
256,192,168128,1,8,0:0:0:0:
256,192,168203,1,0,0:0:0:0:
256,192,168278,1,8,0:0:0:0:
256,192,168428,1,0,0:0:0:0:
256,192,168578,1,8,0:0:0:0:
256,192,168878,1,0,0:0:0:0:
256,192,169028,1,8,0:0:0:0:
256,192,169103,1,8,0:0:0:0:
256,192,169178,1,0,0:0:0:0:
256,192,169328,1,8,0:0:0:0:
256,192,169528,1,0,0:0:0:0:
256,192,169628,1,8,0:0:0:0:
256,192,169728,1,8,0:0:0:0:
256,192,169828,1,8,0:0:0:0:
256,192,169928,1,4,0:0:0:0:
256,192,170228,1,4,0:0:0:0:
256,192,170528,1,12,0:0:0:0:
256,192,170828,1,0,0:0:0:0:
256,192,170978,1,8,0:0:0:0:
256,192,171278,1,8,0:0:0:0:
256,192,171428,1,0,0:0:0:0:
256,192,171578,1,0,0:0:0:0:
256,192,171728,1,8,0:0:0:0:
256,192,172028,1,0,0:0:0:0:
256,192,172328,1,12,0:0:0:0:
256,192,172628,1,4,0:0:0:0:
256,192,172928,1,12,0:0:0:0:
256,192,173228,1,0,0:0:0:0:
256,192,173378,1,0,0:0:0:0:
256,192,173678,1,0,0:0:0:0:
256,192,173828,1,0,0:0:0:0:
256,192,173978,1,0,0:0:0:0:
256,192,174053,1,0,0:0:0:0:
256,192,174128,1,8,0:0:0:0:
256,192,174428,1,8,0:0:0:0:
256,192,174578,1,0,0:0:0:0:
256,192,174728,1,12,0:0:0:0:
256,192,174878,1,0,0:0:0:0:
256,192,174953,1,0,0:0:0:0:
256,192,175028,1,8,0:0:0:0:
256,192,175103,1,8,0:0:0:0:
256,192,175178,1,0,0:0:0:0:
256,192,175253,1,0,0:0:0:0:
256,192,175328,1,8,0:0:0:0:
256,192,175478,1,8,0:0:0:0:
256,192,175628,1,0,0:0:0:0:
256,192,175778,1,12,0:0:0:0:
256,192,176078,1,0,0:0:0:0:
256,192,176228,1,8,0:0:0:0:
256,192,176378,1,0,0:0:0:0:
256,192,176453,1,0,0:0:0:0:
256,192,176528,1,0,0:0:0:0:
256,192,176678,1,8,0:0:0:0:
256,192,176828,1,8,0:0:0:0:
256,192,176978,1,0,0:0:0:0:
256,192,177128,1,8,0:0:0:0:
256,192,177203,1,8,0:0:0:0:
256,192,177278,1,0,0:0:0:0:
256,192,177353,1,8,0:0:0:0:
256,192,177428,1,0,0:0:0:0:
256,192,177503,1,0,0:0:0:0:
256,192,177578,1,8,0:0:0:0:
256,192,177653,1,8,0:0:0:0:
256,192,177728,1,0,0:0:0:0:
256,192,177803,1,8,0:0:0:0:
256,192,177878,1,0,0:0:0:0:
256,192,177953,1,0,0:0:0:0:
256,192,178028,1,8,0:0:0:0:
256,192,178178,1,12,0:0:0:0:
256,192,178478,1,0,0:0:0:0:
256,192,178628,1,0,0:0:0:0:
256,192,178778,1,0,0:0:0:0:
256,192,178928,1,8,0:0:0:0:
256,192,179078,1,8,0:0:0:0:
256,192,179228,1,8,0:0:0:0:
256,192,179378,1,8,0:0:0:0:
256,192,179528,2,4,L|348:192,7,90.9999936647419
256,192,180728,1,8,0:0:0:0:
256,192,180803,1,8,0:0:0:0:
256,192,180878,1,0,0:0:0:0:
256,192,180953,1,0,0:0:0:0:
256,192,181028,1,8,0:0:0:0:
256,192,181103,1,0,0:0:0:0:
256,192,181178,1,8,0:0:0:0:
256,192,181253,1,8,0:0:0:0:
256,192,181328,1,0,0:0:0:0:
256,192,181403,1,8,0:0:0:0:
256,192,181478,1,0,0:0:0:0:
256,192,181553,1,0,0:0:0:0:
256,192,181628,1,8,0:0:0:0:
256,192,181928,5,4,0:0:0:0:
256,192,182228,1,2,0:0:0:0:
256,192,182378,1,0,0:0:0:0:
256,192,182528,1,2,0:0:0:0:
256,192,182828,1,0,0:0:0:0:
256,192,182978,1,0,0:0:0:0:
256,192,183128,1,2,0:0:0:0:
256,192,183428,1,0,0:0:0:0:
256,192,183578,1,2,0:0:0:0:
256,192,183728,1,2,0:0:0:0:
256,192,183878,1,0,0:0:0:0:
256,192,184028,1,0,0:0:0:0:
256,192,184178,1,2,0:0:0:0:
256,192,184328,1,2,0:0:0:0:
256,192,184628,1,2,0:0:0:0:
256,192,184778,1,0,0:0:0:0:
256,192,184928,1,2,0:0:0:0:
256,192,185228,1,0,0:0:0:0:
256,192,185378,1,0,0:0:0:0:
256,192,185528,1,2,0:0:0:0:
256,192,185678,1,0,0:0:0:0:
256,192,185828,1,2,0:0:0:0:
256,192,185978,1,2,0:0:0:0:
256,192,186128,1,0,0:0:0:0:
256,192,186278,1,2,0:0:0:0:
256,192,186428,1,2,0:0:0:0:
256,192,186578,1,0,0:0:0:0:
256,192,186728,1,6,0:0:0:0:
256,192,187028,1,2,0:0:0:0:
256,192,187178,1,0,0:0:0:0:
256,192,187328,1,2,0:0:0:0:
256,192,187628,1,0,0:0:0:0:
256,192,187778,1,0,0:0:0:0:
256,192,187928,1,2,0:0:0:0:
256,192,188228,1,0,0:0:0:0:
256,192,188378,1,2,0:0:0:0:
256,192,188528,1,2,0:0:0:0:
256,192,188678,1,0,0:0:0:0:
256,192,188828,1,0,0:0:0:0:
256,192,188978,1,2,0:0:0:0:
256,192,189128,1,2,0:0:0:0:
256,192,189328,1,0,0:0:0:0:
256,192,189528,1,0,0:0:0:0:
256,192,189728,1,6,0:0:0:0:
256,192,190028,1,0,0:0:0:0:
256,192,190178,1,0,0:0:0:0:
256,192,190328,1,6,0:0:0:0:
256,192,190478,1,2,0:0:0:0:
256,192,190628,1,0,0:0:0:0:
256,192,190778,1,0,0:0:0:0:
256,192,190928,1,6,0:0:0:0:
256,192,191078,1,2,0:0:0:0:
256,192,191228,1,6,0:0:0:0:
256,192,191378,1,0,0:0:0:0:
256,192,191528,1,2,0:0:0:0:
256,192,191628,1,2,0:0:0:0:
256,192,191728,1,0,0:0:0:0:
256,192,191828,1,2,0:0:0:0:
256,192,191928,1,0,0:0:0:0:
256,192,192028,1,0,0:0:0:0:
256,192,192128,1,6,0:0:0:0:
256,192,192428,1,0,0:0:0:0:
256,192,192578,1,0,0:0:0:0:
256,192,192728,1,2,0:0:0:0:
256,192,193028,1,0,0:0:0:0:
256,192,193178,1,2,0:0:0:0:
256,192,193328,1,2,0:0:0:0:
256,192,193478,1,0,0:0:0:0:
256,192,193628,1,0,0:0:0:0:
256,192,193778,1,2,0:0:0:0:
256,192,193928,1,2,0:0:0:0:
256,192,194228,1,2,0:0:0:0:
256,192,194378,1,0,0:0:0:0:
256,192,194528,1,2,0:0:0:0:
256,192,194828,1,0,0:0:0:0:
256,192,194978,1,0,0:0:0:0:
256,192,195128,1,2,0:0:0:0:
256,192,195278,1,0,0:0:0:0:
256,192,195428,1,2,0:0:0:0:
256,192,195578,1,2,0:0:0:0:
256,192,195728,1,0,0:0:0:0:
256,192,195878,1,2,0:0:0:0:
256,192,196028,1,2,0:0:0:0:
256,192,196178,1,0,0:0:0:0:
256,192,196328,1,6,0:0:0:0:
256,192,196628,1,0,0:0:0:0:
256,192,196778,1,2,0:0:0:0:
256,192,196928,1,2,0:0:0:0:
256,192,197228,1,2,0:0:0:0:
256,192,197378,1,0,0:0:0:0:
256,192,197528,1,2,0:0:0:0:
256,192,197828,1,0,0:0:0:0:
256,192,197978,1,2,0:0:0:0:
256,192,198128,1,2,0:0:0:0:
256,192,198278,1,0,0:0:0:0:
256,192,198428,1,0,0:0:0:0:
256,192,198578,1,2,0:0:0:0:
256,192,198728,1,2,0:0:0:0:
256,192,198878,1,0,0:0:0:0:
256,192,199178,1,0,0:0:0:0:
256,192,199328,1,6,0:0:0:0:
256,192,199478,1,0,0:0:0:0:
256,192,199778,1,0,0:0:0:0:
256,192,199928,1,6,0:0:0:0:
256,192,200078,1,2,0:0:0:0:
256,192,200228,1,0,0:0:0:0:
256,192,200303,1,0,0:0:0:0:
256,192,200378,1,2,0:0:0:0:
256,192,200528,1,6,0:0:0:0:
256,192,200678,1,0,0:0:0:0:
256,192,200753,1,0,0:0:0:0:
256,192,200828,1,2,0:0:0:0:
256,192,200903,1,0,0:0:0:0:
256,192,200978,1,2,0:0:0:0:
256,192,201053,1,0,0:0:0:0:
256,192,201128,1,2,0:0:0:0:
256,192,201228,5,0,0:0:0:0:
256,192,201328,1,0,0:0:0:0:
256,192,201428,1,0,0:0:0:0:
256,192,201528,1,0,0:0:0:0:
256,192,201628,1,0,0:0:0:0:
256,192,201728,1,8,0:0:0:0:
256,192,202028,1,0,0:0:0:0:
256,192,202178,1,0,0:0:0:0:
256,192,202253,1,0,0:0:0:0:
256,192,202328,1,8,0:0:0:0:
256,192,202478,1,0,0:0:0:0:
256,192,202778,1,0,0:0:0:0:
256,192,202928,1,8,0:0:0:0:
256,192,203003,1,8,0:0:0:0:
256,192,203078,1,0,0:0:0:0:
256,192,203228,1,8,0:0:0:0:
256,192,203378,1,8,0:0:0:0:
256,192,203528,1,0,0:0:0:0:
256,192,203828,1,0,0:0:0:0:
256,192,203978,1,0,0:0:0:0:
256,192,204053,1,0,0:0:0:0:
256,192,204128,1,8,0:0:0:0:
256,192,204278,1,0,0:0:0:0:
256,192,204428,1,8,0:0:0:0:
256,192,204578,1,0,0:0:0:0:
256,192,204728,1,8,0:0:0:0:
256,192,204803,1,8,0:0:0:0:
256,192,204878,1,0,0:0:0:0:
256,192,205028,1,0,0:0:0:0:
256,192,205178,1,8,0:0:0:0:
256,192,205253,1,0,0:0:0:0:
256,192,205328,1,8,0:0:0:0:
256,192,205403,1,8,0:0:0:0:
256,192,205478,1,0,0:0:0:0:
256,192,205553,1,0,0:0:0:0:
256,192,205628,1,8,0:0:0:0:
256,192,205703,1,8,0:0:0:0:
256,192,205778,1,0,0:0:0:0:
256,192,205853,1,0,0:0:0:0:
256,192,205928,1,8,0:0:0:0:
256,192,206228,1,0,0:0:0:0:
256,192,206378,1,8,0:0:0:0:
256,192,206453,1,8,0:0:0:0:
256,192,206528,1,8,0:0:0:0:
256,192,206678,1,0,0:0:0:0:
256,192,206828,1,8,0:0:0:0:
256,192,206978,1,8,0:0:0:0:
256,192,207128,1,0,0:0:0:0:
256,192,207278,1,8,0:0:0:0:
256,192,207353,1,0,0:0:0:0:
256,192,207428,1,8,0:0:0:0:
256,192,207503,1,8,0:0:0:0:
256,192,207578,1,0,0:0:0:0:
256,192,207653,1,0,0:0:0:0:
256,192,207728,1,8,0:0:0:0:
256,192,207803,1,0,0:0:0:0:
256,192,207878,1,8,0:0:0:0:
256,192,207953,1,8,0:0:0:0:
256,192,208028,1,8,0:0:0:0:
256,192,208103,1,0,0:0:0:0:
256,192,208178,1,8,0:0:0:0:
256,192,208253,1,0,0:0:0:0:
256,192,208328,1,8,0:0:0:0:
256,192,208403,1,8,0:0:0:0:
256,192,208478,1,0,0:0:0:0:
256,192,208553,1,0,0:0:0:0:
256,192,208628,1,8,0:0:0:0:
256,192,208703,1,0,0:0:0:0:
256,192,208778,1,8,0:0:0:0:
256,192,208853,1,8,0:0:0:0:
256,192,208928,1,8,0:0:0:0:
256,192,209003,1,0,0:0:0:0:
256,192,209078,1,8,0:0:0:0:
256,192,209153,1,0,0:0:0:0:
256,192,209228,1,8,0:0:0:0:
256,192,209303,1,8,0:0:0:0:
256,192,209378,1,0,0:0:0:0:
256,192,209453,1,0,0:0:0:0:
256,192,209528,1,8,0:0:0:0:
256,192,209603,1,0,0:0:0:0:
256,192,209678,1,12,0:0:0:0:
256,192,209903,1,12,0:0:0:0:
256,192,210128,1,12,0:0:0:0:
256,192,210328,1,0,0:0:0:0:
256,192,210428,1,8,0:0:0:0:
256,192,210528,1,0,0:0:0:0:
256,192,210628,1,0,0:0:0:0:
256,192,210728,1,0,0:0:0:0:
256,192,210828,1,0,0:0:0:0:
256,192,210928,1,0,0:0:0:0:
256,192,211028,1,2,0:0:0:0:
256,192,211128,1,0,0:0:0:0:
256,192,211228,1,0,0:0:0:0:
256,192,211328,1,6,0:0:0:0:
256,192,211478,1,0,0:0:0:0:
256,192,211553,1,0,0:0:0:0:
256,192,211628,1,2,0:0:0:0:
256,192,211778,1,0,0:0:0:0:
256,192,211928,1,2,0:0:0:0:
256,192,212078,1,0,0:0:0:0:
256,192,212153,1,0,0:0:0:0:
256,192,212228,1,0,0:0:0:0:
256,192,212378,1,0,0:0:0:0:
256,192,212528,1,2,0:0:0:0:
256,192,212678,1,0,0:0:0:0:
256,192,212828,1,0,0:0:0:0:
256,192,212903,1,0,0:0:0:0:
256,192,212978,1,0,0:0:0:0:
256,192,213053,1,2,0:0:0:0:
256,192,213128,1,2,0:0:0:0:
256,192,213203,1,0,0:0:0:0:
256,192,213278,1,2,0:0:0:0:
256,192,213353,1,0,0:0:0:0:
256,192,213428,1,2,0:0:0:0:
256,192,213503,1,2,0:0:0:0:
256,192,213578,1,2,0:0:0:0:
256,192,213653,1,0,0:0:0:0:
256,192,213728,1,2,0:0:0:0:
256,192,213803,1,2,0:0:0:0:
256,192,213878,1,0,0:0:0:0:
256,192,213953,1,2,0:0:0:0:
256,192,214028,1,2,0:0:0:0:
256,192,214103,1,2,0:0:0:0:
256,192,214178,1,0,0:0:0:0:
256,192,214253,1,0,0:0:0:0:
256,192,214328,1,2,0:0:0:0:
256,192,214403,1,2,0:0:0:0:
256,192,214478,1,0,0:0:0:0:
256,192,214553,1,2,0:0:0:0:
256,192,214628,1,2,0:0:0:0:
256,192,214703,1,0,0:0:0:0:
256,192,214778,1,2,0:0:0:0:
256,192,214853,1,2,0:0:0:0:
256,192,214928,1,0,0:0:0:0:
256,192,215003,1,2,0:0:0:0:
256,192,215078,1,0,0:0:0:0:
256,192,215153,1,0,0:0:0:0:
256,192,215228,1,2,0:0:0:0:
256,192,215303,1,0,0:0:0:0:
256,192,215378,1,0,0:0:0:0:
256,192,215453,1,2,0:0:0:0:
256,192,215528,1,0,0:0:0:0:
256,192,215603,1,0,0:0:0:0:
256,192,215678,1,2,0:0:0:0:
256,192,215753,1,2,0:0:0:0:
256,192,215828,1,0,0:0:0:0:
256,192,215903,1,2,0:0:0:0:
256,192,215978,1,0,0:0:0:0:
256,192,216053,1,0,0:0:0:0:
256,192,216128,1,2,0:0:0:0:
256,192,216203,1,2,0:0:0:0:
256,192,216278,1,0,0:0:0:0:
256,192,216353,1,2,0:0:0:0:
256,192,216428,1,0,0:0:0:0:
256,192,216503,1,0,0:0:0:0:
256,192,216578,1,2,0:0:0:0:
256,192,216653,1,2,0:0:0:0:
256,192,216728,1,0,0:0:0:0:
256,192,216803,1,2,0:0:0:0:
256,192,216878,1,0,0:0:0:0:
256,192,216953,1,0,0:0:0:0:
256,192,217028,1,2,0:0:0:0:
256,192,217103,1,2,0:0:0:0:
256,192,217178,1,0,0:0:0:0:
256,192,217253,1,2,0:0:0:0:
256,192,217328,1,0,0:0:0:0:
256,192,217403,1,0,0:0:0:0:
256,192,217478,1,0,0:0:0:0:
256,192,217553,1,0,0:0:0:0:
256,192,217628,1,2,0:0:0:0:
256,192,217703,1,2,0:0:0:0:
256,192,217778,1,2,0:0:0:0:
256,192,217853,1,2,0:0:0:0:
256,192,217928,12,2,218978,0:0:0:0:
256,192,219128,5,2,0:0:0:0:
256,192,219278,1,0,0:0:0:0:
256,192,219428,1,2,0:0:0:0:
256,192,219578,1,0,0:0:0:0:
256,192,219728,1,2,0:0:0:0:
256,192,219803,1,2,0:0:0:0:
256,192,219878,1,2,0:0:0:0:
256,192,219953,1,2,0:0:0:0:
256,192,220028,1,0,0:0:0:0:
256,192,220103,1,0,0:0:0:0:
256,192,220178,1,0,0:0:0:0:
256,192,220253,1,0,0:0:0:0:
256,192,220328,5,12,0:0:0:0:
256,192,220478,5,0,0:0:0:0:
256,192,220553,1,0,0:0:0:0:
256,192,220628,1,8,0:0:0:0:
256,192,220778,1,0,0:0:0:0:
256,192,220928,1,8,0:0:0:0:
256,192,221003,1,8,0:0:0:0:
256,192,221078,1,0,0:0:0:0:
256,192,221153,1,0,0:0:0:0:
256,192,221228,1,8,0:0:0:0:
256,192,221303,1,0,0:0:0:0:
256,192,221378,1,8,0:0:0:0:
256,192,221528,1,0,0:0:0:0:
256,192,221603,1,0,0:0:0:0:
256,192,221678,1,0,0:0:0:0:
256,192,221828,1,8,0:0:0:0:
256,192,221978,1,0,0:0:0:0:
256,192,222053,1,0,0:0:0:0:
256,192,222128,1,0,0:0:0:0:
256,192,222203,1,0,0:0:0:0:
256,192,222278,1,8,0:0:0:0:
256,192,222428,1,8,0:0:0:0:
256,192,222578,1,0,0:0:0:0:
256,192,222728,1,8,0:0:0:0:
256,192,222803,1,8,0:0:0:0:
256,192,222878,1,8,0:0:0:0:
256,192,222953,1,8,0:0:0:0:
256,192,223028,1,0,0:0:0:0:
256,192,223178,1,8,0:0:0:0:
256,192,223253,1,8,0:0:0:0:
256,192,223328,1,0,0:0:0:0:
256,192,223403,1,0,0:0:0:0:
256,192,223478,1,0,0:0:0:0:
256,192,223628,1,8,0:0:0:0:
256,192,223778,1,0,0:0:0:0:
256,192,223853,1,0,0:0:0:0:
256,192,223928,1,8,0:0:0:0:
256,192,224078,1,0,0:0:0:0:
256,192,224228,1,8,0:0:0:0:
256,192,224303,1,0,0:0:0:0:
256,192,224378,1,8,0:0:0:0:
256,192,224528,1,0,0:0:0:0:
256,192,224678,1,8,0:0:0:0:
256,192,224753,1,0,0:0:0:0:
256,192,224828,1,8,0:0:0:0:
256,192,224903,1,8,0:0:0:0:
256,192,224978,1,8,0:0:0:0:
256,192,225128,1,0,0:0:0:0:
256,192,225203,1,0,0:0:0:0:
256,192,225278,1,0,0:0:0:0:
256,192,225428,1,8,0:0:0:0:
256,192,225578,1,0,0:0:0:0:
256,192,225653,1,0,0:0:0:0:
256,192,225728,1,0,0:0:0:0:
256,192,225878,1,8,0:0:0:0:
256,192,226028,1,0,0:0:0:0:
256,192,226103,1,0,0:0:0:0:
256,192,226178,1,0,0:0:0:0:
256,192,226328,1,8,0:0:0:0:
256,192,226478,1,0,0:0:0:0:
256,192,226553,1,0,0:0:0:0:
256,192,226628,1,0,0:0:0:0:
256,192,226778,1,8,0:0:0:0:
256,192,226928,1,0,0:0:0:0:
256,192,227003,1,0,0:0:0:0:
256,192,227078,1,8,0:0:0:0:
256,192,227153,1,0,0:0:0:0:
256,192,227228,1,8,0:0:0:0:
256,192,227378,1,8,0:0:0:0:
256,192,227528,1,0,0:0:0:0:
256,192,227678,1,0,0:0:0:0:
256,192,227828,1,8,0:0:0:0:
256,192,227903,1,8,0:0:0:0:
256,192,227978,1,8,0:0:0:0:
256,192,228128,1,0,0:0:0:0:
256,192,228278,1,8,0:0:0:0:
256,192,228353,1,8,0:0:0:0:
256,192,228428,1,8,0:0:0:0:
256,192,228578,1,0,0:0:0:0:
256,192,228728,1,8,0:0:0:0:
256,192,228803,1,8,0:0:0:0:
256,192,228878,1,0,0:0:0:0:
256,192,229028,1,0,0:0:0:0:
256,192,229178,1,8,0:0:0:0:
256,192,229253,1,8,0:0:0:0:
256,192,229328,1,0,0:0:0:0:
256,192,229478,1,0,0:0:0:0:
256,192,229628,1,8,0:0:0:0:
256,192,229703,1,8,0:0:0:0:
256,192,229778,1,8,0:0:0:0:
256,192,229853,1,8,0:0:0:0:
256,192,229928,1,0,0:0:0:0:
256,192,230078,1,0,0:0:0:0:
256,192,230228,1,8,0:0:0:0:
256,192,230528,1,0,0:0:0:0:
256,192,230678,1,0,0:0:0:0:
256,192,230753,1,0,0:0:0:0:
256,192,230828,1,8,0:0:0:0:
256,192,230978,1,0,0:0:0:0:
256,192,231128,1,8,0:0:0:0:
256,192,231203,1,0,0:0:0:0:
256,192,231278,1,0,0:0:0:0:
256,192,231353,1,0,0:0:0:0:
256,192,231428,1,8,0:0:0:0:
256,192,231578,1,8,0:0:0:0:
256,192,231728,1,0,0:0:0:0:
256,192,231878,1,8,0:0:0:0:
256,192,232028,1,8,0:0:0:0:
256,192,232103,1,8,0:0:0:0:
256,192,232178,1,0,0:0:0:0:
256,192,232253,1,8,0:0:0:0:
256,192,232328,1,0,0:0:0:0:
256,192,232478,1,0,0:0:0:0:
256,192,232553,1,0,0:0:0:0:
256,192,232628,1,8,0:0:0:0:
256,192,232778,1,0,0:0:0:0:
256,192,232853,1,0,0:0:0:0:
256,192,232928,1,0,0:0:0:0:
256,192,233078,1,0,0:0:0:0:
256,192,233228,1,8,0:0:0:0:
256,192,233303,1,8,0:0:0:0:
256,192,233378,1,8,0:0:0:0:
256,192,233453,1,8,0:0:0:0:
256,192,233528,1,0,0:0:0:0:
256,192,233678,1,0,0:0:0:0:
256,192,233753,1,0,0:0:0:0:
256,192,233828,1,8,0:0:0:0:
256,192,233978,1,0,0:0:0:0:
256,192,234053,1,0,0:0:0:0:
256,192,234128,1,0,0:0:0:0:
256,192,234278,1,0,0:0:0:0:
256,192,234428,1,12,0:0:0:0:
256,192,234728,1,4,0:0:0:0:
256,192,234878,1,8,0:0:0:0:
256,192,234953,1,8,0:0:0:0:
256,192,235028,1,0,0:0:0:0:
256,192,235178,1,0,0:0:0:0:
256,192,235328,1,8,0:0:0:0:
256,192,235403,1,0,0:0:0:0:
256,192,235478,1,0,0:0:0:0:
256,192,235553,1,8,0:0:0:0:
256,192,235628,1,0,0:0:0:0:
256,192,235778,1,8,0:0:0:0:
256,192,235928,1,4,0:0:0:0:
256,192,236078,1,0,0:0:0:0:
256,192,236153,1,0,0:0:0:0:
256,192,236228,1,8,0:0:0:0:
256,192,236378,1,0,0:0:0:0:
256,192,236528,1,8,0:0:0:0:
256,192,236603,1,8,0:0:0:0:
256,192,236678,1,0,0:0:0:0:
256,192,236753,1,0,0:0:0:0:
256,192,236828,1,8,0:0:0:0:
256,192,236978,1,0,0:0:0:0:
256,192,237128,1,12,0:0:0:0:
256,192,237278,1,0,0:0:0:0:
256,192,237428,1,12,0:0:0:0:
256,192,237578,1,0,0:0:0:0:
256,192,237653,1,0,0:0:0:0:
256,192,237728,1,0,0:0:0:0:
256,192,237878,1,12,0:0:0:0:
256,192,238028,1,0,0:0:0:0:
256,192,238178,1,12,0:0:0:0:
256,192,238478,1,4,0:0:0:0:
256,192,238628,1,4,0:0:0:0:
256,192,239378,1,4,0:0:0:0:
256,192,239678,1,0,0:0:0:0:
256,192,239828,1,8,0:0:0:0:
256,192,239978,1,0,0:0:0:0:
256,192,240053,1,0,0:0:0:0:
256,192,240128,1,0,0:0:0:0:
256,192,240278,1,8,0:0:0:0:
256,192,240353,1,0,0:0:0:0:
256,192,240428,1,8,0:0:0:0:
256,192,240578,1,0,0:0:0:0:
256,192,240728,1,8,0:0:0:0:
256,192,240803,1,0,0:0:0:0:
256,192,240878,1,0,0:0:0:0:
256,192,240953,1,0,0:0:0:0:
256,192,241028,1,8,0:0:0:0:
256,192,241178,1,0,0:0:0:0:
256,192,241328,1,8,0:0:0:0:
256,192,241403,1,8,0:0:0:0:
256,192,241478,1,8,0:0:0:0:
256,192,241553,1,0,0:0:0:0:
256,192,241628,1,8,0:0:0:0:
256,192,241778,1,8,0:0:0:0:
256,192,241928,1,0,0:0:0:0:
256,192,242078,1,0,0:0:0:0:
256,192,242153,1,0,0:0:0:0:
256,192,242228,1,8,0:0:0:0:
256,192,242378,1,0,0:0:0:0:
256,192,242453,1,0,0:0:0:0:
256,192,242528,1,8,0:0:0:0:
256,192,242603,1,8,0:0:0:0:
256,192,242678,1,0,0:0:0:0:
256,192,242828,1,8,0:0:0:0:
256,192,242903,1,8,0:0:0:0:
256,192,242978,1,8,0:0:0:0:
256,192,243053,1,0,0:0:0:0:
256,192,243128,1,8,0:0:0:0:
256,192,243203,1,8,0:0:0:0:
256,192,243278,1,0,0:0:0:0:
256,192,243428,1,8,0:0:0:0:
256,192,243503,1,8,0:0:0:0:
256,192,243578,1,0,0:0:0:0:
256,192,243728,1,8,0:0:0:0:
256,192,243878,1,8,0:0:0:0:
256,192,244028,1,0,0:0:0:0:
256,192,244178,1,12,0:0:0:0:
256,192,244478,1,0,0:0:0:0:
256,192,244553,1,0,0:0:0:0:
256,192,244628,1,8,0:0:0:0:
256,192,244778,1,8,0:0:0:0:
256,192,244928,1,0,0:0:0:0:
256,192,245003,1,0,0:0:0:0:
256,192,245078,1,8,0:0:0:0:
256,192,245153,1,0,0:0:0:0:
256,192,245228,1,8,0:0:0:0:
256,192,245378,1,8,0:0:0:0:
256,192,245528,1,0,0:0:0:0:
256,192,245678,1,8,0:0:0:0:
256,192,245753,1,8,0:0:0:0:
256,192,245828,1,0,0:0:0:0:
256,192,245978,1,8,0:0:0:0:
256,192,246128,1,8,0:0:0:0:
256,192,246203,1,8,0:0:0:0:
256,192,246278,1,0,0:0:0:0:
256,192,246353,1,8,0:0:0:0:
256,192,246428,1,0,0:0:0:0:
256,192,246578,1,12,0:0:0:0:
256,192,246878,1,0,0:0:0:0:
256,192,247028,1,12,0:0:0:0:
256,192,247178,1,0,0:0:0:0:
256,192,247253,1,0,0:0:0:0:
256,192,247328,1,0,0:0:0:0:
256,192,247478,1,8,0:0:0:0:
256,192,247628,1,12,0:0:0:0:
256,192,247778,1,0,0:0:0:0:
256,192,247928,1,8,0:0:0:0:
256,192,248078,1,12,0:0:0:0:
256,192,248228,1,0,0:0:0:0:
256,192,248378,1,12,0:0:0:0:
256,192,248528,1,0,0:0:0:0:
256,192,248678,1,12,0:0:0:0:
256,192,248828,1,0,0:0:0:0:
256,192,248978,1,12,0:0:0:0:
256,192,249128,1,8,0:0:0:0:
256,192,249203,1,8,0:0:0:0:
256,192,249278,1,0,0:0:0:0:
256,192,249353,1,0,0:0:0:0:
256,192,249428,1,8,0:0:0:0:
256,192,249578,1,0,0:0:0:0:
256,192,249728,1,8,0:0:0:0:
256,192,249803,1,0,0:0:0:0:
256,192,249878,1,8,0:0:0:0:
256,192,250028,1,0,0:0:0:0:
256,192,250178,1,8,0:0:0:0:
256,192,250478,1,8,0:0:0:0:
256,192,250553,1,8,0:0:0:0:
256,192,250628,1,0,0:0:0:0:
256,192,250778,1,8,0:0:0:0:
256,192,250928,1,8,0:0:0:0:
256,192,251003,1,0,0:0:0:0:
256,192,251078,1,8,0:0:0:0:
256,192,251153,1,0,0:0:0:0:
256,192,251228,1,8,0:0:0:0:
256,192,251378,1,0,0:0:0:0:
256,192,251678,1,8,0:0:0:0:
256,192,251828,1,0,0:0:0:0:
256,192,251903,1,0,0:0:0:0:
256,192,251978,1,8,0:0:0:0:
256,192,252128,1,8,0:0:0:0:
256,192,252203,1,0,0:0:0:0:
256,192,252278,1,8,0:0:0:0:
256,192,252428,1,0,0:0:0:0:
256,192,252503,1,0,0:0:0:0:
256,192,252578,1,8,0:0:0:0:
256,192,252728,1,8,0:0:0:0:
256,192,252803,1,0,0:0:0:0:
256,192,252878,1,8,0:0:0:0:
256,192,253028,1,0,0:0:0:0:
256,192,253103,1,0,0:0:0:0:
256,192,253178,1,8,0:0:0:0:
256,192,253328,1,8,0:0:0:0:
256,192,253478,1,0,0:0:0:0:
256,192,253628,1,0,0:0:0:0:
256,192,253778,1,12,0:0:0:0:
256,192,254078,1,0,0:0:0:0:
256,192,254153,1,0,0:0:0:0:
256,192,254228,1,8,0:0:0:0:
256,192,254378,1,8,0:0:0:0:
256,192,254528,1,0,0:0:0:0:
256,192,254603,1,0,0:0:0:0:
256,192,254678,1,8,0:0:0:0:
256,192,254753,1,0,0:0:0:0:
256,192,254828,1,8,0:0:0:0:
256,192,254978,1,4,0:0:0:0:
256,192,255278,1,8,0:0:0:0:
256,192,255353,1,8,0:0:0:0:
256,192,255428,1,0,0:0:0:0:
256,192,255578,1,0,0:0:0:0:
256,192,255728,1,8,0:0:0:0:
256,192,255803,1,8,0:0:0:0:
256,192,255878,1,0,0:0:0:0:
256,192,255953,1,8,0:0:0:0:
256,192,256028,1,0,0:0:0:0:
256,192,256178,1,12,0:0:0:0:
256,192,256478,1,0,0:0:0:0:
256,192,256628,1,12,0:0:0:0:
256,192,256778,1,0,0:0:0:0:
256,192,256928,1,12,0:0:0:0:
256,192,257078,1,8,0:0:0:0:
256,192,257153,1,0,0:0:0:0:
256,192,257228,1,8,0:0:0:0:
256,192,257303,1,8,0:0:0:0:
256,192,257378,1,0,0:0:0:0:
256,192,257528,1,8,0:0:0:0:
256,192,257603,1,8,0:0:0:0:
256,192,257678,1,0,0:0:0:0:
256,192,257753,1,0,0:0:0:0:
256,192,257828,1,8,0:0:0:0:
256,192,257903,1,8,0:0:0:0:
256,192,257978,1,0,0:0:0:0:
256,192,258053,1,0,0:0:0:0:
256,192,258128,1,8,0:0:0:0:
256,192,258203,1,8,0:0:0:0:
256,192,258278,1,8,0:0:0:0:
256,192,258353,1,8,0:0:0:0:
256,192,258428,1,0,0:0:0:0:
256,192,258503,1,0,0:0:0:0:
256,192,258578,1,8,0:0:0:0:
256,192,258878,5,2,0:0:0:0:
256,192,258953,1,2,0:0:0:0:
256,192,259028,1,2,0:0:0:0:
256,192,259178,1,0,0:0:0:0:
256,192,259253,1,0,0:0:0:0:
256,192,259328,1,0,0:0:0:0:
256,192,259478,1,2,0:0:0:0:
256,192,259553,1,0,0:0:0:0:
256,192,259628,1,2,0:0:0:0:
256,192,259778,1,0,0:0:0:0:
256,192,259853,1,2,0:0:0:0:
256,192,259928,1,0,0:0:0:0:
256,192,260078,1,0,0:0:0:0:
256,192,260153,1,0,0:0:0:0:
256,192,260228,1,2,0:0:0:0:
256,192,260378,1,2,0:0:0:0:
256,192,260453,1,2,0:0:0:0:
256,192,260528,1,0,0:0:0:0:
256,192,260678,1,2,0:0:0:0:
256,192,260753,1,0,0:0:0:0:
256,192,260828,1,0,0:0:0:0:
256,192,260978,1,2,0:0:0:0:
256,192,261278,1,0,0:0:0:0:
256,192,261353,1,2,0:0:0:0:
256,192,261428,1,0,0:0:0:0:
256,192,261578,1,0,0:0:0:0:
256,192,261728,1,0,0:0:0:0:
256,192,261803,1,0,0:0:0:0:
256,192,261878,1,2,0:0:0:0:
256,192,261953,1,2,0:0:0:0:
256,192,262028,1,0,0:0:0:0:
256,192,262178,1,0,0:0:0:0:
256,192,262478,1,2,0:0:0:0:
256,192,262553,1,0,0:0:0:0:
256,192,262628,1,0,0:0:0:0:
256,192,262778,1,0,0:0:0:0:
256,192,262928,1,2,0:0:0:0:
256,192,263003,1,0,0:0:0:0:
256,192,263078,1,2,0:0:0:0:
256,192,263228,1,0,0:0:0:0:
256,192,263378,1,6,0:0:0:0:
256,192,263678,1,2,0:0:0:0:
256,192,263828,1,0,0:0:0:0:
256,192,263978,1,0,0:0:0:0:
256,192,264128,1,2,0:0:0:0:
256,192,264278,1,2,0:0:0:0:
256,192,264428,1,0,0:0:0:0:
256,192,264578,1,2,0:0:0:0:
256,192,264728,1,0,0:0:0:0:
256,192,264878,1,0,0:0:0:0:
256,192,265028,1,2,0:0:0:0:
256,192,265178,1,2,0:0:0:0:
256,192,265328,1,0,0:0:0:0:
256,192,265478,1,2,0:0:0:0:
256,192,265628,1,0,0:0:0:0:
256,192,265778,1,6,0:0:0:0:
256,192,266078,1,0,0:0:0:0:
256,192,266228,1,2,0:0:0:0:
256,192,266528,1,0,0:0:0:0:
256,192,266603,1,2,0:0:0:0:
256,192,266678,1,2,0:0:0:0:
256,192,266828,1,0,0:0:0:0:
256,192,266978,1,6,0:0:0:0:
256,192,267278,1,0,0:0:0:0:
256,192,267428,1,2,0:0:0:0:
256,192,267728,1,0,0:0:0:0:
256,192,267803,1,2,0:0:0:0:
256,192,267878,1,2,0:0:0:0:
256,192,268028,1,0,0:0:0:0:
256,192,268178,1,6,0:0:0:0:
256,192,268328,1,0,0:0:0:0:
256,192,268478,1,2,0:0:0:0:
256,192,268553,1,2,0:0:0:0:
256,192,268628,1,0,0:0:0:0:
256,192,268778,1,0,0:0:0:0:
256,192,268853,1,2,0:0:0:0:
256,192,268928,1,0,0:0:0:0:
256,192,269003,1,0,0:0:0:0:
256,192,269078,1,2,0:0:0:0:
256,192,269228,1,0,0:0:0:0:
256,192,269378,1,0,0:0:0:0:
256,192,269678,1,0,0:0:0:0:
256,192,269828,1,2,0:0:0:0:
256,192,269903,1,0,0:0:0:0:
256,192,269978,1,2,0:0:0:0:
256,192,270128,1,0,0:0:0:0:
256,192,270278,1,2,0:0:0:0:
256,192,270428,1,0,0:0:0:0:
256,192,270578,1,0,0:0:0:0:
256,192,270878,1,0,0:0:0:0:
256,192,270953,1,0,0:0:0:0:
256,192,271028,1,0,0:0:0:0:
256,192,271178,1,0,0:0:0:0:
256,192,271253,1,0,0:0:0:0:
256,192,271328,1,2,0:0:0:0:
256,192,271478,1,0,0:0:0:0:
256,192,271553,1,2,0:0:0:0:
256,192,271628,1,2,0:0:0:0:
256,192,271778,1,2,0:0:0:0:
256,192,271853,1,0,0:0:0:0:
256,192,271928,1,2,0:0:0:0:
256,192,272078,1,2,0:0:0:0:
256,192,272153,1,2,0:0:0:0:
256,192,272228,1,2,0:0:0:0:
256,192,272378,1,2,0:0:0:0:
256,192,272453,1,0,0:0:0:0:
256,192,272528,1,0,0:0:0:0:
256,192,272628,1,2,0:0:0:0:
256,192,272728,1,0,0:0:0:0:
256,192,272828,1,2,0:0:0:0:
256,192,272903,1,2,0:0:0:0:
256,192,272978,1,2,0:0:0:0:
256,192,273278,1,0,0:0:0:0:
256,192,273428,1,2,0:0:0:0:
256,192,273578,1,0,0:0:0:0:
256,192,273728,1,2,0:0:0:0:
256,192,273878,1,2,0:0:0:0:
256,192,274028,1,0,0:0:0:0:
256,192,274178,1,6,0:0:0:0:
256,192,274478,1,0,0:0:0:0:
256,192,274628,1,2,0:0:0:0:
256,192,274778,1,2,0:0:0:0:
256,192,274928,1,0,0:0:0:0:
256,192,275078,1,2,0:0:0:0:
256,192,275228,1,2,0:0:0:0:
256,192,275378,1,4,0:0:0:0:
256,192,275678,1,2,0:0:0:0:
256,192,275753,1,0,0:0:0:0:
256,192,275828,1,2,0:0:0:0:
256,192,275903,1,2,0:0:0:0:
256,192,275978,1,0,0:0:0:0:
256,192,276053,1,0,0:0:0:0:
256,192,276128,1,0,0:0:0:0:
256,192,276203,1,0,0:0:0:0:
256,192,276278,1,0,0:0:0:0:
256,192,276353,1,0,0:0:0:0:
256,192,276428,1,2,0:0:0:0:
256,192,276503,1,2,0:0:0:0:
256,192,276578,1,0,0:0:0:0:
256,192,276653,1,0,0:0:0:0:
256,192,276728,1,0,0:0:0:0:
256,192,276803,1,0,0:0:0:0:
256,192,276878,1,2,0:0:0:0:
256,192,276953,1,0,0:0:0:0:
256,192,277028,1,0,0:0:0:0:
256,192,277103,1,0,0:0:0:0:
256,192,277178,1,0,0:0:0:0:
256,192,277253,1,0,0:0:0:0:
256,192,277328,1,2,0:0:0:0:
256,192,277528,1,0,0:0:0:0:
256,192,277628,1,2,0:0:0:0:
256,192,277728,1,2,0:0:0:0:
256,192,277828,1,2,0:0:0:0:
256,192,277928,1,4,0:0:0:0:
256,192,278228,5,4,0:0:0:0:
256,192,278528,1,12,0:0:0:0:
256,192,278828,1,0,0:0:0:0:
256,192,278978,1,0,0:0:0:0:
256,192,279053,1,0,0:0:0:0:
256,192,279128,1,0,0:0:0:0:
256,192,279278,1,8,0:0:0:0:
256,192,279428,1,0,0:0:0:0:
256,192,279728,1,8,0:0:0:0:
256,192,279878,1,0,0:0:0:0:
256,192,280028,1,8,0:0:0:0:
256,192,280103,1,8,0:0:0:0:
256,192,280178,1,8,0:0:0:0:
256,192,280328,1,0,0:0:0:0:
256,192,280628,1,8,0:0:0:0:
256,192,280778,1,8,0:0:0:0:
256,192,280853,1,8,0:0:0:0:
256,192,280928,1,0,0:0:0:0:
256,192,281078,1,8,0:0:0:0:
256,192,281228,1,0,0:0:0:0:
256,192,281378,1,0,0:0:0:0:
256,192,281678,1,8,0:0:0:0:
256,192,281828,1,0,0:0:0:0:
256,192,281903,1,0,0:0:0:0:
256,192,281978,1,0,0:0:0:0:
256,192,282128,1,8,0:0:0:0:
256,192,282278,1,0,0:0:0:0:
256,192,282428,1,8,0:0:0:0:
256,192,282578,1,8,0:0:0:0:
256,192,282728,1,0,0:0:0:0:
256,192,283028,1,0,0:0:0:0:
256,192,283328,1,8,0:0:0:0:
256,192,283628,1,0,0:0:0:0:
256,192,283778,1,0,0:0:0:0:
256,192,284078,1,0,0:0:0:0:
256,192,284228,1,0,0:0:0:0:
256,192,284528,1,8,0:0:0:0:
256,192,284828,1,0,0:0:0:0:
256,192,285128,1,0,0:0:0:0:
256,192,285428,1,0,0:0:0:0:
256,192,285578,1,0,0:0:0:0:
256,192,285728,1,8,0:0:0:0:
256,192,286028,1,0,0:0:0:0:
256,192,286178,1,0,0:0:0:0:
256,192,286478,1,0,0:0:0:0:
256,192,286778,1,0,0:0:0:0:
256,192,286853,1,0,0:0:0:0:
256,192,286928,1,8,0:0:0:0:
256,192,287078,1,0,0:0:0:0:
256,192,287228,1,8,0:0:0:0:
256,192,287378,1,8,0:0:0:0:
256,192,287528,1,4,0:0:0:0:
256,192,287828,1,4,0:0:0:0:
256,192,288128,1,12,0:0:0:0:
256,192,288428,1,0,0:0:0:0:
256,192,288578,1,0,0:0:0:0:
256,192,288653,1,0,0:0:0:0:
256,192,288728,1,0,0:0:0:0:
256,192,288878,1,8,0:0:0:0:
256,192,289028,1,0,0:0:0:0:
256,192,289328,1,8,0:0:0:0:
256,192,289478,1,0,0:0:0:0:
256,192,289628,1,8,0:0:0:0:
256,192,289703,1,8,0:0:0:0:
256,192,289778,1,8,0:0:0:0:
256,192,289928,1,0,0:0:0:0:
256,192,290228,1,0,0:0:0:0:
256,192,290378,1,8,0:0:0:0:
256,192,290453,1,8,0:0:0:0:
256,192,290528,1,0,0:0:0:0:
256,192,290678,1,8,0:0:0:0:
256,192,290828,1,8,0:0:0:0:
256,192,290978,1,0,0:0:0:0:
256,192,291278,1,8,0:0:0:0:
256,192,291428,1,0,0:0:0:0:
256,192,291503,1,0,0:0:0:0:
256,192,291578,1,0,0:0:0:0:
256,192,291728,1,12,0:0:0:0:
256,192,291878,1,0,0:0:0:0:
256,192,292028,1,12,0:0:0:0:
256,192,292178,1,8,0:0:0:0:
256,192,292328,1,4,0:0:0:0:
256,192,292628,1,0,0:0:0:0:
256,192,292778,1,8,0:0:0:0:
256,192,292928,1,4,0:0:0:0:
256,192,293078,1,0,0:0:0:0:
256,192,293228,1,8,0:0:0:0:
256,192,293378,1,8,0:0:0:0:
256,192,293528,1,4,0:0:0:0:
256,192,293828,1,8,0:0:0:0:
256,192,293978,1,0,0:0:0:0:
256,192,294128,1,12,0:0:0:0:
256,192,294428,1,12,0:0:0:0:
256,192,294728,2,4,L|328:192,11,69.99999833107
256,192,296528,1,8,0:0:0:0:
256,192,296678,1,0,0:0:0:0:
256,192,296828,1,8,0:0:0:0:
256,192,296928,1,8,0:0:0:0:
256,192,297028,1,8,0:0:0:0:
256,192,297128,5,0,0:0:0:0:
256,192,297353,1,2,0:0:0:0:
256,192,297578,1,2,0:0:0:0:
256,192,297653,1,0,0:0:0:0:
256,192,297728,1,0,0:0:0:0:
256,192,297840,1,2,0:0:0:0:
64,192,297953,2,0,B|520:192|520:192|512:192,1,455
256,192,299078,1,2,0:0:0:0:
256,192,299228,1,0,0:0:0:0:
256,192,299378,1,0,0:0:0:0:
256,192,299453,1,0,0:0:0:0:
256,192,299528,1,0,0:0:0:0:
256,192,299828,1,8,0:0:0:0:
256,192,299978,1,0,0:0:0:0:
256,192,300053,1,0,0:0:0:0:
256,192,300128,1,2,0:0:0:0:
256,192,300278,1,0,0:0:0:0:
256,192,300428,1,2,0:0:0:0:
256,192,300503,1,2,0:0:0:0:
256,192,300578,1,0,0:0:0:0:
256,192,300728,1,0,0:0:0:0:
256,192,300878,1,0,0:0:0:0:
256,192,301178,1,0,0:0:0:0:
256,192,301253,1,0,0:0:0:0:
256,192,301328,1,2,0:0:0:0:
256,192,301478,1,0,0:0:0:0:
256,192,301628,1,2,0:0:0:0:
256,192,301778,1,0,0:0:0:0:
256,192,301928,1,0,0:0:0:0:
256,192,302128,1,2,0:0:0:0:
256,192,302328,1,2,0:0:0:0:
256,192,302528,1,0,0:0:0:0:
256,192,302628,1,2,0:0:0:0:
256,192,302728,1,0,0:0:0:0:
256,192,302828,1,0,0:0:0:0:
256,192,302978,1,2,0:0:0:0:
256,192,303128,1,2,0:0:0:0:
256,192,303278,1,0,0:0:0:0:
256,192,303353,1,2,0:0:0:0:
256,192,303578,1,0,0:0:0:0:
256,192,303653,1,0,0:0:0:0:
256,192,303728,1,2,0:0:0:0:
256,192,303878,1,0,0:0:0:0:
256,192,304028,1,2,0:0:0:0:
256,192,304128,1,0,0:0:0:0:
256,192,304228,1,2,0:0:0:0:
256,192,304328,1,0,0:0:0:0:
256,192,304628,1,0,0:0:0:0:
256,192,304778,1,0,0:0:0:0:
256,192,304928,1,2,0:0:0:0:
256,192,305078,1,0,0:0:0:0:
256,192,305228,1,2,0:0:0:0:
256,192,305303,1,2,0:0:0:0:
256,192,305378,1,0,0:0:0:0:
256,192,305678,1,0,0:0:0:0:
256,192,305978,1,0,0:0:0:0:
256,192,306053,1,0,0:0:0:0:
256,192,306128,1,2,0:0:0:0:
256,192,306278,1,0,0:0:0:0:
256,192,306428,1,2,0:0:0:0:
256,192,306578,1,2,0:0:0:0:
256,192,306728,1,6,0:0:0:0:
256,192,306928,1,2,0:0:0:0:
256,192,307128,1,0,0:0:0:0:
256,192,307228,1,2,0:0:0:0:
256,192,307328,1,0,0:0:0:0:
256,192,307528,1,0,0:0:0:0:
256,192,307728,1,0,0:0:0:0:
256,192,307928,1,2,0:0:0:0:
256,192,308128,1,2,0:0:0:0:
256,192,308328,1,0,0:0:0:0:
256,192,308528,1,2,0:0:0:0:
256,192,308753,1,0,0:0:0:0:
256,192,308828,1,2,0:0:0:0:
256,192,308978,1,0,0:0:0:0:
256,192,309128,1,0,0:0:0:0:
256,192,309428,1,0,0:0:0:0:
256,192,309503,1,0,0:0:0:0:
256,192,309578,1,0,0:0:0:0:
256,192,309728,1,2,0:0:0:0:
256,192,310028,1,0,0:0:0:0:
256,192,310178,1,0,0:0:0:0:
256,192,310478,1,2,0:0:0:0:
256,192,310553,1,0,0:0:0:0:
256,192,310628,1,0,0:0:0:0:
256,192,310778,1,0,0:0:0:0:
256,192,310928,1,6,0:0:0:0:
256,192,311078,1,0,0:0:0:0:
256,192,311228,1,4,0:0:0:0:
256,192,311378,1,0,0:0:0:0:
256,192,311528,1,6,0:0:0:0:
256,192,311778,1,2,0:0:0:0:
256,192,311828,1,0,0:0:0:0:
256,192,312128,1,4,0:0:0:0:
256,192,312353,1,0,0:0:0:0:
256,192,312428,1,2,0:0:0:0:
256,192,312578,1,0,0:0:0:0:
256,192,312728,1,6,0:0:0:0:
256,192,312878,1,0,0:0:0:0:
256,192,312953,1,2,0:0:0:0:
256,192,313028,1,0,0:0:0:0:
256,192,313178,1,0,0:0:0:0:
256,192,313328,1,6,0:0:0:0:
256,192,313478,1,0,0:0:0:0:
256,192,313553,1,0,0:0:0:0:
256,192,313628,1,2,0:0:0:0:
256,192,313778,1,0,0:0:0:0:
256,192,313853,1,0,0:0:0:0:
256,192,313928,1,2,0:0:0:0:
256,192,314003,1,2,0:0:0:0:
256,192,314078,1,2,0:0:0:0:
256,192,314153,1,0,0:0:0:0:
256,192,314228,1,0,0:0:0:0:
256,192,314303,1,0,0:0:0:0:
256,192,314378,1,2,0:0:0:0:
256,192,314453,1,0,0:0:0:0:
256,192,314528,1,0,0:0:0:0:
256,192,314603,1,0,0:0:0:0:
256,192,314678,1,0,0:0:0:0:
256,192,314753,1,0,0:0:0:0:
256,192,314828,1,2,0:0:0:0:
256,192,314903,1,2,0:0:0:0:
256,192,314978,1,0,0:0:0:0:
256,192,315053,1,0,0:0:0:0:
256,192,315128,1,0,0:0:0:0:
256,192,315203,1,0,0:0:0:0:
256,192,315278,1,2,0:0:0:0:
256,192,315353,1,0,0:0:0:0:
256,192,315428,1,0,0:0:0:0:
256,192,315503,1,0,0:0:0:0:
256,192,315578,1,0,0:0:0:0:
256,192,315653,1,0,0:0:0:0:
256,192,315728,1,2,0:0:0:0:
256,192,315803,1,2,0:0:0:0:
256,192,315878,1,2,0:0:0:0:
256,192,315953,1,2,0:0:0:0:
256,192,316028,1,0,0:0:0:0:
256,192,316103,1,0,0:0:0:0:
256,192,316178,1,0,0:0:0:0:
256,192,316253,1,0,0:0:0:0:
256,192,316328,1,0,0:0:0:0:
256,192,316478,5,0,0:0:0:0:
256,192,316628,1,12,0:0:0:0:
256,192,316778,1,0,0:0:0:0:
256,192,316853,1,0,0:0:0:0:
256,192,316928,1,0,0:0:0:0:
256,192,317078,1,8,0:0:0:0:
256,192,317228,1,0,0:0:0:0:
256,192,317303,1,0,0:0:0:0:
256,192,317378,1,0,0:0:0:0:
256,192,317453,1,0,0:0:0:0:
256,192,317528,1,8,0:0:0:0:
256,192,317678,1,0,0:0:0:0:
256,192,317828,1,8,0:0:0:0:
256,192,317903,1,0,0:0:0:0:
256,192,317978,1,8,0:0:0:0:
256,192,318128,1,0,0:0:0:0:
256,192,318278,1,8,0:0:0:0:
256,192,318428,1,8,0:0:0:0:
256,192,318503,1,8,0:0:0:0:
256,192,318578,1,8,0:0:0:0:
256,192,318728,1,0,0:0:0:0:
256,192,318878,1,0,0:0:0:0:
256,192,319028,1,12,0:0:0:0:
256,192,319178,1,0,0:0:0:0:
256,192,319253,1,0,0:0:0:0:
256,192,319328,1,8,0:0:0:0:
256,192,319478,1,8,0:0:0:0:
256,192,319628,1,0,0:0:0:0:
256,192,319703,1,0,0:0:0:0:
256,192,319778,1,8,0:0:0:0:
256,192,319853,1,0,0:0:0:0:
256,192,319928,1,8,0:0:0:0:
256,192,320003,1,8,0:0:0:0:
256,192,320078,1,0,0:0:0:0:
256,192,320228,1,8,0:0:0:0:
256,192,320378,1,8,0:0:0:0:
256,192,320528,1,0,0:0:0:0:
256,192,320678,1,8,0:0:0:0:
256,192,320828,1,8,0:0:0:0:
256,192,320903,1,8,0:0:0:0:
256,192,320978,1,8,0:0:0:0:
256,192,321053,1,8,0:0:0:0:
256,192,321128,1,0,0:0:0:0:
256,192,321278,1,0,0:0:0:0:
256,192,321428,1,12,0:0:0:0:
256,192,321578,1,0,0:0:0:0:
256,192,321653,1,0,0:0:0:0:
256,192,321728,1,0,0:0:0:0:
256,192,321878,1,8,0:0:0:0:
256,192,322028,1,0,0:0:0:0:
256,192,322103,1,0,0:0:0:0:
256,192,322178,1,0,0:0:0:0:
256,192,322328,1,8,0:0:0:0:
256,192,322478,1,0,0:0:0:0:
256,192,322553,1,0,0:0:0:0:
256,192,322628,1,8,0:0:0:0:
256,192,322703,1,0,0:0:0:0:
256,192,322778,1,8,0:0:0:0:
256,192,322928,1,0,0:0:0:0:
256,192,323078,1,8,0:0:0:0:
256,192,323153,1,0,0:0:0:0:
256,192,323228,1,8,0:0:0:0:
256,192,323303,1,8,0:0:0:0:
256,192,323378,1,8,0:0:0:0:
256,192,323453,1,8,0:0:0:0:
256,192,323528,1,0,0:0:0:0:
256,192,323678,1,0,0:0:0:0:
256,192,323828,1,12,0:0:0:0:
256,192,323978,1,0,0:0:0:0:
256,192,324053,1,0,0:0:0:0:
256,192,324128,1,8,0:0:0:0:
256,192,324278,1,8,0:0:0:0:
256,192,324428,1,0,0:0:0:0:
256,192,324578,1,0,0:0:0:0:
256,192,324653,1,0,0:0:0:0:
256,192,324728,1,8,0:0:0:0:
256,192,324803,1,8,0:0:0:0:
256,192,324878,1,0,0:0:0:0:
256,192,324953,1,0,0:0:0:0:
256,192,325028,1,8,0:0:0:0:
256,192,325103,1,0,0:0:0:0:
256,192,325178,1,8,0:0:0:0:
256,192,325328,1,0,0:0:0:0:
256,192,325478,1,8,0:0:0:0:
256,192,325553,1,0,0:0:0:0:
256,192,325628,1,8,0:0:0:0:
256,192,325703,1,8,0:0:0:0:
256,192,325778,1,8,0:0:0:0:
256,192,325928,1,4,0:0:0:0:
256,192,326078,1,0,0:0:0:0:
256,192,326228,1,12,0:0:0:0:
256,192,326378,1,0,0:0:0:0:
256,192,326453,1,0,0:0:0:0:
256,192,326528,1,0,0:0:0:0:
256,192,326678,1,8,0:0:0:0:
256,192,326828,1,0,0:0:0:0:
256,192,326903,1,0,0:0:0:0:
256,192,326978,1,0,0:0:0:0:
256,192,327053,1,0,0:0:0:0:
256,192,327128,1,8,0:0:0:0:
256,192,327278,1,0,0:0:0:0:
256,192,327428,1,8,0:0:0:0:
256,192,327503,1,0,0:0:0:0:
256,192,327578,1,8,0:0:0:0:
256,192,327728,1,0,0:0:0:0:
256,192,327878,1,8,0:0:0:0:
256,192,328028,1,8,0:0:0:0:
256,192,328103,1,8,0:0:0:0:
256,192,328178,1,8,0:0:0:0:
256,192,328328,1,0,0:0:0:0:
256,192,328478,1,0,0:0:0:0:
256,192,328628,1,12,0:0:0:0:
256,192,328778,1,0,0:0:0:0:
256,192,328853,1,0,0:0:0:0:
256,192,328928,1,8,0:0:0:0:
256,192,329078,1,8,0:0:0:0:
256,192,329228,1,0,0:0:0:0:
256,192,329378,1,8,0:0:0:0:
256,192,329453,1,0,0:0:0:0:
256,192,329528,1,8,0:0:0:0:
256,192,329603,1,8,0:0:0:0:
256,192,329678,1,0,0:0:0:0:
256,192,329753,1,0,0:0:0:0:
256,192,329828,1,8,0:0:0:0:
256,192,329978,1,8,0:0:0:0:
256,192,330128,1,0,0:0:0:0:
256,192,330278,1,0,0:0:0:0:
256,192,330353,1,0,0:0:0:0:
256,192,330428,1,8,0:0:0:0:
256,192,330503,1,8,0:0:0:0:
256,192,330578,1,8,0:0:0:0:
256,192,330653,1,8,0:0:0:0:
256,192,330728,1,0,0:0:0:0:
256,192,330878,1,0,0:0:0:0:
256,192,331028,1,12,0:0:0:0:
256,192,331178,1,0,0:0:0:0:
256,192,331253,1,0,0:0:0:0:
256,192,331328,1,0,0:0:0:0:
256,192,331478,1,8,0:0:0:0:
256,192,331628,1,8,0:0:0:0:
256,192,331703,1,8,0:0:0:0:
256,192,331778,1,0,0:0:0:0:
256,192,331853,1,0,0:0:0:0:
256,192,331928,1,8,0:0:0:0:
256,192,332078,1,0,0:0:0:0:
256,192,332228,1,12,0:0:0:0:
256,192,332378,1,0,0:0:0:0:
256,192,332453,1,0,0:0:0:0:
256,192,332528,1,0,0:0:0:0:
256,192,332678,1,12,0:0:0:0:
256,192,332828,1,8,0:0:0:0:
256,192,332903,1,0,0:0:0:0:
256,192,332978,1,0,0:0:0:0:
256,192,333128,1,4,0:0:0:0:
256,192,333278,1,0,0:0:0:0:
256,192,333428,1,12,0:0:0:0:
256,192,333578,1,12,0:0:0:0:
256,192,333728,1,0,0:0:0:0:
256,192,333878,1,12,0:0:0:0:
256,192,334028,1,0,0:0:0:0:
256,192,334178,1,12,0:0:0:0:
256,192,334478,1,4,0:0:0:0:
256,192,334628,1,4,0:0:0:0:
256,192,335528,5,0,0:0:0:0:
256,192,336728,1,2,0:0:0:0:
256,192,337928,1,0,0:0:0:0:
256,192,339128,1,2,0:0:0:0:
256,192,339578,1,2,0:0:0:0:
256,192,339878,1,2,0:0:0:0:
256,192,340178,1,2,0:0:0:0:
256,192,340328,1,0,0:0:0:0:
256,192,340628,1,0,0:0:0:0:
256,192,340928,1,0,0:0:0:0:
256,192,341078,1,0,0:0:0:0:
256,192,341378,1,0,0:0:0:0:
256,192,341528,1,4,0:0:0:0:
256,192,341678,1,0,0:0:0:0:
256,192,341828,1,4,0:0:0:0:
256,192,341978,1,0,0:0:0:0:
256,192,342128,1,4,0:0:0:0:
256,192,342278,1,0,0:0:0:0:
256,192,342428,1,4,0:0:0:0:
256,192,342578,1,0,0:0:0:0:
256,192,342728,1,4,0:0:0:0:
256,192,342878,1,0,0:0:0:0:
256,192,343028,1,0,0:0:0:0:
256,192,343178,1,0,0:0:0:0:
256,192,343328,1,4,0:0:0:0:
256,192,343478,1,0,0:0:0:0:
256,192,343528,1,0,0:0:0:0:
256,192,343578,1,0,0:0:0:0:
256,192,343628,1,2,0:0:0:0:
256,192,343778,1,0,0:0:0:0:
256,192,343928,1,6,0:0:0:0:
256,192,344078,1,2,0:0:0:0:
256,192,344153,1,2,0:0:0:0:
256,192,344228,1,0,0:0:0:0:
256,192,344378,1,6,0:0:0:0:
256,192,344528,1,2,0:0:0:0:
256,192,344603,1,0,0:0:0:0:
256,192,344678,1,0,0:0:0:0:
256,192,344828,1,0,0:0:0:0:
256,192,344978,1,6,0:0:0:0:
256,192,345278,5,0,0:0:0:0:
256,192,345353,1,0,0:0:0:0:
256,192,345428,1,2,0:0:0:0:
256,192,345578,1,2,0:0:0:0:
256,192,345728,1,0,0:0:0:0:
256,192,345803,1,0,0:0:0:0:
256,192,345878,1,2,0:0:0:0:
256,192,346028,1,0,0:0:0:0:
256,192,346178,1,2,0:0:0:0:
256,192,346478,1,0,0:0:0:0:
256,192,346628,1,2,0:0:0:0:
256,192,346703,1,0,0:0:0:0:
256,192,346778,1,0,0:0:0:0:
256,192,346928,1,0,0:0:0:0:
256,192,347078,1,2,0:0:0:0:
256,192,347153,1,2,0:0:0:0:
256,192,347228,1,0,0:0:0:0:
256,192,347378,1,2,0:0:0:0:
256,192,347528,1,0,0:0:0:0:
256,192,347603,1,0,0:0:0:0:
256,192,347678,1,0,0:0:0:0:
256,192,347828,1,2,0:0:0:0:
256,192,347903,1,0,0:0:0:0:
256,192,347978,1,0,0:0:0:0:
256,192,348128,1,0,0:0:0:0:
256,192,348278,1,2,0:0:0:0:
256,192,348353,1,2,0:0:0:0:
256,192,348428,1,0,0:0:0:0:
256,192,348503,1,2,0:0:0:0:
256,192,348578,1,0,0:0:0:0:
256,192,348878,1,0,0:0:0:0:
256,192,348953,1,0,0:0:0:0:
256,192,349028,1,2,0:0:0:0:
256,192,349178,1,0,0:0:0:0:
256,192,349328,1,0,0:0:0:0:
256,192,349403,1,0,0:0:0:0:
256,192,349478,1,2,0:0:0:0:
256,192,349553,1,2,0:0:0:0:
256,192,349628,1,0,0:0:0:0:
256,192,349778,1,2,0:0:0:0:
256,192,349928,1,0,0:0:0:0:
256,192,350003,1,0,0:0:0:0:
256,192,350078,1,0,0:0:0:0:
256,192,350228,1,6,0:0:0:0:
256,192,350378,1,0,0:0:0:0:
256,192,350528,1,2,0:0:0:0:
256,192,350603,1,0,0:0:0:0:
256,192,350678,1,0,0:0:0:0:
256,192,350753,1,0,0:0:0:0:
256,192,350828,1,2,0:0:0:0:
256,192,350978,1,0,0:0:0:0:
256,192,351278,1,0,0:0:0:0:
256,192,351428,1,6,0:0:0:0:
256,192,351578,1,0,0:0:0:0:
256,192,351728,1,6,0:0:0:0:
256,192,352028,1,6,0:0:0:0:
256,192,352328,1,4,0:0:0:0:
256,192,352478,1,0,0:0:0:0:
256,192,352628,1,2,0:0:0:0:
256,192,352703,1,2,0:0:0:0:
256,192,352778,1,0,0:0:0:0:
256,192,352928,1,2,0:0:0:0:
256,192,353078,1,0,0:0:0:0:
256,192,353153,1,0,0:0:0:0:
256,192,353228,1,2,0:0:0:0:
256,192,353378,1,4,0:0:0:0:
256,192,353678,1,0,0:0:0:0:
256,192,353753,1,0,0:0:0:0:
256,192,353828,1,2,0:0:0:0:
256,192,353903,1,0,0:0:0:0:
256,192,353978,1,2,0:0:0:0:
256,192,354053,1,0,0:0:0:0:
256,192,354128,1,0,0:0:0:0:
256,192,354203,1,0,0:0:0:0:
256,192,354278,1,2,0:0:0:0:
256,192,354353,1,0,0:0:0:0:
256,192,354428,1,2,0:0:0:0:
256,192,354503,1,2,0:0:0:0:
256,192,354578,1,0,0:0:0:0:
256,192,354653,1,0,0:0:0:0:
256,192,354728,1,2,0:0:0:0:
256,192,354878,1,0,0:0:0:0:
256,192,355028,1,2,0:0:0:0:
256,192,355103,1,2,0:0:0:0:
256,192,355178,1,0,0:0:0:0:
256,192,355328,1,0,0:0:0:0:
256,192,355478,1,0,0:0:0:0:
256,192,355553,1,0,0:0:0:0:
256,192,355628,1,2,0:0:0:0:
256,192,355778,1,6,0:0:0:0:
256,192,356078,1,0,0:0:0:0:
256,192,356228,1,2,0:0:0:0:
256,192,356303,1,0,0:0:0:0:
256,192,356378,1,0,0:0:0:0:
256,192,356528,1,2,0:0:0:0:
256,192,356678,1,0,0:0:0:0:
256,192,356753,1,0,0:0:0:0:
256,192,356828,1,2,0:0:0:0:
256,192,356978,1,0,0:0:0:0:
256,192,357128,1,2,0:0:0:0:
256,192,357203,1,2,0:0:0:0:
256,192,357278,1,0,0:0:0:0:
256,192,357353,1,0,0:0:0:0:
256,192,357428,1,2,0:0:0:0:
256,192,357503,1,2,0:0:0:0:
256,192,357578,1,0,0:0:0:0:
256,192,357728,1,6,0:0:0:0:
256,192,357878,1,6,0:0:0:0:
256,192,358178,1,4,0:0:0:0:
256,192,358478,1,0,0:0:0:0:
256,192,358553,1,0,0:0:0:0:
256,192,358628,1,2,0:0:0:0:
256,192,358703,1,0,0:0:0:0:
256,192,358778,1,2,0:0:0:0:
256,192,358853,1,2,0:0:0:0:
256,192,358928,1,0,0:0:0:0:
256,192,359003,1,2,0:0:0:0:
256,192,359078,1,0,0:0:0:0:
256,192,359153,1,0,0:0:0:0:
256,192,359228,1,2,0:0:0:0:
256,192,359303,1,0,0:0:0:0:
256,192,359378,1,0,0:0:0:0:
256,192,359453,1,2,0:0:0:0:
256,192,359528,1,0,0:0:0:0:
256,192,359603,1,0,0:0:0:0:
256,192,359678,1,2,0:0:0:0:
256,192,359753,1,2,0:0:0:0:
256,192,359828,1,0,0:0:0:0:
256,192,359903,1,2,0:0:0:0:
256,192,359978,1,0,0:0:0:0:
256,192,360053,1,0,0:0:0:0:
256,192,360128,1,2,0:0:0:0:
256,192,360278,1,0,0:0:0:0:
256,192,360428,1,6,0:0:0:0:
256,192,360578,1,6,0:0:0:0:
256,192,360878,5,0,0:0:0:0:
256,192,361028,1,8,0:0:0:0:
256,192,361178,1,0,0:0:0:0:
256,192,361328,1,12,0:0:0:0:
256,192,361628,1,4,0:0:0:0:
256,192,361778,1,12,0:0:0:0:
256,192,362078,1,8,0:0:0:0:
256,192,362153,1,0,0:0:0:0:
256,192,362228,1,8,0:0:0:0:
256,192,362303,1,8,0:0:0:0:
256,192,362378,1,0,0:0:0:0:
256,192,362528,1,8,0:0:0:0:
256,192,362603,1,8,0:0:0:0:
256,192,362678,1,8,0:0:0:0:
256,192,362828,1,0,0:0:0:0:
256,192,362978,1,8,0:0:0:0:
256,192,363278,1,8,0:0:0:0:
256,192,363428,1,8,0:0:0:0:
256,192,363578,1,0,0:0:0:0:
256,192,363728,1,12,0:0:0:0:
256,192,364028,1,4,0:0:0:0:
256,192,364178,1,12,0:0:0:0:
256,192,364478,1,0,0:0:0:0:
256,192,364553,1,0,0:0:0:0:
256,192,364628,1,8,0:0:0:0:
256,192,364703,1,8,0:0:0:0:
256,192,364778,1,0,0:0:0:0:
256,192,364928,1,8,0:0:0:0:
256,192,365003,1,8,0:0:0:0:
256,192,365078,1,0,0:0:0:0:
256,192,365153,1,0,0:0:0:0:
256,192,365228,1,8,0:0:0:0:
256,192,365303,1,8,0:0:0:0:
256,192,365378,1,8,0:0:0:0:
256,192,365453,1,8,0:0:0:0:
256,192,365528,1,0,0:0:0:0:
256,192,365828,1,8,0:0:0:0:
256,192,365903,1,8,0:0:0:0:
256,192,365978,1,8,0:0:0:0:
256,192,366128,1,0,0:0:0:0:
256,192,366203,1,0,0:0:0:0:
256,192,366278,1,8,0:0:0:0:
256,192,366428,1,8,0:0:0:0:
256,192,366578,1,0,0:0:0:0:
256,192,366878,1,8,0:0:0:0:
256,192,367028,1,8,0:0:0:0:
256,192,367103,1,8,0:0:0:0:
256,192,367178,1,0,0:0:0:0:
256,192,367328,1,8,0:0:0:0:
256,192,367403,1,0,0:0:0:0:
256,192,367478,1,0,0:0:0:0:
256,192,367628,1,8,0:0:0:0:
256,192,367778,1,8,0:0:0:0:
256,192,367928,1,0,0:0:0:0:
256,192,368003,1,0,0:0:0:0:
256,192,368078,1,0,0:0:0:0:
256,192,368228,1,8,0:0:0:0:
256,192,368378,1,0,0:0:0:0:
256,192,368453,1,0,0:0:0:0:
256,192,368528,1,8,0:0:0:0:
256,192,368603,1,0,0:0:0:0:
256,192,368678,1,8,0:0:0:0:
256,192,368828,1,0,0:0:0:0:
256,192,368978,1,8,0:0:0:0:
256,192,369278,1,0,0:0:0:0:
256,192,369353,1,0,0:0:0:0:
256,192,369428,1,8,0:0:0:0:
256,192,369503,1,0,0:0:0:0:
256,192,369578,1,0,0:0:0:0:
256,192,369653,1,0,0:0:0:0:
256,192,369728,1,8,0:0:0:0:
256,192,369803,1,8,0:0:0:0:
256,192,369878,1,0,0:0:0:0:
256,192,369953,1,0,0:0:0:0:
256,192,370028,1,8,0:0:0:0:
256,192,370178,1,4,0:0:0:0:
256,192,370478,1,0,0:0:0:0:
256,192,370628,1,8,0:0:0:0:
256,192,370778,1,0,0:0:0:0:
256,192,370928,1,12,0:0:0:0:
256,192,371228,1,4,0:0:0:0:
256,192,371378,1,12,0:0:0:0:
256,192,371678,1,0,0:0:0:0:
256,192,371828,1,8,0:0:0:0:
256,192,371903,1,8,0:0:0:0:
256,192,371978,1,0,0:0:0:0:
256,192,372128,1,8,0:0:0:0:
256,192,372203,1,8,0:0:0:0:
256,192,372278,1,8,0:0:0:0:
256,192,372428,1,0,0:0:0:0:
256,192,372578,1,8,0:0:0:0:
256,192,372878,1,8,0:0:0:0:
256,192,373028,1,8,0:0:0:0:
256,192,373178,1,0,0:0:0:0:
256,192,373328,1,12,0:0:0:0:
256,192,373628,1,4,0:0:0:0:
256,192,373778,1,12,0:0:0:0:
256,192,374078,1,8,0:0:0:0:
256,192,374153,1,0,0:0:0:0:
256,192,374228,1,8,0:0:0:0:
256,192,374303,1,8,0:0:0:0:
256,192,374378,1,0,0:0:0:0:
256,192,374528,1,8,0:0:0:0:
256,192,374603,1,0,0:0:0:0:
256,192,374678,1,0,0:0:0:0:
256,192,374753,1,0,0:0:0:0:
256,192,374828,1,8,0:0:0:0:
256,192,374903,1,8,0:0:0:0:
256,192,374978,1,8,0:0:0:0:
256,192,375053,1,8,0:0:0:0:
256,192,375128,1,0,0:0:0:0:
256,192,375428,1,8,0:0:0:0:
256,192,375578,1,0,0:0:0:0:
256,192,375653,1,0,0:0:0:0:
256,192,375728,1,0,0:0:0:0:
256,192,375878,1,8,0:0:0:0:
256,192,375953,1,8,0:0:0:0:
256,192,376028,1,0,0:0:0:0:
256,192,376178,1,8,0:0:0:0:
256,192,376478,1,0,0:0:0:0:
256,192,376628,1,8,0:0:0:0:
256,192,376703,1,8,0:0:0:0:
256,192,376778,1,8,0:0:0:0:
256,192,376928,1,0,0:0:0:0:
256,192,377078,1,8,0:0:0:0:
256,192,377153,1,0,0:0:0:0:
256,192,377228,1,8,0:0:0:0:
256,192,377303,1,8,0:0:0:0:
256,192,377378,1,0,0:0:0:0:
256,192,377453,1,0,0:0:0:0:
256,192,377528,1,8,0:0:0:0:
256,192,377678,1,0,0:0:0:0:
256,192,377828,1,8,0:0:0:0:
256,192,377978,1,8,0:0:0:0:
256,192,378128,1,0,0:0:0:0:
256,192,378278,1,8,0:0:0:0:
256,192,378353,1,8,0:0:0:0:
256,192,378428,1,0,0:0:0:0:
256,192,378578,1,8,0:0:0:0:
256,192,378878,1,0,0:0:0:0:
256,192,378953,1,0,0:0:0:0:
256,192,379028,1,8,0:0:0:0:
256,192,379178,1,8,0:0:0:0:
256,192,379328,1,0,0:0:0:0:
256,192,379403,1,0,0:0:0:0:
256,192,379478,1,8,0:0:0:0:
256,192,379628,1,8,0:0:0:0:
256,192,379778,1,0,0:0:0:0:
256,192,379928,1,4,0:0:0:0:
256,192,380228,1,8,0:0:0:0:
256,192,380378,1,8,0:0:0:0:
256,192,380453,1,8,0:0:0:0:
256,192,380528,1,0,0:0:0:0:
256,192,380678,1,0,0:0:0:0:
256,192,380753,1,0,0:0:0:0:
256,192,380828,1,8,0:0:0:0:
256,192,380903,1,8,0:0:0:0:
256,192,380978,1,8,0:0:0:0:
256,192,381053,1,8,0:0:0:0:
256,192,381128,1,0,0:0:0:0:
256,192,381278,1,0,0:0:0:0:
256,192,381428,1,8,0:0:0:0:
256,192,381503,1,8,0:0:0:0:
256,192,381578,1,0,0:0:0:0:
256,192,381653,1,8,0:0:0:0:
256,192,381728,1,0,0:0:0:0:
256,192,381878,1,0,0:0:0:0:
256,192,382028,1,8,0:0:0:0:
256,192,382178,1,0,0:0:0:0:
256,192,382253,1,0,0:0:0:0:
256,192,382328,1,8,0:0:0:0:
256,192,382403,1,8,0:0:0:0:
256,192,382478,1,0,0:0:0:0:
256,192,382553,1,0,0:0:0:0:
256,192,382628,1,8,0:0:0:0:
256,192,382703,1,8,0:0:0:0:
256,192,382778,1,0,0:0:0:0:
256,192,382853,1,0,0:0:0:0:
256,192,382928,1,8,0:0:0:0:
256,192,383078,1,8,0:0:0:0:
256,192,383228,1,4,0:0:0:0:
256,192,383378,1,12,0:0:0:0:
256,192,383678,1,0,0:0:0:0:
256,192,383753,1,0,0:0:0:0:
256,192,383828,1,8,0:0:0:0:
256,192,383903,1,0,0:0:0:0:
256,192,383978,1,8,0:0:0:0:
256,192,384053,1,8,0:0:0:0:
256,192,384128,1,0,0:0:0:0:
256,192,384203,1,0,0:0:0:0:
256,192,384278,1,8,0:0:0:0:
256,192,384353,1,0,0:0:0:0:
256,192,384428,1,8,0:0:0:0:
256,192,384503,1,8,0:0:0:0:
256,192,384578,1,0,0:0:0:0:
256,192,384653,1,0,0:0:0:0:
256,192,384728,1,8,0:0:0:0:
256,192,384803,1,0,0:0:0:0:
256,192,384878,1,8,0:0:0:0:
256,192,384953,1,8,0:0:0:0:
256,192,385028,1,0,0:0:0:0:
256,192,385103,1,0,0:0:0:0:
256,192,385178,1,8,0:0:0:0:
256,192,385253,1,0,0:0:0:0:
256,192,385328,1,8,0:0:0:0:
256,192,385478,1,0,0:0:0:0:
256,192,385628,1,12,0:0:0:0:
256,192,385778,1,8,0:0:0:0:
256,192,385928,5,4,0:0:0:0:
256,192,386078,1,0,0:0:0:0:
256,192,386228,1,6,0:0:0:0:
256,192,386378,1,2,0:0:0:0:
256,192,386453,1,0,0:0:0:0:
256,192,386528,1,0,0:0:0:0:
256,192,386678,1,0,0:0:0:0:
256,192,386828,1,2,0:0:0:0:
256,192,387128,1,0,0:0:0:0:
256,192,387278,1,2,0:0:0:0:
256,192,387353,1,2,0:0:0:0:
256,192,387428,1,0,0:0:0:0:
256,192,387578,1,0,0:0:0:0:
256,192,387728,1,2,0:0:0:0:
256,192,387803,1,2,0:0:0:0:
256,192,387878,1,0,0:0:0:0:
256,192,387953,1,0,0:0:0:0:
256,192,388028,1,2,0:0:0:0:
256,192,388328,1,0,0:0:0:0:
256,192,388478,1,0,0:0:0:0:
256,192,388553,1,0,0:0:0:0:
256,192,388628,1,2,0:0:0:0:
256,192,388778,1,2,0:0:0:0:
256,192,388928,1,0,0:0:0:0:
256,192,389078,1,0,0:0:0:0:
256,192,389228,1,2,0:0:0:0:
256,192,389528,1,0,0:0:0:0:
256,192,389678,1,0,0:0:0:0:
256,192,389753,1,2,0:0:0:0:
256,192,389828,1,2,0:0:0:0:
256,192,389978,1,0,0:0:0:0:
256,192,390128,1,0,0:0:0:0:
256,192,390203,1,0,0:0:0:0:
256,192,390278,1,0,0:0:0:0:
256,192,390353,1,0,0:0:0:0:
256,192,390428,1,2,0:0:0:0:
256,192,390503,1,2,0:0:0:0:
256,192,390578,1,2,0:0:0:0:
256,192,390728,1,0,0:0:0:0:
256,192,390878,1,0,0:0:0:0:
256,192,391028,1,6,0:0:0:0:
256,192,391178,1,2,0:0:0:0:
256,192,391253,1,0,0:0:0:0:
256,192,391328,1,0,0:0:0:0:
256,192,391478,1,0,0:0:0:0:
256,192,391628,1,2,0:0:0:0:
256,192,391928,1,0,0:0:0:0:
256,192,392078,1,2,0:0:0:0:
256,192,392153,1,2,0:0:0:0:
256,192,392228,1,0,0:0:0:0:
256,192,392378,1,0,0:0:0:0:
256,192,392528,1,2,0:0:0:0:
256,192,392603,1,0,0:0:0:0:
256,192,392678,1,0,0:0:0:0:
256,192,392753,1,0,0:0:0:0:
256,192,392828,1,2,0:0:0:0:
256,192,393128,1,2,0:0:0:0:
256,192,393203,1,2,0:0:0:0:
256,192,393278,1,0,0:0:0:0:
256,192,393428,1,6,0:0:0:0:
256,192,393578,1,2,0:0:0:0:
256,192,393653,1,0,0:0:0:0:
256,192,393728,1,0,0:0:0:0:
256,192,393878,1,0,0:0:0:0:
256,192,394028,1,2,0:0:0:0:
256,192,394178,1,0,0:0:0:0:
256,192,394328,1,6,0:0:0:0:
256,192,394478,1,0,0:0:0:0:
256,192,394628,1,0,0:0:0:0:
256,192,394703,1,0,0:0:0:0:
256,192,394778,1,2,0:0:0:0:
256,192,394928,1,0,0:0:0:0:
256,192,395078,1,0,0:0:0:0:
256,192,395153,1,0,0:0:0:0:
256,192,395228,1,2,0:0:0:0:
256,192,395378,1,2,0:0:0:0:
256,192,395528,1,0,0:0:0:0:
256,192,395678,1,0,0:0:0:0:
256,192,395828,1,6,0:0:0:0:
256,192,395978,1,2,0:0:0:0:
256,192,396053,1,0,0:0:0:0:
256,192,396128,1,0,0:0:0:0:
256,192,396278,1,0,0:0:0:0:
256,192,396428,1,2,0:0:0:0:
256,192,396728,1,0,0:0:0:0:
256,192,396878,1,2,0:0:0:0:
256,192,396953,1,2,0:0:0:0:
256,192,397028,1,0,0:0:0:0:
256,192,397178,1,0,0:0:0:0:
256,192,397328,1,2,0:0:0:0:
256,192,397403,1,2,0:0:0:0:
256,192,397478,1,0,0:0:0:0:
256,192,397553,1,0,0:0:0:0:
256,192,397628,1,2,0:0:0:0:
256,192,397928,1,0,0:0:0:0:
256,192,398078,1,0,0:0:0:0:
256,192,398153,1,0,0:0:0:0:
256,192,398228,1,2,0:0:0:0:
256,192,398378,1,2,0:0:0:0:
256,192,398528,1,0,0:0:0:0:
256,192,398678,1,0,0:0:0:0:
256,192,398828,1,2,0:0:0:0:
256,192,399128,1,0,0:0:0:0:
256,192,399278,1,0,0:0:0:0:
256,192,399353,1,2,0:0:0:0:
256,192,399428,1,2,0:0:0:0:
256,192,399578,1,0,0:0:0:0:
256,192,399728,1,0,0:0:0:0:
256,192,399803,1,0,0:0:0:0:
256,192,399878,1,0,0:0:0:0:
256,192,399953,1,0,0:0:0:0:
256,192,400028,1,2,0:0:0:0:
256,192,400103,1,2,0:0:0:0:
256,192,400178,1,2,0:0:0:0:
256,192,400328,1,0,0:0:0:0:
256,192,400478,1,0,0:0:0:0:
256,192,400628,1,6,0:0:0:0:
256,192,400778,1,2,0:0:0:0:
256,192,400853,1,0,0:0:0:0:
256,192,400928,1,0,0:0:0:0:
256,192,401078,1,0,0:0:0:0:
256,192,401228,1,2,0:0:0:0:
256,192,401528,1,0,0:0:0:0:
256,192,401678,1,2,0:0:0:0:
256,192,401753,1,2,0:0:0:0:
256,192,401828,1,0,0:0:0:0:
256,192,401978,1,0,0:0:0:0:
256,192,402128,1,2,0:0:0:0:
256,192,402203,1,0,0:0:0:0:
256,192,402278,1,0,0:0:0:0:
256,192,402353,1,0,0:0:0:0:
256,192,402428,1,2,0:0:0:0:
256,192,402728,1,2,0:0:0:0:
256,192,402803,1,0,0:0:0:0:
256,192,402878,1,0,0:0:0:0:
256,192,403028,1,6,0:0:0:0:
256,192,403178,1,2,0:0:0:0:
256,192,403328,1,0,0:0:0:0:
256,192,403478,1,6,0:0:0:0:
256,192,403628,1,0,0:0:0:0:
256,192,403778,1,0,0:0:0:0:
256,192,403853,1,0,0:0:0:0:
256,192,403928,1,2,0:0:0:0:
256,192,404003,1,0,0:0:0:0:
256,192,404078,1,0,0:0:0:0:
256,192,404153,1,0,0:0:0:0:
256,192,404228,1,2,0:0:0:0:
256,192,404303,1,0,0:0:0:0:
256,192,404378,1,0,0:0:0:0:
256,192,404453,1,0,0:0:0:0:
256,192,404528,1,2,0:0:0:0:
256,192,404603,1,2,0:0:0:0:
256,192,404678,1,0,0:0:0:0:
256,192,404753,1,0,0:0:0:0:
256,192,404828,1,2,0:0:0:0:
256,192,404903,1,0,0:0:0:0:
256,192,404978,1,0,0:0:0:0:
256,192,405053,1,0,0:0:0:0:
256,192,405128,1,2,0:0:0:0:
256,192,405203,1,2,0:0:0:0:
256,192,405278,1,0,0:0:0:0:
256,192,405353,1,0,0:0:0:0:
256,192,405428,1,2,0:0:0:0:
256,192,405578,1,0,0:0:0:0:
256,192,405728,1,2,0:0:0:0:
256,192,405878,1,0,0:0:0:0:
256,192,405953,1,0,0:0:0:0:
256,192,406028,1,2,0:0:0:0:
256,192,406178,1,0,0:0:0:0:
256,192,406478,1,0,0:0:0:0:
256,192,406628,1,2,0:0:0:0:
256,192,406703,1,0,0:0:0:0:
256,192,406778,1,2,0:0:0:0:
256,192,406928,1,0,0:0:0:0:
256,192,407078,1,2,0:0:0:0:
256,192,407153,1,2,0:0:0:0:
256,192,407228,1,2,0:0:0:0:
256,192,407378,1,0,0:0:0:0:
256,192,407678,1,0,0:0:0:0:
256,192,407753,1,0,0:0:0:0:
256,192,407828,1,2,0:0:0:0:
256,192,407978,1,0,0:0:0:0:
256,192,408053,1,0,0:0:0:0:
256,192,408128,1,2,0:0:0:0:
256,192,408278,1,0,0:0:0:0:
256,192,408428,1,2,0:0:0:0:
256,192,408503,1,0,0:0:0:0:
256,192,408578,1,0,0:0:0:0:
256,192,408878,1,0,0:0:0:0:
256,192,408953,1,0,0:0:0:0:
256,192,409028,1,2,0:0:0:0:
256,192,409178,1,6,0:0:0:0:
256,192,409478,1,4,0:0:0:0:
256,192,409628,1,2,0:0:0:0:
256,192,409778,1,6,0:0:0:0:
256,192,410078,1,0,0:0:0:0:
256,192,410153,1,0,0:0:0:0:
256,192,410228,1,2,0:0:0:0:
256,192,410378,1,0,0:0:0:0:
256,192,410528,1,2,0:0:0:0:
256,192,410603,1,2,0:0:0:0:
256,192,410678,1,0,0:0:0:0:
256,192,410753,1,0,0:0:0:0:
256,192,410828,1,2,0:0:0:0:
256,192,410978,1,0,0:0:0:0:
256,192,411278,1,0,0:0:0:0:
256,192,411428,1,2,0:0:0:0:
256,192,411503,1,0,0:0:0:0:
256,192,411578,1,2,0:0:0:0:
256,192,411728,1,0,0:0:0:0:
256,192,411878,1,0,0:0:0:0:
256,192,411953,1,2,0:0:0:0:
256,192,412028,1,2,0:0:0:0:
256,192,412178,1,0,0:0:0:0:
256,192,412478,1,0,0:0:0:0:
256,192,412553,1,0,0:0:0:0:
256,192,412628,1,2,0:0:0:0:
256,192,412778,1,0,0:0:0:0:
256,192,412853,1,2,0:0:0:0:
256,192,412928,1,2,0:0:0:0:
256,192,413078,1,0,0:0:0:0:
256,192,413228,1,2,0:0:0:0:
256,192,413303,1,2,0:0:0:0:
256,192,413378,1,0,0:0:0:0:
256,192,413678,1,0,0:0:0:0:
256,192,413753,1,0,0:0:0:0:
256,192,413828,1,2,0:0:0:0:
256,192,413978,1,6,0:0:0:0:
256,192,414128,1,2,0:0:0:0:
256,192,414203,1,0,0:0:0:0:
256,192,414278,1,2,0:0:0:0:
256,192,414428,1,2,0:0:0:0:
256,192,414578,12,2,415628,0:0:0:0:
256,192,415778,5,0,0:0:0:0:
256,192,415853,1,0,0:0:0:0:
256,192,415928,1,2,0:0:0:0:
256,192,416003,1,2,0:0:0:0:
256,192,416078,1,0,0:0:0:0:
256,192,416153,1,0,0:0:0:0:
256,192,416228,1,0,0:0:0:0:
256,192,416303,1,0,0:0:0:0:
256,192,416378,1,2,0:0:0:0:
256,192,416453,1,0,0:0:0:0:
256,192,416528,1,0,0:0:0:0:
256,192,416603,1,0,0:0:0:0:
256,192,416678,1,0,0:0:0:0:
256,192,416753,1,0,0:0:0:0:
256,192,416828,1,6,0:0:0:0:
256,192,416978,1,0,0:0:0:0:
256,192,417128,1,6,0:0:0:0:
256,192,417278,1,0,0:0:0:0:
256,192,417578,1,4,0:0:0:0:
256,192,417878,1,0,0:0:0:0:
256,192,417953,1,0,0:0:0:0:
256,192,418028,1,2,0:0:0:0:
256,192,418328,1,2,0:0:0:0:
256,192,418403,1,2,0:0:0:0:
256,192,418478,1,0,0:0:0:0:
256,192,418628,1,2,0:0:0:0:
256,192,418778,1,4,0:0:0:0:
256,192,419078,1,0,0:0:0:0:
256,192,419128,1,0,0:0:0:0:
256,192,419178,1,0,0:0:0:0:
256,192,419228,1,2,0:0:0:0:
256,192,419378,12,0,425528,0:0:0:0:
