osu file format v14

[General]
AudioFilename: audio.mp3
AudioLeadIn: 0
PreviewTime: -1
Countdown: 0
SampleSet: None
StackLeniency: 0.7
Mode: 0
LetterboxInBreaks: 0
WidescreenStoryboard: 1

[Editor]
DistanceSpacing: 1.7
BeatDivisor: 8
GridSize: 32
TimelineZoom: 1

[Metadata]
Title:Him An I
TitleUnicode:Him An I
Artist:Youtube
ArtistUnicode:Youtube
Creator:AngelicAiko
Version:no
Source:
Tags:
BeatmapID:4479311
BeatmapSetID:2088073

[Difficulty]
HPDrainRate:5.5
CircleSize:4
OverallDifficulty:9
ApproachRate:8.9
SliderMultiplier:1.4
SliderTickRate:1

[Events]
//Background and Video events
0,0,"dg716p3-9aa66ba2-963a-45cd-bff3-0481e68f8866.jpg",0,0
//Break Periods
//Storyboard Layer 0 (Background)
//Storyboard Layer 1 (Fail)
//Storyboard Layer 2 (Pass)
//Storyboard Layer 3 (Foreground)
//Storyboard Layer 4 (Overlay)
//Storyboard Sound Samples

[TimingPoints]
23409,444.444444444444,4,2,0,100,1,0

[Colours]
Combo1 : 69,232,250
Combo2 : 230,0,17

[HitObjects]
256,192,20,12,0,631,0:0:0:0:
132,125,1186,6,0,L|186:268,1,140
302,240,2075,1,0,0:0:0:0:
341,167,2520,2,0,L|214:107,1,140
137,130,3409,1,0,0:0:0:0:
156,243,3853,2,0,L|294:286,1,140
354,199,4742,1,0,0:0:0:0:
175,57,5186,2,0,L|240:195,1,140
142,268,6075,1,0,0:0:0:0:
396,93,6520,2,0,L|289:189,1,140
115,137,7409,2,0,L|222:250,1,140
325,220,8297,1,0,0:0:0:0:
128,283,8742,1,0,0:0:0:0:
189,129,9186,2,0,L|294:229,1,140
332,76,10075,1,0,0:0:0:0:
232,92,10520,2,0,L|257:235,1,140
302,122,11409,1,0,0:0:0:0:
396,91,11853,2,0,L|309:217,2,140
240,90,13186,1,0,0:0:0:0:
127,164,13631,2,0,L|234:266,1,140
357,194,14520,1,0,0:0:0:0:
96,127,14964,5,0,0:0:0:0:
124,266,15408,2,0,L|243:177,1,140
322,108,16297,2,0,L|328:259,1,140
170,161,17186,1,0,0:0:0:0:
121,214,17631,2,0,L|240:131,1,140
344,109,18520,1,0,0:0:0:0:
123,211,18964,1,0,0:0:0:0:
255,188,19408,1,0,0:0:0:0:
337,78,19853,2,0,L|185:111,1,140
184,189,20742,1,0,0:0:0:0:
273,225,21186,2,0,L|412:191,1,140
363,98,22075,1,0,0:0:0:0:
175,109,22520,2,0,L|231:240,1,140
300,157,23408,1,0,0:0:0:0:
113,116,23853,2,0,L|146:264,1,140
306,219,24742,1,0,0:0:0:0:
289,106,25186,2,0,L|149:161,1,140
212,268,26075,1,0,0:0:0:0:
318,230,26520,2,0,L|192:154,1,140
318,93,27408,1,0,0:0:0:0:
148,138,27853,6,0,L|238:258,1,140
416,292,28742,1,0,0:0:0:0:
359,122,29186,2,0,L|247:215,1,140
186,131,30075,1,0,0:0:0:0:
159,251,30520,2,0,L|310:224,1,140
413,217,31408,1,0,0:0:0:0:
413,217,31853,1,0,0:0:0:0:
370,111,32297,2,0,L|225:120,1,140
120,88,33186,1,0,0:0:0:0:
123,190,33631,1,0,0:0:0:0:
166,243,34075,2,0,L|292:172,1,140
303,103,34964,1,0,0:0:0:0:
225,98,35408,2,0,L|234:249,1,140
351,257,36297,1,0,0:0:0:0:
124,247,36742,1,0,0:0:0:0:
253,88,37186,1,0,0:0:0:0:
299,162,37631,2,0,L|146:183,1,140
166,84,38520,1,0,0:0:0:0:
178,222,38964,2,0,L|296:144,1,140
390,142,39853,1,0,0:0:0:0:
147,114,40297,5,0,0:0:0:0:
219,243,40742,2,0,L|359:222,1,140
348,109,41631,1,0,0:0:0:0:
135,119,42075,1,0,0:0:0:0:
296,285,42520,1,0,0:0:0:0:
194,259,42964,2,0,L|253:122,1,140
325,88,43853,1,0,0:0:0:0:
392,154,44297,2,0,L|340:295,1,140
76,87,45186,1,0,0:0:0:0:
117,251,45631,1,0,0:0:0:0:
219,97,46075,1,0,0:0:0:0:
310,190,46520,2,0,L|415:293,1,140
427,152,47408,1,0,0:0:0:0:
216,68,47853,2,0,L|73:119,1,140
189,100,48742,1,0,0:0:0:0:
189,100,49186,1,0,0:0:0:0:
194,198,49631,2,0,L|335:191,1,140
