osu file format v14

[General]
AudioFilename: audio.mp3
AudioLeadIn: 0
PreviewTime: -1
Countdown: 0
SampleSet: Soft
StackLeniency: 0.7
Mode: 0
LetterboxInBreaks: 0
WidescreenStoryboard: 1

[Editor]
DistanceSpacing: 1.7
BeatDivisor: 8
GridSize: 32
TimelineZoom: 1

[Metadata]
Title:Him An I
TitleUnicode:Him An I
Artist:Youtube
ArtistUnicode:Youtube
Creator:AngelicAiko
Version:fix version
Source:
Tags:
BeatmapID:4479310
BeatmapSetID:2088073

[Difficulty]
HPDrainRate:5.5
CircleSize:4
OverallDifficulty:9
ApproachRate:8.9
SliderMultiplier:1.4
SliderTickRate:1

[Events]
//Background and Video events
0,0,"dg716p3-9aa66ba2-963a-45cd-bff3-0481e68f8866.jpg",0,0
//Break Periods
//Storyboard Layer 0 (Background)
//Storyboard Layer 1 (Fail)
//Storyboard Layer 2 (Pass)
//Storyboard Layer 3 (Foreground)
//Storyboard Layer 4 (Overlay)
//Storyboard Sound Samples

[TimingPoints]
23353,468.750000000001,4,2,0,100,1,0

[Colours]
Combo1 : 69,232,250
Combo2 : 230,0,17

[HitObjects]
256,192,32,12,0,1790,0:0:0:0:
118,94,2139,6,0,L|180:162,1,87.5
348,95,2784,2,0,P|302:148|305:150,1,105
385,273,3428,2,0,P|316:215|315:215,1,87.5
138,183,4073,2,0,P|245:183|243:183,1,105
350,182,5067,2,0,L|239:97,1,140
186,182,5770,1,0,0:0:0:0:
206,259,6004,2,0,L|328:166,1,140
293,97,6708,1,0,0:0:0:0:
140,113,6941,2,0,L|221:233,1,140
217,285,7644,1,0,0:0:0:0:
217,182,7878,2,0,L|347:117,1,140
356,236,8582,1,0,0:0:0:0:
173,225,8816,2,0,L|268:112,1,140
343,134,9519,1,0,0:0:0:0:
232,206,9753,2,0,L|378:248,1,140
342,147,10456,1,0,0:0:0:0:
218,118,10690,2,0,L|215:263,1,140
320,235,11395,1,0,0:0:0:0:
347,145,11629,2,0,L|208:108,1,140
155,251,12332,5,0,0:0:0:0:
226,120,12567,2,0,L|237:268,1,140
340,176,13270,1,0,0:0:0:0:
246,252,13505,2,0,L|205:117,1,140
356,91,14208,1,0,0:0:0:0:
183,137,14443,2,0,L|275:250,1,140
158,287,15145,1,0,0:0:0:0:
161,148,15379,2,0,L|306:132,1,140
356,166,16083,1,0,0:0:0:0:
359,264,16317,2,0,L|208:265,1,140
132,178,17020,1,0,0:0:0:0:
180,84,17254,2,0,L|326:98,1,140
391,202,17957,1,0,0:0:0:0:
345,283,18191,2,0,B|264:292|264:292|212:245,1,140
295,158,18895,1,0,0:0:0:0:
356,78,19130,2,0,B|297:42|297:42|231:82,1,140
103,145,19832,1,0,0:0:0:0:
59,245,20067,2,0,P|84:303|157:312,1,140
292,278,20769,1,0,0:0:0:0:
385,319,21006,2,0,P|460:308|455:249,1,140
255,190,21709,5,0,0:0:0:0:
126,142,21943,2,0,B|194:98|194:98|264:120,1,140
357,160,22646,1,0,0:0:0:0:
304,259,22880,2,0,B|222:267|222:267|178:210,1,140
332,78,23528,2,0,B|380:75|380:75|384:116,1,87.5
274,243,23997,1,0,0:0:0:0:
220,102,24290,2,0,B|226:178|226:178|163:205,1,140
72,93,24935,1,0,0:0:0:0:
290,122,25228,2,0,P|353:170|330:231,1,140
217,287,25872,1,0,0:0:0:0:
314,296,26165,2,0,P|385:308|399:253,1,140
311,176,26810,1,0,0:0:0:0:
174,141,27103,2,0,P|95:152|91:206,1,140
167,273,27747,1,0,0:0:0:0:
270,272,28040,2,0,P|335:235|304:188,1,140
397,109,28685,1,0,0:0:0:0:
274,65,28978,2,0,B|191:74|191:74|189:132,1,140
251,270,29622,1,0,0:0:0:0:
339,278,29915,2,0,B|414:243|414:243|368:189,1,140
272,124,30560,1,0,0:0:0:0:
70,218,30853,6,0,B|86:300|86:300|157:290,1,140
267,242,31497,1,0,0:0:0:0:
372,288,31790,2,0,B|440:273|440:273|401:202,1,140
326,114,32435,1,0,0:0:0:0:
207,63,32728,2,0,P|131:96|109:157,1,140
176,240,33372,1,0,0:0:0:0:
285,311,33665,2,0,B|348:261|348:261|308:205,1,140
363,87,34310,1,0,0:0:0:0:
267,87,34603,2,0,B|191:107|191:107|160:162,1,140
201,281,35247,1,0,0:0:0:0:
114,291,35540,2,0,P|115:211|171:188,1,140
209,114,36185,1,0,0:0:0:0:
299,68,36478,2,0,P|379:93|386:151,1,140
312,223,37122,1,0,0:0:0:0:
186,268,37415,2,0,B|127:229|127:229|123:158,1,140
204,118,38060,1,0,0:0:0:0:
296,138,38353,2,0,B|358:178|358:178|341:249,1,140
211,233,38997,1,0,0:0:0:0:
158,154,39290,2,0,B|210:98|210:98|279:95,1,140
352,182,39935,1,0,0:0:0:0:
326,272,40228,6,0,B|245:288|245:288|191:244,1,140
178,134,40872,1,0,0:0:0:0:
278,97,41165,2,0,B|349:122|349:122|334:194,1,140
411,285,41810,1,0,0:0:0:0:
300,288,42103,2,0,P|222:290|216:237,1,140
263,129,42747,1,0,0:0:0:0:
154,69,43040,2,0,L|154:212,1,140
272,269,43685,1,0,0:0:0:0:
297,164,43978,2,0,P|220:195|201:157,1,140
135,62,44622,1,0,0:0:0:0:
115,169,44915,2,0,P|166:235|223:223,1,140
317,149,45560,1,0,0:0:0:0:
198,271,45853,1,0,0:0:0:0:
181,94,46145,1,0,0:0:0:0:
365,182,46321,1,0,0:0:0:0:
198,271,46497,1,0,0:0:0:0:
192,176,46790,2,0,P|238:114|299:103,1,140
382,163,47435,1,0,0:0:0:0:
357,233,47728,2,0,B|276:256|276:256|236:214,1,140
240,120,48372,1,0,0:0:0:0:
43,145,48665,6,0,B|59:222|59:222|123:243,1,140
197,346,49310,1,0,0:0:0:0:
276,280,49603,2,0,B|330:234|330:234|278:177,1,140
411,115,50247,1,0,0:0:0:0:
346,55,50540,2,0,B|261:61|261:61|226:104,1,140
46,142,51185,1,0,0:0:0:0:
137,220,51478,2,0,B|195:258|195:258|270:248,1,140
348,328,52122,1,0,0:0:0:0:
387,248,52415,2,0,B|401:175|401:175|339:144,1,140
310,75,53060,1,0,0:0:0:0:
193,91,53353,2,0,B|194:172|194:172|251:196,1,140
183,271,53997,1,0,0:0:0:0:
52,335,54290,2,0,B|82:261|82:261|141:234,1,140
118,140,54935,1,0,0:0:0:0:
151,67,55228,2,0,B|221:60|221:60|251:123,1,140
275,223,55872,1,0,0:0:0:0:
379,241,56165,2,0,B|311:286|311:286|250:273,1,140
157,191,56810,1,0,0:0:0:0:
161,104,57103,2,0,B|231:82|231:82|298:95,1,140
394,171,57747,1,0,0:0:0:0:
426,309,58040,6,0,B|355:320|355:320|292:278,1,140
226,166,58685,1,0,0:0:0:0:
52,196,58978,2,0,B|85:273|85:273|141:301,1,140
261,328,59622,1,0,0:0:0:0:
305,250,59915,2,0,B|310:167|310:167|246:156,1,140
143,117,60560,1,0,0:0:0:0:
121,227,60853,2,0,B|201:244|201:244|240:194,1,140
313,91,61497,1,0,0:0:0:0:
410,159,61790,2,0,P|429:228|376:272,1,140
258,204,62435,1,0,0:0:0:0:
151,243,62728,2,0,P|117:167|165:148,1,140
268,115,63372,1,0,0:0:0:0:
326,163,63665,2,0,P|253:193|194:169,1,140
257,107,64310,1,0,0:0:0:0:
180,92,64603,2,0,P|247:58|305:90,1,140
401,219,65247,1,0,0:0:0:0:
226,240,65540,2,0,B|153:224|153:224|179:163,1,140
238,177,66185,1,0,0:0:0:0:
282,114,66478,2,0,B|349:131|349:131|314:201,1,140
392,269,67122,1,0,0:0:0:0:
340,200,67415,6,0,B|281:145|281:145|211:146,1,140
140,207,68060,1,0,0:0:0:0:
141,273,68353,2,0,B|222:262|222:262|219:197,1,140
307,135,68997,1,0,0:0:0:0:
417,150,69290,2,0,B|406:228|406:228|341:244,1,140
191,100,69935,1,0,0:0:0:0:
221,43,70228,2,0,B|139:46|139:46|118:108,1,140
237,240,70872,1,0,0:0:0:0:
322,278,71165,2,0,P|381:239|339:191,1,140
376,87,71810,1,0,0:0:0:0:
263,111,72103,2,0,P|198:142|180:214,1,140
95,272,72747,1,0,0:0:0:0:
80,183,73040,2,0,P|116:115|169:82,1,140
267,242,73685,1,0,0:0:0:0:
353,230,73978,2,0,B|406:179|406:179|359:117,1,140
202,169,74622,1,0,0:0:0:0:
200,78,74915,2,0,B|281:64|281:64|318:114,1,140
388,217,75560,1,0,0:0:0:0:
282,282,75853,2,0,P|199:271|208:227,1,140
246,126,76497,1,0,0:0:0:0:
