osu file format v14

[General]
AudioFilename: audio.mp3
AudioLeadIn: 0
PreviewTime: 63822
Countdown: 0
SampleSet: Soft
StackLeniency: 0.3
Mode: 0
LetterboxInBreaks: 0
WidescreenStoryboard: 1

[Editor]
Bookmarks: 21655,56488,58488,61822,63155,160488,171155,181822
DistanceSpacing: 1
BeatDivisor: 4
GridSize: 32
TimelineZoom: 2.699999

[Metadata]
Title:still alive
TitleUnicode:still alive
Artist:Yousei Teikoku
ArtistUnicode:妖精帝國
Creator:Net0
Version:Xunni's Normal
Source:
Tags:japanese rock Gothic Metal Maot Xunni Moete PaRaDoGi IsomirDiAngelo Yui Takaha Tachibana Nanami Relu YUI Takaha Tachibana gothic lolita agitator Fairy Empire 伊月 ゆい 橘 尭葉 ななみ レル
BeatmapID:2446915
BeatmapSetID:1109705

[Difficulty]
HPDrainRate:4
CircleSize:3.5
OverallDifficulty:4
ApproachRate:5
SliderMultiplier:1.2
SliderTickRate:1

[Events]
//Background and Video events
0,0,"Bg Yousei.jpg",0,0
//Break Periods
2,88688,95122
2,142022,148622
2,171355,180622
2,216688,217955
//Storyboard Layer 0 (Background)
//Storyboard Layer 1 (Fail)
//Storyboard Layer 2 (Pass)
//Storyboard Layer 3 (Foreground)
//Storyboard Layer 4 (Overlay)
//Storyboard Sound Samples

[TimingPoints]
489,333.333333333333,4,2,21,50,1,0
11155,-125,4,2,22,50,0,0
64488,-125,4,2,22,60,0,1
85822,-125,4,2,22,50,0,0
117822,-125,4,2,22,60,0,1
139155,-125,4,2,22,50,0,0
171155,-125,4,2,24,50,0,0
171322,-125,4,2,21,50,0,0
173822,-125,4,2,23,50,0,0
173988,-125,4,2,21,50,0,0
176488,-125,4,2,24,50,0,0
176655,-125,4,2,21,50,0,0
179155,-125,4,2,23,50,0,0
179321,-125,4,2,21,50,0,0
181822,-125,4,2,22,50,0,0
192488,-125,4,2,22,60,0,1
213822,-125,4,2,22,50,0,0
235155,-125,4,2,21,50,0,0

[Colours]
Combo1 : 113,144,175
Combo2 : 196,68,70

[HitObjects]
305,262,11155,6,0,L|276:370,2,96,6|8|0,3:2|3:2|3:2,0:0:0:0:
378,200,12155,1,8,3:2:0:0:
451,262,12488,2,0,L|479:370,2,96,2|8|2,3:2|3:2|3:2,0:0:0:0:
378,200,13488,1,8,3:2:0:0:
451,138,13822,2,0,P|479:75|343:98,1,288,2|8,3:2|3:2,0:0:0:0:
299,166,15155,2,0,P|251:230|187:166,1,192,2|0,3:2|3:2,0:0:0:0:
42,263,16488,6,0,L|13:371,2,96,6|8|0,3:2|3:2|3:2,0:0:0:0:
115,201,17488,1,8,3:2:0:0:
188,263,17821,2,0,L|216:371,2,96,2|8|2,3:2|3:2|3:2,0:0:0:0:
115,201,18821,1,8,3:2:0:0:
45,134,19155,2,0,P|17:71|153:94,1,288,2|8,3:2|3:2,0:0:0:0:
186,167,20488,2,0,P|234:231|298:167,1,192,2|0,3:2|3:2,0:0:0:0:
442,111,21655,5,2,0:0:0:0:
442,111,21822,2,0,P|442:180|414:257,1,144,6|2,3:2|0:0,0:0:0:0:
385,285,22488,2,0,L|319:293,1,48,2|0,0:0|3:2,0:0:0:0:
263,237,22988,1,2,0:0:0:0:
263,237,23155,2,0,L|215:242,1,48,2|0,3:2|0:0,0:0:0:0:
128,200,23655,2,0,L|81:193,2,48,2|2|2,3:2|0:0|3:2,0:0:0:0:
158,162,24155,2,0,L|166:96,1,48,2|2,3:2|0:0,0:0:0:0:
174,67,24488,6,0,P|245:67|313:91,1,144,2|2,3:2|0:0,0:0:0:0:
353,117,25155,2,0,L|400:111,1,48,2|0,0:0|3:2,0:0:0:0:
482,170,25655,1,2,0:0:0:0:
482,170,25822,2,0,P|495:211|495:324,1,144,2|2,3:2|3:2,0:0:0:0:
458,339,26488,2,0,L|410:344,1,48,2|0,0:0|3:2,0:0:0:0:
318,336,26988,1,2,3:2:0:0:
318,336,27155,6,0,P|305:295|305:182,1,144,6|2,3:2|0:0,0:0:0:0:
338,162,27822,2,0,L|343:114,1,48,2|0,0:0|3:2,0:0:0:0:
265,58,28322,1,2,0:0:0:0:
264,57,28488,2,0,L|259:105,1,48,2|0,3:2|0:0,0:0:0:0:
162,102,28988,2,0,L|167:54,2,48,2|2|2,3:2|3:2|3:2,0:0:0:0:
133,140,29488,2,0,L|138:187,1,48,2|2,3:2|0:0,0:0:0:0:
95,209,29822,6,0,P|82:250|82:363,1,144,2|2,3:2|0:0,0:0:0:0:
125,362,30488,2,0,L|172:367,1,48,2|0,0:0|3:2,0:0:0:0:
189,276,30988,1,2,0:0:0:0:
189,276,31155,2,0,L|236:281,1,48,2|0,3:2|0:0,0:0:0:0:
252,191,31655,1,2,3:2:0:0:
252,191,31822,2,0,L|299:196,1,48,2|0,0:0|3:2,0:0:0:0:
374,68,32488,6,0,B|406:65|406:65|436:44|436:44|483:36,2,96,6|8|0,3:2|3:2|3:2,0:0:0:0:
305,123,33488,1,8,3:2:0:0:
374,178,33822,2,0,B|406:181|406:181|436:202|436:202|483:209,2,96,2|8|0,3:2|3:2|3:2,0:0:0:0:
305,123,34822,1,8,3:2:0:0:
232,70,35155,2,0,P|133:106|238:176,1,288,2|8,3:2|3:2,0:0:0:0:
305,123,36488,2,0,P|318:195|232:271,1,192,2|0,3:2|3:2,0:0:0:0:
250,357,37488,1,8,3:2:0:0:
168,325,37822,6,0,B|136:328|136:328|106:349|106:349|59:356,2,96,6|8|0,3:2|3:2|3:2,0:0:0:0:
237,270,38822,1,8,3:2:0:0:
168,215,39156,2,0,B|136:212|136:212|106:191|106:191|59:183,2,96,2|8|0,3:2|3:2|3:2,0:0:0:0:
237,270,40156,1,8,3:2:0:0:
310,323,40489,2,0,P|409:287|304:217,1,288,2|8,3:2|3:2,0:0:0:0:
237,270,41822,2,0,P|224:198|310:122,1,192,2|0,3:2|3:2,0:0:0:0:
451,121,42988,5,2,0:0:0:0:
451,121,43155,2,0,P|416:61|353:8,1,144,6|2,3:2|0:0,0:0:0:0:
314,0,43821,2,0,L|252:26,1,48,2|0,0:0|3:2,0:0:0:0:
205,95,44321,1,2,0:0:0:0:
205,95,44488,2,0,L|157:89,1,48,2|0,3:2|0:0,0:0:0:0:
73,136,44988,2,0,L|26:143,2,48,2|2|2,3:2|0:0|3:2,0:0:0:0:
100,175,45488,2,0,L|108:241,1,48,2|2,3:2|0:0,0:0:0:0:
116,269,45822,6,0,P|187:268|255:244,1,144,2|2,3:2|0:0,0:0:0:0:
296,220,46488,2,0,L|343:225,1,48,2|0,0:0|3:2,0:0:0:0:
434,187,46988,1,2,0:0:0:0:
434,187,47155,2,0,P|447:146|447:33,1,144,2|2,3:2|3:2,0:0:0:0:
403,32,47821,2,0,L|355:26,1,48,2|0,0:0|3:2,0:0:0:0:
263,29,48321,1,2,3:2:0:0:
263,29,48488,6,0,P|250:70|250:183,1,144,6|2,3:2|0:0,0:0:0:0:
283,203,49155,2,0,L|288:250,1,48,2|0,0:0|3:2,0:0:0:0:
210,307,49655,1,2,0:0:0:0:
210,308,49821,2,0,L|204:260,1,48,2|0,3:2|0:0,0:0:0:0:
107,263,50321,2,0,L|112:310,2,48,2|2|2,3:2|3:2|3:2,0:0:0:0:
66,238,50821,2,0,L|71:190,1,48,2|2,3:2|0:0,0:0:0:0:
91,146,51155,6,0,P|132:133|244:152,1,144,2|2,3:2|0:0,0:0:0:0:
263,180,51821,2,0,L|310:185,1,48,2|0,0:0|3:2,0:0:0:0:
370,111,52321,1,2,0:0:0:0:
370,111,52488,2,0,L|322:105,1,48,2|0,3:2|0:0,0:0:0:0:
324,12,52988,1,2,3:2:0:0:
324,12,53155,2,0,L|276:17,1,48,2|0,0:0|3:2,0:0:0:0:
137,53,53822,6,0,P|73:42|27:56,2,96,6|8|2,3:2|3:2|0:0,0:0:0:0:
214,109,54822,1,8,3:2:0:0:
291,165,55155,2,0,P|355:176|401:162,2,96,2|8|2,3:2|3:2|0:0,0:0:0:0:
214,109,56155,1,8,3:2:0:0:
158,30,56488,6,0,B|286:-34|286:126|446:30,1,288,2|10,3:2|3:2,0:0:0:0:
465,128,57822,2,0,P|425:146|353:147,1,96,2|8,3:2|3:2,0:0:0:0:
325,147,58322,2,0,P|297:184|283:230,1,96,8|0,3:2|3:2,0:0:0:0:
312,268,58822,1,0,3:2:0:0:
292,362,59155,6,0,P|355:350|394:321,2,96,6|8|2,3:2|3:2|0:0,0:0:0:0:
201,336,60155,1,8,3:2:0:0:
110,309,60488,2,0,P|46:320|7:349,2,96,2|8|2,3:2|3:2|0:0,0:0:0:0:
181,244,61488,1,8,3:2:0:0:
273,218,61822,6,0,B|224:172|258:107|305:91|381:103|365:174|429:211,1,288,2|2,3:2|3:2,0:0:0:0:
512,178,63155,2,0,P|518:128|512:68,1,96,2|8,3:2|3:2,0:0:0:0:
455,6,63822,2,0,P|380:11|344:70,1,144,2|0,1:2|0:0,0:0:0:0:
338,109,64488,6,0,B|292:126|292:126|238:104,1,96,6|10,3:2|3:2,0:0:0:0:
227,71,64988,1,2,0:0:0:0:
227,71,65155,2,0,P|174:53|124:83,1,96,2|10,3:2|3:2,0:0:0:0:
114,108,65655,2,0,L|119:220,1,96,2|2,0:0|0:0,0:0:0:0:
89,242,66155,1,10,3:2:0:0:
140,323,66488,2,0,P|189:339|243:310,1,96,2|10,3:2|3:2,0:0:0:0:
302,262,67155,6,0,P|393:235|454:308,2,192,6|2|2,3:2|3:2|3:2,0:0:0:0:
223,215,68822,1,10,3:2:0:0:
223,215,68988,2,0,P|223:185|232:156,1,48,2|0,0:0|3:2,0:0:0:0:
320,140,69488,2,0,P|320:110|311:81,1,48,8|2,3:2|0:0,0:0:0:0:
289,53,69822,6,0,B|243:36|243:36|189:57,1,96,6|10,3:2|3:2,0:0:0:0:
169,91,70322,1,2,0:0:0:0:
169,91,70489,2,0,P|117:107|72:76,1,96,2|10,3:2|3:2,0:0:0:0:
35,81,70988,2,0,L|42:193,1,96,2|2,0:0|0:0,0:0:0:0:
68,217,71489,1,10,3:2:0:0:
89,310,71822,2,0,P|125:344|184:345,1,96,2|10,3:2|3:2,0:0:0:0:
259,317,72488,6,0,P|351:290|446:322,2,192,6|2|2,3:2|3:2|3:2,0:0:0:0:
186,262,74155,1,10,3:2:0:0:
186,262,74322,2,0,L|168:165,1,96,2|0,0:0|0:0,0:0:0:0:
181,121,74822,1,8,3:2:0:0:
248,50,75155,6,0,L|312:123,1,96,6|8,3:2|3:2,0:0:0:0:
405,102,75822,2,0,P|380:55|335:29,1,96,2|8,3:2|3:2,0:0:0:0:
248,50,76488,1,2,3:2:0:0:
218,143,76822,1,10,3:2:0:0:
218,143,76988,2,0,P|242:189|287:215,1,96,2|0,0:0|0:0,0:0:0:0:
325,223,77488,1,10,3:2:0:0:
375,304,77822,6,0,B|288:363|288:262|187:299,1,192,6|0,3:2|3:2,0:0:0:0:
116,353,78822,2,0,P|81:356|49:351,1,48,10|2,3:2|0:0,0:0:0:0:
25,335,79155,1,2,3:2:0:0:
8,245,79488,1,10,3:2:0:0:
8,245,79655,2,0,P|69:227|117:246,1,96,2|0,0:0|0:0,0:0:0:0:
135,266,80155,1,8,3:2:0:0:
228,287,80488,6,0,L|323:268,1,96,6|8,3:2|3:2,0:0:0:0:
350,177,81155,2,0,P|296:175|251:201,1,96,2|8,3:2|3:2,0:0:0:0:
228,287,81821,1,2,3:2:0:0:
292,359,82155,1,10,3:2:0:0:
292,359,82321,2,0,P|343:361|388:335,1,96,2|0,0:0|0:0,0:0:0:0:
411,306,82821,1,10,3:2:0:0:
424,210,83155,6,0,B|446:155|477:170|485:96|464:64|444:47|416:28,1,192,6|0,3:2|3:2,0:0:0:0:
365,109,84155,1,8,3:2:0:0:
301,180,84488,2,0,P|265:181|201:160,1,96,2|10,3:2|3:2,0:0:0:0:
152,86,85155,2,0,P|106:70|58:70,1,96,2|10,3:2|3:2,0:0:0:0:
256,192,85822,12,0,88488,3:2:0:0:
500,328,96322,5,2,0:0:0:0:
500,328,96488,2,0,B|455:339|455:339|348:322,1,144,6|2,3:2|0:0,0:0:0:0:
324,290,97155,2,0,L|315:242,1,48,2|0,0:0|3:2,0:0:0:0:
291,154,97655,1,2,0:0:0:0:
291,154,97822,2,0,B|239:172|239:172|200:207,1,96,2|8,3:2|3:2,0:0:0:0:
113,186,98488,2,0,L|65:195,2,48,2|2|2,0:0|3:2|3:2,0:0:0:0:
154,99,99155,6,0,B|191:71|191:71|296:45,1,144,2|2,3:2|0:0,0:0:0:0:
327,36,99822,2,0,L|336:84,1,48,2|0,0:0|3:2,0:0:0:0:
407,154,100322,1,2,0:0:0:0:
407,154,100488,2,0,L|398:202,1,48,2|0,3:2|0:0,0:0:0:0:
309,233,100988,1,2,3:2:0:0:
309,233,101155,2,0,L|319:284,1,48,2|0,0:0|3:2,0:0:0:0:
262,359,101655,1,2,3:2:0:0:
262,359,101822,6,0,B|215:364|215:364|111:334,1,144,6|2,3:2|0:0,0:0:0:0:
74,330,102488,2,0,L|65:282,1,48,2|0,0:0|3:2,0:0:0:0:
28,193,102988,1,2,0:0:0:0:
28,193,103155,2,0,L|19:145,1,48,2|0,3:2|0:0,0:0:0:0:
80,71,103655,2,0,L|89:23,2,48,2|2|2,3:2|3:2|3:2,0:0:0:0:
112,106,104155,2,0,L|121:154,1,48,2|2,3:2|0:0,0:0:0:0:
126,200,104488,6,0,B|138:286|138:286|165:340,1,144,2|2,3:2|0:0,0:0:0:0:
207,356,105155,2,0,L|264:344,1,48,2|0,0:0|3:2,0:0:0:0:
264,254,105655,1,2,0:0:0:0:
264,253,105822,2,0,L|217:262,1,48,2|0,3:2|0:0,0:0:0:0:
200,172,106322,1,2,3:2:0:0:
200,173,106489,2,0,L|246:163,1,48,2|0,0:0|3:2,0:0:0:0:
373,92,107155,6,0,P|362:28|376:-18,2,96,6|8|2,3:2|3:2|0:0,0:0:0:0:
421,174,108155,1,8,3:2:0:0:
469,92,108488,2,0,P|480:28|466:-18,2,96,2|8|2,3:2|3:2|0:0,0:0:0:0:
421,174,109488,1,8,3:2:0:0:
469,256,109822,2,0,P|498:319|362:296,1,288,2|10,3:2|3:2,0:0:0:0:
312,225,111155,2,0,P|272:207|200:206,1,96,2|8,3:2|3:2,0:0:0:0:
188,238,111655,2,0,P|141:235|97:216,1,96,8|0,3:2|3:2,0:0:0:0:
58,186,112155,1,0,3:2:0:0:
8,101,112488,6,0,P|-3:37|11:-9,2,96,6|8|2,3:2|3:2|0:0,0:0:0:0:
56,183,113488,1,8,3:2:0:0:
104,101,113821,2,0,P|115:37|101:-9,2,96,2|8|2,3:2|3:2|0:0,0:0:0:0:
56,183,114821,1,8,3:2:0:0:
31,276,115155,6,0,B|109:324|103:233|171:262|171:262|179:235|204:218|232:219|232:219|259:219|281:245,1,288,2|2,3:2|3:2,0:0:0:0:
267,338,116488,2,0,P|339:346|367:356,1,96,2|8,3:2|3:2,0:0:0:0:
456,367,117155,2,0,P|463:295|443:224,1,144,2|0,1:2|0:0,0:0:0:0:
416,188,117822,6,0,L|420:84,1,96,6|10,3:2|3:2,0:0:0:0:
375,97,118322,1,2,0:0:0:0:
375,97,118488,2,0,P|321:111|266:91,1,96,2|10,3:2|3:2,0:0:0:0:
259,60,118988,2,0,P|210:52|162:65,1,96,2|2,0:0|0:0,0:0:0:0:
123,88,119488,1,10,3:2:0:0:
101,181,119822,2,0,P|93:232|108:284,1,96,2|10,3:2|3:2,0:0:0:0:
169,344,120488,6,0,P|78:371|17:298,2,192,6|2|2,3:2|3:2|3:2,0:0:0:0:
218,261,122155,1,8,3:2:0:0:
218,261,122322,2,0,L|220:195,1,48,2|0,0:0|3:2,0:0:0:0:
290,148,122822,2,0,L|330:111,1,48,10|0,3:2|0:0,0:0:0:0:
369,95,123155,6,0,P|383:143|369:199,1,96,6|10,3:2|3:2,0:0:0:0:
351,230,123655,1,2,0:0:0:0:
351,230,123822,2,0,P|345:281|354:333,1,96,2|10,3:2|3:2,0:0:0:0:
374,367,124322,2,0,P|320:357|265:363,1,96,2|2,0:0|0:0,0:0:0:0:
233,375,124822,1,10,3:2:0:0:
141,345,125155,2,0,L|134:232,1,96,2|10,3:2|3:2,0:0:0:0:
203,180,125822,6,0,P|112:153|51:226,2,192,6|2|2,3:2|3:2|3:2,0:0:0:0:
274,252,127488,1,10,3:2:0:0:
274,252,127655,2,0,L|299:188,1,48,2|0,0:0|3:2,0:0:0:0:
387,198,128155,1,8,3:2:0:0:
333,119,128488,6,0,L|236:129,1,96,6|8,3:2|3:2,0:0:0:0:
199,216,129155,2,0,P|251:222|298:200,1,96,2|8,3:2|3:2,0:0:0:0:
333,119,129821,1,2,3:2:0:0:
273,40,130155,1,10,3:2:0:0:
273,40,130321,2,0,P|221:33|174:55,1,96,2|0,0:0|0:0,0:0:0:0:
156,89,130821,1,10,3:2:0:0:
67,52,131155,6,0,B|10:141|116:141|70:248,1,192,6|0,3:2|3:2,0:0:0:0:
0,292,132155,2,0,P|0:315|5:338,1,48,10|2,3:2|0:0,0:0:0:0:
45,366,132488,1,2,3:2:0:0:
128,316,132822,1,10,3:2:0:0:
128,316,132988,2,0,P|174:306|219:321,1,96,2|0,0:0|0:0,0:0:0:0:
252,356,133488,1,8,3:2:0:0:
311,280,133822,6,0,L|300:183,1,96,6|8,3:2|3:2,0:0:0:0:
214,146,134489,2,0,P|207:198|229:245,1,96,2|8,3:2|3:2,0:0:0:0:
311,280,135155,1,2,3:2:0:0:
390,220,135489,1,10,3:2:0:0:
390,220,135655,2,0,P|396:168|374:121,1,96,2|0,0:0|0:0,0:0:0:0:
341,103,136155,1,10,3:2:0:0:
254,62,136488,6,0,B|199:39|214:8|140:0|108:21|91:41|72:69,1,192,6|0,3:2|3:2,0:0:0:0:
29,130,137488,1,8,3:2:0:0:
124,137,137822,2,0,P|125:172|104:236,1,96,2|10,3:2|3:2,0:0:0:0:
24,275,138489,2,0,P|8:320|8:368,1,96,2|10,3:2|3:2,0:0:0:0:
256,192,139155,12,0,141822,3:2:0:0:
64,64,149822,6,0,L|64:178,1,96,6|0,3:2|3:2,0:0:0:0:
64,256,150488,2,0,L|64:320,2,48,0|0|0,3:2|0:0|3:2,0:0:0:0:
160,256,151155,2,0,L|272:256,1,96,2|0,3:2|3:2,0:0:0:0:
256,160,151822,2,0,L|317:160,2,48,0|0|0,3:2|0:0|3:2,0:0:0:0:
206,160,152322,1,0,0:0:0:0:
160,160,152488,5,2,3:2:0:0:
160,64,152822,2,0,L|208:64,1,48,0|0,3:2|0:0,0:0:0:0:
256,64,153155,1,0,3:2:0:0:
352,64,153488,2,0,L|400:64,1,48,0|0,3:2|0:0,0:0:0:0:
448,64,153822,2,0,L|448:176,1,96,2|0,3:2|3:2,0:0:0:0:
448,256,154488,2,0,L|496:256,2,48,0|0|0,3:2|0:0|3:2,0:0:0:0:
399,256,154988,1,0,0:0:0:0:
399,304,155155,5,2,3:2:0:0:
352,384,155488,2,0,L|240:384,1,96,0|0,3:2|3:2,0:0:0:0:
160,384,156155,1,0,3:2:0:0:
64,384,156488,2,0,L|0:384,2,48,2|0|0,3:2|0:0|3:2,0:0:0:0:
64,288,157155,1,0,3:2:0:0:
160,288,157488,1,0,3:2:0:0:
256,288,157822,6,0,L|352:288,2,96,2|2|2,3:2|3:2|3:2,0:0:0:0:
256,192,158822,2,0,L|256:128,1,48,2|0,3:2|0:0,0:0:0:0:
256,96,159155,2,0,L|160:96,1,96,2|2,3:2|3:2,0:0:0:0:
160,192,159822,1,2,3:2:0:0:
64,192,160155,1,2,3:2:0:0:
64,288,160488,6,0,P|96:352|160:288,1,192,6|0,3:2|3:2,0:0:0:0:
160,192,161488,1,8,3:2:0:0:
160,96,161822,6,0,P|207:28|255:95,1,192,2|0,3:2|3:2,0:0:0:0:
256,192,162822,1,8,3:2:0:0:
256,288,163155,6,0,P|288:352|352:288,1,192,6|0,3:2|3:2,0:0:0:0:
352,192,164155,1,8,3:2:0:0:
352,96,164488,6,0,L|352:0,1,96,2|8,3:2|3:2,0:0:0:0:
256,0,165155,1,0,3:2:0:0:
256,96,165488,1,8,3:2:0:0:
352,96,165822,6,0,L|448:96,1,96,6|8,3:2|3:2,0:0:0:0:
448,192,166488,2,0,L|448:288,1,96,0|8,3:2|3:2,0:0:0:0:
352,288,167155,6,0,L|256:288,2,96,6|8|4,3:2|3:2|3:2,0:0:0:0:
352,384,168155,1,8,3:2:0:0:
256,384,168488,6,0,L|160:384,1,96,6|12,3:2|3:2,0:0:0:0:
160,288,169155,2,0,L|256:288,1,96,2|14,3:2|3:2,0:0:0:0:
256,192,169822,6,0,P|208:124|160:191,1,192,6|6,3:2|3:2,0:0:0:0:
64,192,170822,2,0,L|64:96,1,96,12|6,3:2|3:2,0:0:0:0:
421,301,181822,6,0,B|456:289|492:308|492:308|528:292,2,96,6|8|2,3:2|3:2|0:0,0:0:0:0:
341,353,182822,1,8,3:2:0:0:
261,301,183155,2,0,B|226:289|190:308|190:308|153:292,2,96,2|8|2,3:2|3:2|0:0,0:0:0:0:
341,249,184155,1,8,3:2:0:0:
433,274,184488,6,0,B|369:146|529:146|433:-14,1,288,2|10,3:2|3:2,0:0:0:0:
374,71,185822,2,0,P|343:117|285:125,1,96,2|8,3:2|3:2,0:0:0:0:
261,113,186322,2,0,P|211:129|189:170,1,96,8|0,3:2|3:2,0:0:0:0:
161,203,186822,1,0,3:2:0:0:
92,271,187155,6,0,B|104:306|85:342|85:342|101:378,2,96,6|8|2,3:2|3:2|0:0,0:0:0:0:
40,191,188155,1,8,3:2:0:0:
92,111,188488,2,0,B|104:76|85:40|85:40|101:3,2,96,2|8|2,3:2|3:2|0:0,0:0:0:0:
144,191,189488,1,8,3:2:0:0:
92,271,189822,6,0,B|43:317|77:382|109:396|180:386|190:339|206:312|245:279,1,288,2|2,3:2|3:2,0:0:0:0:
335,296,191155,1,2,3:2:0:0:
335,296,191822,2,0,P|309:197|273:173,1,144,2|4,1:2|1:3,0:0:0:0:
231,176,192488,6,0,B|213:132|213:132|230:86,1,96,6|10,3:2|3:2,0:0:0:0:
271,61,192988,1,2,0:0:0:0:
271,61,193155,2,0,P|317:70|364:61,1,96,2|10,3:2|3:2,0:0:0:0:
399,28,193655,2,0,P|459:21|507:37,1,96,2|2,0:0|0:0,0:0:0:0:
504,77,194155,1,10,3:2:0:0:
426,133,194488,2,0,L|423:236,1,96,2|10,3:2|3:2,0:0:0:0:
335,268,195155,6,0,P|398:333|485:304,2,192,6|2|2,3:2|3:2|3:2,0:0:0:0:
326,176,196822,1,10,3:2:0:0:
326,176,196988,2,0,P|288:171|259:181,1,48,2|0,0:0|3:2,0:0:0:0:
217,246,197488,2,0,P|189:246|158:232,1,48,10|0,3:2|0:0,0:0:0:0:
124,220,197822,6,0,P|112:157|124:115,1,96,6|10,3:2|3:2,0:0:0:0:
166,109,198322,1,2,0:0:0:0:
166,109,198488,2,0,P|173:57|148:11,1,96,2|10,3:2|3:2,0:0:0:0:
108,13,198988,2,0,L|8:29,1,96,2|2,0:0|0:0,0:0:0:0:
0,75,199488,1,10,3:2:0:0:
71,139,199822,2,0,L|84:244,1,96,2|10,3:2|3:2,0:0:0:0:
151,301,200488,6,0,P|64:329|0:264,2,192,6|2|2,3:2|3:2|3:2,0:0:0:0:
179,211,202155,1,10,3:2:0:0:
179,211,202322,2,0,L|189:149,1,48,2|0,0:0|3:2,0:0:0:0:
260,102,202822,1,8,3:2:0:0:
328,163,203155,6,0,L|424:152,1,96,6|8,3:2|3:2,0:0:0:0:
462,67,203822,2,0,P|409:60|362:82,1,96,2|8,3:2|3:2,0:0:0:0:
328,163,204488,1,2,3:2:0:0:
388,242,204822,1,10,3:2:0:0:
388,242,204988,2,0,P|439:248|486:226,1,96,2|0,0:0|0:0,0:0:0:0:
505,193,205488,1,10,3:2:0:0:
424,153,205822,6,0,B|330:118|330:219|243:160,1,192,6|0,3:2|3:2,0:0:0:0:
176,229,206822,2,0,P|141:232|109:227,1,48,10|2,3:2|0:0,0:0:0:0:
85,211,207155,1,2,3:2:0:0:
68,121,207488,1,10,3:2:0:0:
68,121,207655,2,0,P|129:103|177:122,1,96,2|0,0:0|0:0,0:0:0:0:
296,67,208488,6,0,L|353:145,1,96,6|8,3:2|3:2,0:0:0:0:
446,135,209155,2,0,P|425:85|382:56,1,96,2|8,3:2|3:2,0:0:0:0:
296,67,209821,1,2,3:2:0:0:
257,158,210155,1,10,3:2:0:0:
257,158,210321,2,0,P|276:205|319:235,1,96,2|0,0:0|0:0,0:0:0:0:
358,235,210821,1,10,3:2:0:0:
390,325,211155,6,0,B|383:335|366:356|334:376|261:368|275:337|221:315,1,192,6|0,3:2|3:2,0:0:0:0:
142,261,212155,1,8,3:2:0:0:
53,297,212488,2,0,P|51:261|72:197,1,96,2|10,3:2|3:2,0:0:0:0:
153,159,213155,2,0,P|168:113|168:65,1,96,2|10,3:2|3:2,0:0:0:0:
256,192,213822,12,2,216488,3:2:0:0:
321,106,219155,6,0,L|292:-2,2,96,6|8|0,3:2|3:2|3:2,0:0:0:0:
394,168,220155,1,8,3:2:0:0:
467,106,220488,2,0,L|495:-2,2,96,2|8|2,3:2|3:2|3:2,0:0:0:0:
394,168,221488,1,8,3:2:0:0:
422,260,221822,2,0,P|450:323|314:300,1,288,2|8,3:2|3:2,0:0:0:0:
319,215,223155,2,0,P|271:151|207:215,1,192,2|2,3:2|3:2,0:0:0:0:
52,99,224488,6,0,B|49:67|49:67|28:37|28:37|20:-10,2,96,6|8|0,3:2|3:2|3:2,0:0:0:0:
107,168,225488,1,8,3:2:0:0:
162,99,225822,2,0,B|165:67|165:67|186:37|186:37|193:-10,2,96,2|8|2,3:2|3:2|3:2,0:0:0:0:
107,168,226822,1,8,3:2:0:0:
54,241,227155,2,0,P|90:340|160:235,1,288,2|8,3:2|3:2,0:0:0:0:
107,168,228488,2,0,P|179:155|255:241,1,192,2|0,3:2|3:2,0:0:0:0:
418,139,229822,6,0,P|482:128|528:142,2,96,6|8|0,3:2|3:2|3:2,0:0:0:0:
336,187,230822,1,8,3:2:0:0:
418,235,231155,2,0,P|482:246|528:232,2,96,2|8|2,3:2|3:2|3:2,0:0:0:0:
336,187,232155,1,8,3:2:0:0:
254,235,232489,2,0,P|191:264|214:128,1,288,2|8,3:2|3:2,0:0:0:0:
296,106,233822,2,0,P|240:32|148:38,1,192,2|0,3:2|3:2,0:0:0:0:
90,114,234822,1,8,3:2:0:0:
134,199,235155,5,0,3:0:0:0:
