osu file format v14

[General]
AudioFilename: audio.mp3
AudioLeadIn: 0
PreviewTime: 63822
Countdown: 0
SampleSet: Soft
StackLeniency: 0.3
Mode: 0
LetterboxInBreaks: 0
WidescreenStoryboard: 1

[Editor]
Bookmarks: 11155,21822,32488,43155,53822,64488,85822,96488,107155,117822,139155,149822,160488,171155,181822,192488,213822,235155
DistanceSpacing: 1.35
BeatDivisor: 4
GridSize: 32
TimelineZoom: 2.3

[Metadata]
Title:still alive
TitleUnicode:still alive
Artist:Yousei Teikoku
ArtistUnicode:妖精帝國
Creator:Net0
Version:Maot's Hard
Source:
Tags:japanese rock Gothic Metal Maot Xunni Moete PaRaDoGi IsomirDiAngelo Yui Takaha Tachibana Nanami Relu YUI Takaha Tachibana gothic lolita agitator Fairy Empire 伊月 ゆい 橘 尭葉 ななみ レル
BeatmapID:2582148
BeatmapSetID:1109705

[Difficulty]
HPDrainRate:5
CircleSize:3.8
OverallDifficulty:6
ApproachRate:8
SliderMultiplier:1.3
SliderTickRate:1

[Events]
//Background and Video events
0,0,"Bg Yousei.jpg",0,0
//Break Periods
2,86022,95572
2,139356,149072
2,216688,223738
//Storyboard Layer 0 (Background)
//Storyboard Layer 1 (Fail)
//Storyboard Layer 2 (Pass)
//Storyboard Layer 3 (Foreground)
//Storyboard Layer 4 (Overlay)
//Storyboard Sound Samples

[TimingPoints]
489,333.333333333333,4,2,21,50,1,0
489,-100,4,2,21,50,0,0
11155,-100,4,2,22,50,0,0
64488,-90.9090909090909,4,2,22,60,0,1
85822,-100,4,2,22,50,0,0
117822,-90.9090909090909,4,2,22,60,0,1
139155,-100,4,2,22,50,0,0
171155,-100,4,2,24,50,0,0
171322,-100,4,2,21,50,0,0
173822,-100,4,2,23,50,0,0
173988,-100,4,2,21,50,0,0
176488,-100,4,2,24,50,0,0
176655,-100,4,2,21,50,0,0
179155,-100,4,2,23,50,0,0
179321,-100,4,2,21,50,0,0
181822,-100,4,2,22,50,0,0
192488,-90.9090909090909,4,2,22,60,0,1
213822,-100,4,2,22,50,0,0
235155,-100,4,2,21,50,0,0

[Colours]
Combo1 : 113,144,175
Combo2 : 196,68,70

[HitObjects]
56,77,489,6,0,B|66:55|100:47|100:47|173:86,1,130,0|8,3:0|2:0,0:0:0:0:
326,152,1155,2,0,B|249:170|282:190|212:211,1,130,0|8,3:0|2:0,0:0:0:0:
69,313,1822,2,0,P|129:297|175:339,1,130,0|8,3:0|2:0,0:0:0:0:
259,380,2322,1,0,0:0:0:0:
259,380,2488,2,0,P|305:357|340:360,1,65,0|8,3:0|2:0,0:0:0:0:
292,271,2822,2,0,P|343:274|372:294,1,65,8|0,2:0|0:0,0:0:0:0:
431,321,3155,6,0,B|439:266|439:266|433:251|433:251|439:193,1,130,0|8,3:0|2:0,0:0:0:0:
292,96,3822,2,0,P|278:119|345:180,1,130,0|8,3:0|2:0,0:0:0:0:
280,11,4488,2,0,B|207:27|244:54|169:73,1,130,0|8,3:0|2:0,0:0:0:0:
87,95,4988,1,0,0:0:0:0:
87,95,5155,2,0,P|113:134|114:167,1,65,0|8,3:0|2:0,0:0:0:0:
195,188,5488,2,0,P|180:220|168:260,1,65,8|0,2:0|0:0,0:0:0:0:
155,335,5822,6,0,B|189:344|214:326|214:326|256:328|285:367,1,130,0|8,3:0|2:0,0:0:0:0:
383,217,6488,2,0,B|324:227|324:227|320:223|320:223|239:234,1,130,0|8,3:0|2:0,0:0:0:0:
122,116,7155,2,0,B|166:100|166:100|198:136|186:176,1,130,0|8,3:0|2:0,0:0:0:0:
118,230,7655,1,0,0:0:0:0:
118,230,7822,2,0,P|112:259|128:301,1,65,0|8,3:0|2:0,0:0:0:0:
125,380,8155,2,0,P|179:355|205:344,1,65,8|0,2:0|0:0,0:0:0:0:
268,376,8488,6,0,B|304:359|340:373|340:373|372:330|374:283|374:283|421:298|479:273,1,260,0|0,3:0|3:0,0:0:0:0:
256,192,9822,12,0,10822,1:0:0:0:
458,92,11155,6,0,B|416:67|416:67|319:91,2,130,6|8|0,3:2|3:2|3:2,0:0:0:0:
498,169,11988,1,0,0:0:0:0:
439,234,12155,2,0,P|463:278|475:314,1,65,8|0,3:2|0:0,0:0:0:0:
427,369,12488,2,0,B|355:349|393:330|313:309,1,130,2|8,3:2|3:2,0:0:0:0:
236,352,12988,1,0,0:0:0:0:
164,301,13155,2,0,P|126:308|91:313,1,65,2|0,3:2|3:2,0:0:0:0:
37,250,13488,2,0,L|-6:246,2,32.5,8|0|0,3:2|0:0|0:0,0:0:0:0:
83,172,13822,6,0,L|53:32,1,130,2|8,3:2|3:2,0:0:0:0:
133,3,14322,1,0,0:0:0:0:
197,62,14488,2,0,P|225:61|277:49,1,65,0|0,3:2|0:0,0:0:0:0:
284,139,14822,2,0,P|307:124|346:87,1,65,8|0,3:2|0:0,0:0:0:0:
414,60,15155,6,0,B|445:112|445:112|421:198,1,130,2|8,3:2|3:2,0:0:0:0:
377,251,15655,1,0,0:0:0:0:
377,251,15988,5,0,3:2:0:0:
293,223,16155,2,0,P|249:236|222:244,1,65,8|0,3:2|0:0,0:0:0:0:
162,296,16488,6,0,B|110:282|110:282|93:265|93:265|33:251,2,130,6|8|0,3:2|3:2|3:2,0:0:0:0:
245,324,17322,1,0,0:0:0:0:
230,241,17488,2,0,P|220:192|211:158,1,65,8|0,3:2|0:0,0:0:0:0:
281,117,17822,2,0,B|323:108|350:123|350:123|366:158|411:167,1,130,2|8,3:2|3:2,0:0:0:0:
464,111,18322,1,0,0:0:0:0:
511,184,18488,2,0,P|502:230|480:334,1,130,2|8,3:2|3:2,0:0:0:0:
409,355,18988,1,0,0:0:0:0:
340,299,19155,6,0,B|304:276|277:280|277:280|213:314,1,130,2|8,3:2|3:2,0:0:0:0:
148,357,19655,1,0,0:0:0:0:
66,324,19822,2,0,P|53:286|43:257,1,65,0|0,3:2|0:0,0:0:0:0:
112,206,20155,2,0,P|125:168|135:139,1,65,8|0,3:2|0:0,0:0:0:0:
198,85,20488,2,0,B|280:102|235:118|314:139,1,130,2|8,3:2|3:2,0:0:0:0:
395,106,20988,1,0,0:0:0:0:
390,193,21155,2,0,L|393:225,4,32.5,0|2|2|2|8,3:2|0:3|3:3|0:3|3:2,0:0:0:0:
311,227,21655,5,2,0:0:0:0:
311,227,21822,2,0,B|274:270|274:270|297:362,1,130,6|8,3:2|3:2,0:0:0:0:
212,378,22322,1,2,0:0:0:0:
154,312,22488,2,0,B|79:286|126:273|39:245,1,130,2|8,0:0|3:2,0:0:0:0:
0,171,22988,1,2,0:0:0:0:
69,116,23155,2,0,B|104:90|129:96|129:96|194:126,1,130,2|8,3:2|3:2,0:0:0:0:
255,178,23655,1,2,3:2:0:0:
335,142,23822,2,0,P|369:139|416:138,2,65,2|2|10,0:0|3:2|3:2,0:0:0:0:
340,54,24322,1,2,0:0:0:0:
266,8,24488,6,0,B|213:25|213:25|196:41|196:41|132:62,1,130,2|8,3:2|3:2,0:0:0:0:
60,47,24988,1,2,0:0:0:0:
15,123,25155,2,0,P|31:178|53:265,1,130,2|8,0:0|3:2,0:0:0:0:
29,334,25655,1,2,0:0:0:0:
111,363,25822,2,0,B|138:358|169:348|169:348|252:396,1,130,2|8,3:2|3:2,0:0:0:0:
293,322,26322,1,2,3:2:0:0:
230,260,26488,1,2,0:0:0:0:
230,260,26655,2,0,L|221:228,2,32.5,0|0|8,3:2|1:2|3:2,0:0:0:0:
310,224,26988,1,2,3:2:0:0:
269,145,27155,6,0,B|248:96|292:62|292:62|326:71,1,130,6|8,3:2|3:2,0:0:0:0:
414,71,27655,1,2,0:0:0:0:
465,142,27822,2,0,P|440:196|418:283,1,130,2|8,0:0|3:2,0:0:0:0:
458,343,28322,1,2,0:0:0:0:
373,365,28488,2,0,B|326:337|326:337|237:357,1,130,2|8,3:2|3:2,0:0:0:0:
167,375,28988,1,2,3:2:0:0:
167,375,29155,2,0,P|161:332|154:290,1,65,2|2,3:2|3:2,0:0:0:0:
229,260,29488,2,0,P|234:217|242:175,1,65,10|2,3:2|0:0,0:0:0:0:
195,118,29822,6,0,B|120:142|163:151|82:180,1,130,2|8,3:2|3:2,0:0:0:0:
18,121,30322,1,2,0:0:0:0:
42,37,30488,2,0,B|75:29|97:16|97:16|171:31,1,130,2|8,0:0|3:2,0:0:0:0:
256,48,30988,1,2,0:0:0:0:
256,48,31155,2,0,B|308:34|308:34|320:22|320:22|382:5,1,130,2|8,3:2|3:2,0:0:0:0:
455,46,31655,1,10,3:2:0:0:
387,102,31822,2,0,P|392:132|399:187,1,65,2|0,0:0|3:2,0:0:0:0:
324,216,32155,2,0,P|319:233|310:256,3,32.5,8|0|2|0,3:2|1:0|1:2|1:2,0:0:0:0:
292,284,32488,6,0,B|244:263|244:263|230:243|230:243|179:225,2,130,6|8|0,3:2|3:2|3:2,0:0:0:0:
363,336,33322,1,0,0:0:0:0:
433,283,33488,2,0,P|465:273|501:262,1,65,8|0,3:2|0:0,0:0:0:0:
445,190,33822,6,0,P|460:110|474:55,1,130,2|8,3:2|3:2,0:0:0:0:
400,10,34322,1,0,0:0:0:0:
315,31,34488,2,0,P|269:46|235:54,1,65,0|0,3:2|3:2,0:0:0:0:
169,20,34822,2,0,L|150:-14,2,32.5,8|0|0,3:2|0:0|0:0,0:0:0:0:
116,90,35155,6,0,B|84:124|84:124|121:218,1,130,2|8,3:2|3:2,0:0:0:0:
154,279,35655,1,0,0:0:0:0:
241,271,35822,2,0,P|287:248|310:235,1,65,0|0,3:2|0:0,0:0:0:0:
368,187,36155,2,0,P|338:172|310:157,1,65,8|0,3:2|0:0,0:0:0:0:
241,102,36488,2,0,B|312:73|273:51|346:29,1,130,2|8,3:2|3:2,0:0:0:0:
505,121,37155,1,0,3:2:0:0:
458,192,37322,1,0,3:2:0:0:
458,192,37488,2,0,L|474:259,1,65,8|0,3:2|0:0,0:0:0:0:
387,279,37822,6,0,B|435:300|435:300|449:320|449:320|497:341,2,130,6|8|0,3:2|3:2|3:2,0:0:0:0:
327,344,38655,1,0,0:0:0:0:
270,277,38822,2,0,P|228:291|197:297,1,65,8|0,3:2|0:0,0:0:0:0:
165,217,39155,2,0,P|94:198|32:183,1,130,2|8,3:2|3:2,0:0:0:0:
0,105,39655,1,0,0:0:0:0:
69,51,39822,2,0,B|118:27|118:27|205:59,1,130,0|8,3:2|3:2,0:0:0:0:
265,96,40322,1,0,0:0:0:0:
341,138,40488,6,0,B|324:267,1,130,2|8,3:2|3:2,0:0:0:0:
266,333,40988,1,0,0:0:0:0:
198,276,41155,2,0,P|152:261|108:260,1,65,0|0,3:2|0:0,0:0:0:0:
139,171,41488,2,0,P|91:181|53:201,1,65,8|0,3:2|0:0,0:0:0:0:
38,107,41822,2,0,P|105:84|190:92,1,130,2|8,3:2|3:2,0:0:0:0:
244,118,42322,1,0,0:0:0:0:
328,84,42488,1,0,1:2:0:0:
328,84,42572,1,0,1:2:0:0:
328,84,42656,2,0,L|333:52,2,32.5,0|0|8,1:2|1:2|1:2,1:2:0:0:
405,136,42988,1,2,0:0:0:0:
485,100,43155,6,0,B|498:144|498:144|453:241,1,130,6|8,3:2|3:2,0:0:0:0:
416,295,43655,1,2,0:0:0:0:
461,368,43822,2,0,P|400:347|338:328,1,130,2|8,0:0|3:2,0:0:0:0:
256,360,44322,1,2,0:0:0:0:
194,297,44488,2,0,L|222:163,1,130,2|8,3:2|3:2,0:0:0:0:
163,102,44988,1,2,3:2:0:0:
85,142,45155,2,0,P|35:126|12:121,2,65,2|2|10,0:0|3:2|3:2,0:0:0:0:
123,220,45655,1,2,0:0:0:0:
210,212,45822,6,0,B|263:201|263:201|278:192|278:192|347:179,1,130,2|8,3:2|3:2,0:0:0:0:
413,220,46322,1,2,0:0:0:0:
487,173,46488,2,0,B|501:137|496:114|496:114|446:57,1,130,2|8,0:0|3:2,0:0:0:0:
380,8,46988,1,2,0:0:0:0:
306,56,47155,2,0,B|255:47|255:47|232:55|232:55|165:42,1,130,2|8,3:2|3:2,0:0:0:0:
91,37,47655,1,2,3:2:0:0:
35,105,47822,2,0,P|48:148|54:175,1,65,2|0,0:0|3:2,0:0:0:0:
117,226,48155,2,0,L|91:270,2,32.5,8|0|2,3:2|0:0|3:2,0:0:0:0:
187,172,48488,6,0,L|321:154,1,130,6|8,3:2|3:2,0:0:0:0:
395,192,48988,1,2,0:0:0:0:
463,136,49155,2,0,B|496:178|496:178|468:256,1,130,2|8,0:0|3:2,0:0:0:0:
488,336,49655,1,2,0:0:0:0:
413,382,49822,2,0,P|363:365|265:340,1,130,2|8,3:2|3:2,0:0:0:0:
207,379,50322,1,2,3:2:0:0:
149,312,50488,2,0,L|171:241,2,65,2|2|10,3:2|3:2|3:2,0:0:0:0:
76,369,50988,1,2,0:0:0:0:
9,311,51155,6,0,B|0:264|0:264|7:234|7:234|-3:180,1,130,2|8,3:2|3:2,0:0:0:0:
42,108,51655,1,2,0:0:0:0:
123,141,51822,2,0,B|208:120|166:102|240:88,1,130,2|8,0:0|3:2,0:0:0:0:
315,133,52322,1,2,0:0:0:0:
276,211,52488,2,0,L|305:358,1,130,2|8,3:2|3:2,0:0:0:0:
380,376,52988,1,10,3:2:0:0:
451,324,53155,2,0,P|454:273|457:257,1,65,2|0,0:0|3:2,0:0:0:0:
404,195,53488,1,8,3:2:0:0:
404,195,53655,1,0,3:2:0:0:
462,129,53822,6,0,B|418:103|418:103|321:117,2,130,6|8|2,3:2|3:2|0:0,0:0:0:0:
504,51,54655,1,0,3:2:0:0:
425,10,54822,2,0,L|359:22,1,65,8|0,3:2|0:0,0:0:0:0:
277,49,55155,6,0,L|134:24,1,130,2|8,3:2|3:2,0:0:0:0:
73,72,55655,1,0,3:2:0:0:
73,72,55988,1,0,3:2:0:0:
140,133,56155,2,0,P|149:176|148:203,1,65,8|0,3:2|0:0,0:0:0:0:
74,243,56488,6,0,B|144:227|207:269|166:307|239:350|305:335,1,260,2|0,3:2|0:0,0:0:0:0:
370,281,57322,1,0,3:2:0:0:
325,205,57488,2,0,P|333:156|343:125,1,65,10|0,3:2|0:0,0:0:0:0:
397,76,57822,2,0,B|349:60|349:60|333:40|333:40|281:25,1,130,2|8,3:2|3:2,0:0:0:0:
216,84,58322,1,8,3:2:0:0:
216,84,58655,1,0,3:2:0:0:
136,47,58822,2,0,P|90:34|64:25,1,65,8|0,3:2|3:2,0:0:0:0:
24,101,59155,6,0,B|1:173|1:173|19:182|45:204,2,130,6|8|2,3:2|3:2|0:0,0:0:0:0:
103,138,59988,1,0,3:2:0:0:
192,121,60155,2,0,P|231:102|263:88,1,65,8|0,3:2|0:0,0:0:0:0:
332,133,60488,2,0,L|302:283,1,130,2|8,3:2|3:2,0:0:0:0:
370,325,60988,1,0,3:2:0:0:
370,325,61322,1,0,3:2:0:0:
283,350,61488,2,0,P|245:327|225:319,1,65,8|0,3:2|0:0,0:0:0:0:
140,341,61822,6,0,B|112:297|74:272|74:272|144:104,1,260,2|0,3:2|0:0,0:0:0:0:
92,44,62655,1,0,3:2:0:0:
173,12,62822,2,0,P|217:23|254:35,1,65,10|0,3:2|0:0,0:0:0:0:
296,92,63155,2,0,B|375:70|336:33|426:11,1,130,2|8,3:2|3:2,0:0:0:0:
478,58,63655,1,8,3:2:0:0:
419,123,63822,6,0,L|430:172,3,32.5,2|0|10|10,0:0|0:0|3:3|3:3,0:0:0:0:
458,183,64155,2,0,L|447:232,3,32.5,10|4|4|4,3:3|3:3|3:3|0:3,0:0:0:0:
422,253,64488,6,0,P|382:233|346:230,1,71.5000021820069,6|2,3:2|0:0,0:0:0:0:
284,295,64822,1,10,3:2:0:0:
284,295,64988,1,2,0:0:0:0:
226,217,65155,2,0,L|239:147,1,71.5000021820069,2|2,3:2|0:0,0:0:0:0:
309,80,65488,1,10,3:2:0:0:
225,30,65655,6,0,B|171:13|171:13|89:56,1,143.000004364014,2|2,0:0|0:0,0:0:0:0:
33,128,66155,1,10,3:2:0:0:
33,128,66322,1,2,0:0:0:0:
112,181,66488,2,0,L|125:251,1,71.5000021820069,2|2,3:2|0:0,0:0:0:0:
112,347,66822,1,10,3:2:0:0:
112,347,67155,6,0,B|168:329|168:329|182:316|182:316|244:296,1,143.000004364014,6|8,3:2|3:2,0:0:0:0:
436,273,67822,2,0,B|380:255|380:255|366:242|366:242|303:222,1,143.000004364014,2|8,3:2|3:2,0:0:0:0:
245,38,68488,6,0,L|219:183,1,143.000004364014,2|10,3:2|3:2,0:0:0:0:
160,255,68988,2,0,P|118:242|120:150,1,143.000004364014,2|0,0:0|0:0,0:0:0:0:
118,62,69488,1,8,3:2:0:0:
118,62,69655,1,2,0:0:0:0:
214,54,69822,6,0,L|300:28,1,71.5000021820069,6|2,3:2|0:0,0:0:0:0:
380,16,70155,1,10,3:2:0:0:
380,16,70322,1,2,0:0:0:0:
420,103,70488,2,0,P|410:134|397:175,1,71.5000021820069,2|2,3:2|0:0,0:0:0:0:
451,252,70822,1,10,3:2:0:0:
356,270,70988,6,0,B|281:245|314:217|238:193,1,143.000004364014,2|2,0:0|0:0,0:0:0:0:
166,257,71488,1,10,3:2:0:0:
166,257,71655,1,2,0:0:0:0:
102,183,71822,2,0,P|111:147|114:101,1,71.5000021820069,2|2,3:2|0:0,0:0:0:0:
78,23,72155,1,10,3:2:0:0:
78,23,72488,6,0,B|104:-4|153:5|153:5|167:36|208:47,1,143.000004364014,6|8,3:2|3:2,0:0:0:0:
392,44,73155,2,0,P|327:23|286:75,1,143.000004364014,2|8,3:2|3:2,0:0:0:0:
258,267,73822,6,0,L|211:115,1,143.000004364014,2|10,3:2|3:2,0:0:0:0:
142,191,74322,2,0,B|62:164|62:164|41:174|16:201,1,143.000004364014,2|0,0:0|0:0,0:0:0:0:
0,300,74822,1,8,3:2:0:0:
0,300,74988,1,0,0:0:0:0:
94,319,75155,6,0,B|179:302|179:302|202:270|202:270|308:250,1,214.500006546021,6|0,3:2|0:0,0:0:0:0:
378,289,75822,2,0,B|364:245|366:206|366:206|324:153|324:153|326:124|304:74,1,214.500006546021,2|0,3:2|0:0,0:0:0:0:
360,9,76488,2,0,P|274:2|218:48,1,143.000004364014,2|10,3:2|3:2,0:0:0:0:
135,55,76988,2,0,B|164:77|171:106|171:106|149:193,1,143.000004364014,2|0,0:0|0:0,0:0:0:0:
243,214,77488,2,0,P|262:268|260:302,1,71.5000021820069,10|0,3:2|0:0,0:0:0:0:
358,294,77822,6,0,B|289:255|210:319|264:345|182:410|111:376,1,286.000008728028,6|0,3:2|3:2,0:0:0:0:
31,205,78822,1,10,3:2:0:0:
31,205,78988,1,2,0:0:0:0:
83,123,79155,6,0,P|137:135|240:147,1,143.000004364014,2|10,3:2|3:2,0:0:0:0:
282,69,79655,2,0,P|352:60|422:45,1,143.000004364014,2|0,0:0|0:0,0:0:0:0:
500,103,80155,1,8,3:2:0:0:
500,103,80322,1,0,0:0:0:0:
457,189,80488,6,0,B|432:142|382:139|382:139|345:193|266:224,1,214.500006546021,6|0,3:2|0:0,0:0:0:0:
217,277,81155,2,0,B|140:251|140:251|103:208|103:208|30:188,1,214.500006546021,2|0,3:2|0:0,0:0:0:0:
72,101,81822,2,0,P|142:87|211:68,1,143.000004364014,2|10,3:2|3:2,0:0:0:0:
282,3,82322,1,2,0:0:0:0:
282,3,82488,2,0,P|309:52|310:89,1,71.5000021820069,0|0,3:2|0:0,0:0:0:0:
391,119,82821,2,0,P|372:173|374:207,1,71.5000021820069,10|0,3:2|0:0,0:0:0:0:
442,253,83155,6,0,B|371:233|371:233|303:271|354:302|291:350|291:350|200:323,1,286.000008728028,6|0,3:2|3:2,0:0:0:0:
64,228,84155,1,8,3:2:0:0:
253,191,84488,6,0,L|169:169,1,71.5000021820069,6|0,3:2|0:0,0:0:0:0:
127,93,84822,2,0,L|57:111,1,71.5000021820069,10|0,3:2|0:0,0:0:0:0:
183,11,85155,6,0,P|244:29|278:36,1,71.5000021820069,6|0,3:2|0:0,0:0:0:0:
320,99,85488,2,0,P|354:90|388:79,1,71.5000021820069,10|0,3:2|0:0,0:0:0:0:
472,24,85822,5,6,3:2:0:0:
138,322,96322,5,2,0:0:0:0:
138,322,96489,2,0,B|149:299|175:279|175:279|152:187,1,130,6|8,3:2|3:2,0:0:0:0:
102,139,96989,1,2,0:0:0:0:
164,77,97155,2,0,P|224:100|288:111,1,130,2|8,0:0|3:2,0:0:0:0:
370,80,97655,1,2,0:0:0:0:
441,131,97822,2,0,B|445:165|427:196|427:196|454:261,1,130,2|8,3:2|3:2,0:0:0:0:
452,345,98322,1,2,3:2:0:0:
452,345,98488,2,0,P|482:357|512:369,2,65,2|2|10,0:0|3:2|3:2,0:0:0:0:
383,297,98989,1,2,0:0:0:0:
383,297,99155,6,0,B|336:279|294:292|294:292|291:319|266:347,1,130,2|8,3:2|3:2,0:0:0:0:
200,365,99655,1,2,0:0:0:0:
190,277,99822,2,0,P|171:214|155:151,1,130,2|8,0:0|3:2,0:0:0:0:
213,85,100322,1,2,0:0:0:0:
146,28,100488,2,0,P|83:42|43:102,1,130,2|8,3:2|3:2,0:0:0:0:
25,178,100989,1,2,3:2:0:0:
112,155,101155,1,2,0:0:0:0:
112,155,101322,2,0,L|144:146,2,32.5,0|0|8,3:2|0:0|3:2,0:0:0:0:
91,243,101655,1,2,3:2:0:0:
91,243,101822,6,0,B|161:257|121:286|198:309,1,130,6|8,3:2|3:2,0:0:0:0:
278,273,102322,1,2,0:0:0:0:
363,294,102489,2,0,P|380:231|406:172,1,130,2|8,0:0|3:2,0:0:0:0:
464,105,102989,1,2,0:0:0:0:
398,46,103155,2,0,B|364:28|324:29|324:29|270:56,1,130,2|8,3:2|3:2,0:0:0:0:
205,104,103655,1,2,3:2:0:0:
205,104,103822,2,0,P|211:147|218:189,1,65,2|2,3:2|3:2,0:0:0:0:
284,221,104155,2,0,P|279:264|271:306,1,65,10|2,3:2|0:0,0:0:0:0:
332,352,104489,6,0,B|407:328|364:319|445:290,1,130,2|8,3:2|3:2,0:0:0:0:
494,217,104989,1,2,0:0:0:0:
456,138,105155,2,0,B|406:123|406:123|392:108|392:108|319:87,1,130,2|8,0:0|3:2,0:0:0:0:
267,145,105655,1,2,0:0:0:0:
189,102,105822,2,0,B|137:116|137:116|125:128|125:128|63:145,1,130,2|8,3:2|3:2,0:0:0:0:
6,206,106322,1,0,0:0:0:0:
69,267,106489,2,0,P|64:299|59:331,1,65,2|0,0:0|3:2,0:0:0:0:
143,355,106822,2,0,P|158:349|173:344,3,32.5,0|0|0|0,1:2|1:2|1:2|1:2,0:0:0:0:
215,358,107155,6,0,B|248:347|263:325|263:325|307:318|345:350,2,130,6|8|2,3:2|3:2|0:0,0:0:0:0:
166,284,107988,1,0,3:2:0:0:
231,225,108155,2,0,L|219:159,1,65,8|0,3:2|0:0,0:0:0:0:
268,87,108488,6,0,L|396:109,1,130,2|8,3:2|3:2,0:0:0:0:
472,65,108988,1,0,3:2:0:0:
486,239,109321,1,0,3:2:0:0:
486,239,109488,2,0,P|477:281|470:311,1,65,8|0,3:2|0:0,0:0:0:0:
408,362,109821,6,0,B|377:331|373:277|373:277|275:234|275:234|198:258,1,260,2|0,3:2|0:0,0:0:0:0:
140,292,110655,1,0,3:2:0:0:
73,235,110821,2,0,P|81:203|85:171,1,65,10|0,3:2|0:0,0:0:0:0:
150,111,111155,2,0,B|222:95|196:75|268:60,1,130,2|8,3:2|3:2,0:0:0:0:
346,101,111655,1,8,3:2:0:0:
346,101,111988,1,0,3:2:0:0:
283,163,112155,2,0,P|291:194|301:225,1,65,8|0,3:2|3:2,0:0:0:0:
377,269,112488,6,0,B|424:286|424:286|442:309|442:309|490:324,2,130,6|8|2,3:2|3:2|0:0,0:0:0:0:
298,308,113321,1,0,3:2:0:0:
298,308,113488,2,0,P|268:322|239:335,1,65,8|0,3:2|0:0,0:0:0:0:
183,267,113821,2,0,L|153:117,1,130,2|8,3:2|3:2,0:0:0:0:
214,72,114321,1,0,3:2:0:0:
333,208,114655,1,0,3:2:0:0:
333,208,114821,2,0,P|362:194|390:177,1,65,8|0,3:2|0:0,0:0:0:0:
464,129,115155,6,0,B|407:129|398:198|398:198|433:245|433:245|451:305|405:326,1,260,2|0,3:2|0:0,0:0:0:0:
335,377,115988,1,0,3:2:0:0:
335,377,116155,2,0,P|303:369|272:360,1,65,10|0,3:2|0:0,0:0:0:0:
232,282,116488,2,0,P|165:302|91:321,1,130,2|8,3:2|3:2,0:0:0:0:
61,247,116988,1,8,3:2:0:0:
61,247,117155,6,0,L|12:236,3,32.5,2|0|10|10,0:0|0:0|3:3|3:3,0:0:0:0:
11,200,117488,2,0,L|22:151,3,32.5,10|4|4|4,3:3|3:3|3:3|0:3,0:0:0:0:
58,141,117822,6,0,P|98:121|134:118,1,71.5000021820069,6|2,3:2|0:0,0:0:0:0:
205,180,118156,1,10,3:2:0:0:
205,180,118322,1,2,0:0:0:0:
289,132,118489,2,0,L|276:62,1,71.5000021820069,2|2,3:2|0:0,0:0:0:0:
353,4,118822,1,10,3:2:0:0:
441,42,118989,6,0,B|437:70|424:96|424:96|464:172,1,143.000004364014,2|2,0:0|0:0,0:0:0:0:
492,269,119489,1,10,3:2:0:0:
492,269,119656,1,2,0:0:0:0:
400,299,119822,2,0,L|330:286,1,71.5000021820069,2|2,3:2|0:0,0:0:0:0:
260,217,120156,1,10,3:2:0:0:
260,217,120488,6,0,B|178:232|219:252|129:272,1,143.000004364014,6|8,3:2|3:2,0:0:0:0:
0,311,121155,2,0,B|89:331|48:351|130:366,1,143.000004364014,2|8,3:2|3:2,0:0:0:0:
38,195,121822,2,0,P|59:106|72:44,1,143.000004364014,2|8,3:2|3:2,0:0:0:0:
160,88,122322,2,0,B|247:64|247:64|263:85|293:97,1,143.000004364014,2|0,0:0|0:0,0:0:0:0:
381,137,122822,1,10,3:2:0:0:
381,137,122989,1,2,0:0:0:0:
444,63,123156,6,0,L|530:37,1,71.5000021820069,6|2,3:2|0:0,0:0:0:0:
506,142,123489,1,10,3:2:0:0:
506,142,123656,1,2,0:0:0:0:
449,219,123822,2,0,P|459:250|472:291,1,71.5000021820069,2|2,3:2|0:0,0:0:0:0:
390,342,124156,1,10,3:2:0:0:
304,297,124322,6,0,B|247:305|247:305|220:322|220:322|167:331,1,143.000004364014,2|2,0:0|0:0,0:0:0:0:
104,265,124822,1,10,3:2:0:0:
104,265,124989,1,2,0:0:0:0:
166,191,125156,2,0,P|171:155|176:120,1,71.5000021820069,2|2,3:2|0:0,0:0:0:0:
135,32,125489,1,10,3:2:0:0:
135,32,125822,6,0,B|60:14|60:14|46:45|5:56,1,143.000004364014,6|8,3:2|3:2,0:0:0:0:
192,119,126489,2,0,P|248:97|361:72,1,143.000004364014,2|8,3:2|3:2,0:0:0:0:
199,221,127156,2,0,L|241:357,1,143.000004364014,2|10,3:2|3:2,0:0:0:0:
310,289,127656,2,0,B|335:262|356:252|356:252|436:279,1,143.000004364014,2|0,0:0|0:0,0:0:0:0:
505,212,128156,1,8,3:2:0:0:
505,212,128322,1,0,0:0:0:0:
422,161,128489,6,0,B|366:159|327:111|358:102|315:46|250:55,1,214.500006546021,6|0,3:2|0:0,0:0:0:0:
163,97,129156,2,0,B|142:171|142:171|111:201|111:201|88:292,1,214.500006546021,2|0,3:2|0:0,0:0:0:0:
159,357,129822,2,0,P|220:322|289:334,1,143.000004364014,2|10,3:2|3:2,0:0:0:0:
381,364,130322,2,0,B|400:287|400:287|355:220,1,143.000004364014,2|0,0:0|0:0,0:0:0:0:
282,182,130822,2,0,P|296:149|301:114,1,71.5000021820069,10|0,3:2|0:0,0:0:0:0:
394,85,131156,6,0,B|283:70|283:70|228:30|228:30|110:17,1,286.000008728028,6|0,3:2|3:2,0:0:0:0:
183,207,132156,1,10,3:2:0:0:
183,207,132322,1,2,0:0:0:0:
88,235,132489,6,0,B|54:279|54:279|79:389,1,143.000004364014,2|10,3:2|3:2,0:0:0:0:
165,337,132988,2,0,L|315:358,1,143.000004364014,2|0,0:0|0:0,0:0:0:0:
407,368,133489,1,8,3:2:0:0:
407,368,133656,1,0,0:0:0:0:
426,273,133822,6,0,L|399:43,1,214.500006546021,6|0,3:2|0:0,0:0:0:0:
319,112,134489,2,0,B|242:86|242:86|205:43|205:43|132:23,1,214.500006546021,2|0,3:2|0:0,0:0:0:0:
53,80,135156,2,0,P|75:148|95:219,1,143.000004364014,2|10,3:2|3:2,0:0:0:0:
140,307,135656,1,2,0:0:0:0:
140,307,135822,2,0,P|169:286|203:277,1,71.5000021820069,0|0,3:2|0:0,0:0:0:0:
236,187,136155,2,0,P|270:195|299:216,1,71.5000021820069,10|0,3:2|0:0,0:0:0:0:
392,243,136489,6,0,B|362:58|362:58|249:71,1,286.000008728028,6|0,3:2|3:2,0:0:0:0:
103,176,137489,1,8,3:2:0:0:
103,176,137822,6,0,P|142:200|187:198,1,71.5000021820069,6|0,3:2|0:0,0:0:0:0:
219,282,138155,2,0,P|247:261|282:255,1,71.5000021820069,10|0,3:2|0:0,0:0:0:0:
375,282,138488,6,0,L|365:198,1,71.5000021820069,6|0,3:2|0:0,0:0:0:0:
288,153,138822,2,0,L|298:69,1,71.5000021820069,10|0,3:2|0:0,0:0:0:0:
371,35,139156,5,6,3:2:0:0:
62,47,149822,6,0,P|126:59|129:127,1,130,6|0,3:2|3:2,0:0:0:0:
77,181,150322,1,0,0:0:0:0:
125,253,150488,2,0,P|177:261|206:273,1,65,0|0,3:2|0:0,0:0:0:0:
258,211,150822,1,0,3:2:0:0:
377,339,151155,6,0,P|406:257|428:196,1,130,2|0,3:2|3:2,0:0:0:0:
485,156,151655,1,0,0:0:0:0:
432,85,151822,2,0,P|384:77|357:71,1,65,0|0,3:2|0:0,0:0:0:0:
296,124,152155,1,0,3:2:0:0:
296,124,152488,6,0,B|270:97|221:109|221:109|198:142|162:144,1,130,2|0,3:2|3:2,0:0:0:0:
118,198,152988,1,0,0:0:0:0:
31,185,153155,2,0,P|21:154|5:125,1,65,0|0,3:2|0:0,0:0:0:0:
21,42,153488,1,0,3:2:0:0:
21,42,153655,1,0,0:0:0:0:
101,10,153822,6,0,B|123:24|136:39|136:39|232:7,1,130,2|0,3:2|3:2,0:0:0:0:
301,31,154322,1,0,0:0:0:0:
356,98,154488,2,0,P|385:83|416:73,1,65,0|0,3:2|0:0,0:0:0:0:
482,132,154822,1,0,3:2:0:0:
427,298,155155,6,0,L|401:144,1,130,2|0,3:2|3:2,0:0:0:0:
322,186,155655,1,0,0:0:0:0:
322,186,155822,2,0,P|267:209|244:223,1,65,0|0,3:2|0:0,0:0:0:0:
180,179,156155,2,0,P|187:120|186:93,1,65,0|0,3:2|0:0,0:0:0:0:
130,47,156488,6,0,B|60:75|95:98|25:119,1,130,2|0,3:2|3:2,0:0:0:0:
14,209,156988,1,0,0:0:0:0:
14,209,157155,2,0,P|27:238|38:268,1,65,0|0,3:2|0:0,0:0:0:0:
121,235,157488,1,0,3:2:0:0:
121,235,157655,1,0,0:0:0:0:
206,216,157822,6,0,L|189:297,1,65,2|0,3:2|0:0,0:0:0:0:
278,256,158155,2,0,L|261:337,1,65,2|0,3:2|0:0,0:0:0:0:
351,307,158488,6,0,L|365:371,1,65,2|0,3:2|0:0,0:0:0:0:
423,267,158821,2,0,L|437:331,1,65,2|0,3:2|0:0,0:0:0:0:
353,214,159155,6,0,P|336:186|327:154,1,65,2|0,3:2|0:0,0:0:0:0:
415,149,159488,2,0,P|414:116|422:85,1,65,2|0,3:2|0:0,0:0:0:0:
496,35,159822,1,2,3:2:0:0:
496,35,159988,1,2,0:0:0:0:
414,0,160155,1,2,3:2:0:0:
274,106,160488,6,0,L|120:77,1,130,6|8,3:2|3:2,0:0:0:0:
79,139,160988,1,0,0:0:0:0:
137,204,161155,2,0,L|129:334,1,130,0|8,3:2|3:2,0:0:0:0:
43,313,161655,1,0,0:0:0:0:
44,225,161822,1,2,3:2:0:0:
214,264,162155,1,8,3:2:0:0:
203,90,162488,6,0,P|234:82|265:74,1,65,0|0,3:2|3:2,0:0:0:0:
349,132,162822,1,8,3:2:0:0:
349,132,162988,1,0,0:0:0:0:
420,80,163155,6,0,B|445:124|445:124|411:204,1,130,6|8,3:2|3:2,0:0:0:0:
412,284,163655,1,0,0:0:0:0:
333,244,163822,2,0,P|283:210|208:214,1,130,0|8,3:2|3:2,0:0:0:0:
143,261,164322,1,0,0:0:0:0:
102,183,164488,6,0,P|116:154|128:123,1,65,2|0,3:2|0:0,0:0:0:0:
40,127,164822,2,0,P|54:98|66:67,1,65,8|0,3:2|0:0,0:0:0:0:
147,30,165155,1,0,3:2:0:0:
147,30,165322,1,0,3:2:0:0:
215,84,165488,2,0,L|301:97,1,65,8|0,3:2|1:0,0:0:0:0:
159,154,165822,6,0,L|193:304,1,130,6|8,3:2|3:2,0:0:0:0:
257,334,166322,1,0,0:0:0:0:
337,300,166488,2,0,P|382:304|414:316,1,65,0|0,3:2|0:0,0:0:0:0:
435,228,166822,2,0,P|466:219|498:218,1,65,8|0,3:2|0:0,0:0:0:0:
451,143,167155,6,0,B|444:111|418:104|418:104|346:129,1,130,6|8,3:2|3:2,0:0:0:0:
267,168,167655,1,0,0:0:0:0:
189,138,167822,1,4,3:2:0:0:
189,138,167988,1,0,3:2:0:0:
104,162,168155,2,0,L|30:136,1,65,8|0,3:2|0:0,0:0:0:0:
36,228,168488,6,0,P|42:266|43:308,1,65,6|0,3:2|0:0,0:0:0:0:
131,301,168822,2,0,P|117:336|97:373,1,65,12|0,3:2|0:0,0:0:0:0:
227,299,169155,6,0,P|212:269|201:239,1,65,2|0,3:2|0:0,0:0:0:0:
288,230,169489,2,0,P|289:197|295:165,1,65,14|0,3:2|0:0,0:0:0:0:
246,92,169822,6,0,P|252:67|344:34,2,130,6|10|6,3:2|3:2|3:2,0:0:0:0:
169,132,170655,1,2,0:0:0:0:
169,132,170822,2,0,P|115:105|83:95,1,65,12|2,3:2|0:0,0:0:0:0:
30,140,171155,1,6,3:2:0:0:
336,310,171822,6,0,P|298:253|227:252,1,130,2|8,0:0|3:2,0:0:0:0:
66,227,172488,2,0,P|134:222|170:161,1,130,2|8,3:2|3:2,0:0:0:0:
336,123,173155,2,0,P|305:184|311:208,1,65,2|0,0:0|3:2,0:0:0:0:
393,188,173488,1,8,3:2:0:0:
279,53,173822,5,6,3:2:0:0:
279,53,176488,5,6,3:2:0:0:
507,319,177155,6,0,P|453:364|377:337,1,130,2|8,0:0|3:2,0:0:0:0:
231,298,177822,2,0,P|285:253|361:280,1,130,2|8,3:2|3:2,0:0:0:0:
251,110,178488,2,0,P|282:134|299:166,1,65,2|0,0:0|3:2,0:0:0:0:
214,192,178822,1,8,3:2:0:0:
387,169,179155,5,6,3:2:0:0:
39,147,181822,6,0,B|68:141|81:121|81:121|127:118|149:152,1,130,6|8,3:2|3:2,0:0:0:0:
225,311,182488,2,0,P|189:266|194:237,1,65,2|0,0:0|3:2,0:0:0:0:
242,187,182822,1,8,3:2:0:0:
409,116,183155,6,0,L|273:101,1,130,2|8,3:2|3:2,0:0:0:0:
225,28,183655,1,0,3:2:0:0:
225,28,183988,5,0,3:2:0:0:
148,72,184155,2,0,P|173:117|175:149,1,65,8|0,3:2|0:0,0:0:0:0:
102,179,184488,6,0,B|167:152|224:225|183:233|237:310|320:287,1,260,2|0,3:2|0:0,0:0:0:0:
393,253,185322,1,0,3:2:0:0:
370,168,185488,2,0,L|400:92,1,65,10|0,3:2|0:0,0:0:0:0:
341,36,185822,6,0,P|274:16|225:59,1,130,2|8,3:2|3:2,0:0:0:0:
199,131,186322,1,8,3:2:0:0:
199,131,186655,1,0,3:2:0:0:
111,137,186822,2,0,L|36:104,1,65,8|0,3:2|3:2,0:0:0:0:
44,198,187155,6,0,B|25:223|4:241|4:241|55:324,1,130,6|8,3:2|3:2,0:0:0:0:
213,335,187822,2,0,P|172:302|134:300,1,65,2|0,0:0|3:2,0:0:0:0:
103,366,188155,1,8,3:2:0:0:
213,230,188488,2,0,P|277:215|339:196,1,130,2|8,3:2|3:2,0:0:0:0:
391,268,188988,1,0,3:2:0:0:
391,268,189322,1,0,3:2:0:0:
323,323,189488,2,0,P|292:313|260:305,1,65,8|0,3:2|0:0,0:0:0:0:
184,351,189822,6,0,B|231:291|244:201|169:174|126:192|105:245|135:283,1,260,2|0,3:2|0:0,0:0:0:0:
36,263,190655,1,0,3:2:0:0:
7,179,190822,2,0,P|51:167|86:153,1,65,10|0,3:2|0:0,0:0:0:0:
97,77,191155,5,2,3:2:0:0:
97,77,191822,6,0,L|146:62,3,32.5,2|10|10|10,1:2|1:3|1:3|1:3,0:0:0:0:
169,82,192155,2,0,L|200:91,3,32.5,10|4|4|4,1:3|1:3|1:3|1:3,0:0:0:0:
242,113,192488,6,0,P|277:106|308:89,1,71.5000021820069,6|2,3:2|0:0,0:0:0:0:
400,53,192822,1,10,3:2:0:0:
400,53,192988,1,2,0:0:0:0:
473,115,193155,2,0,L|451:186,1,71.5000021820069,2|2,3:2|0:0,0:0:0:0:
478,276,193488,1,10,3:2:0:0:
387,308,193655,6,0,B|330:299|330:299|297:317|297:317|246:310,1,143.000004364014,2|2,0:0|0:0,0:0:0:0:
170,363,194155,1,10,3:2:0:0:
170,363,194322,1,2,0:0:0:0:
91,308,194488,2,0,L|80:224,1,71.5000021820069,2|2,3:2|0:0,0:0:0:0:
161,181,194822,1,10,3:2:0:0:
22,47,195154,6,0,P|101:41|138:98,1,143.000004364014,6|8,3:2|3:2,0:0:0:0:
204,267,195821,2,0,P|270:233|340:211,1,143.000004364014,2|8,3:2|3:2,0:0:0:0:
435,377,196488,2,0,P|369:343|299:321,1,143.000004364014,2|10,3:2|3:2,0:0:0:0:
215,362,196988,2,0,B|135:336|169:305|70:290,1,143.000004364014,2|0,0:0|0:0,0:0:0:0:
32,224,197488,1,8,3:2:0:0:
32,224,197655,1,2,0:0:0:0:
103,158,197822,6,0,P|118:114|115:81,1,71.5000021820069,6|2,3:2|0:0,0:0:0:0:
58,19,198155,1,10,3:2:0:0:
58,19,198322,1,2,0:0:0:0:
153,7,198488,2,0,L|226:30,1,71.5000021820069,2|2,3:2|0:0,0:0:0:0:
312,60,198822,1,10,3:2:0:0:
294,154,198988,6,0,B|347:145|347:145|374:128|374:128|431:120,1,143.000004364014,2|2,0:0|0:0,0:0:0:0:
486,205,199488,1,10,3:2:0:0:
486,205,199655,1,2,0:0:0:0:
414,270,199822,2,0,P|376:259|336:248,1,71.5000021820069,2|2,3:2|0:0,0:0:0:0:
248,240,200155,1,10,3:2:0:0:
248,240,200488,6,0,B|225:295|225:295|271:363,1,143.000004364014,6|8,3:2|3:2,0:0:0:0:
314,175,201155,2,0,P|247:149|171:183,1,143.000004364014,2|8,3:2|3:2,0:0:0:0:
52,315,201822,2,0,P|78:232|94:179,1,143.000004364014,2|10,3:2|3:2,0:0:0:0:
42,96,202322,2,0,B|56:69|81:49|81:49|159:73,1,143.000004364014,2|0,0:0|0:0,0:0:0:0:
244,24,202822,1,8,3:2:0:0:
244,24,202988,1,0,0:0:0:0:
312,92,203155,6,0,B|350:108|374:163|374:163|431:139|489:159,1,214.500006546021,6|0,3:2|0:0,0:0:0:0:
454,68,203822,2,0,P|407:119|474:255,1,214.500006546021,2|0,3:2|0:0,0:0:0:0:
396,325,204488,2,0,P|335:290|266:301,1,143.000004364014,2|10,3:2|3:2,0:0:0:0:
170,316,204988,2,0,B|189:239|189:239|168:208|120:202,1,143.000004364014,2|0,0:0|0:0,0:0:0:0:
49,246,205488,2,0,P|47:208|37:164,1,71.5000021820069,10|0,3:2|0:0,0:0:0:0:
116,114,205822,6,0,B|184:90|238:152|238:152|302:221|387:180,1,286.000008728028,6|0,3:2|3:2,0:0:0:0:
245,48,206822,1,10,3:2:0:0:
245,48,206988,1,2,0:0:0:0:
337,21,207155,6,0,B|291:163,1,143.000004364014,2|10,3:2|3:2,0:0:0:0:
301,252,207654,2,0,P|351:226|455:240,1,143.000004364014,2|0,0:0|0:0,0:0:0:0:
478,323,208155,1,8,3:2:0:0:
478,323,208322,1,0,0:0:0:0:
394,370,208488,6,0,L|180:344,1,214.500006546021,6|0,3:2|0:0,0:0:0:0:
83,349,209155,2,0,B|160:323|160:323|197:280|197:280|270:260,1,214.500006546021,2|0,3:2|0:0,0:0:0:0:
334,187,209822,2,0,L|280:35,1,143.000004364014,2|10,3:2|3:2,0:0:0:0:
382,50,210322,1,2,0:0:0:0:
382,50,210488,2,0,P|421:63|452:72,1,71.5000021820069,0|0,3:2|0:0,0:0:0:0:
490,159,210822,2,0,P|451:172|420:181,1,71.5000021820069,10|0,3:2|0:0,0:0:0:0:
380,268,211155,6,0,B|274:201|274:201|184:207|135:288,1,286.000008728028,6|0,3:2|3:2,0:0:0:0:
475,282,212155,1,8,3:2:0:0:
475,282,212488,6,0,P|470:241|437:199,1,71.5000021820069,6|0,3:2|0:0,0:0:0:0:
388,143,212822,2,0,L|406:73,1,71.5000021820069,10|0,3:2|0:0,0:0:0:0:
290,133,213155,6,0,L|308:202,1,71.5000021820069,6|0,3:2|0:0,0:0:0:0:
241,275,213489,2,0,P|224:306|221:341,1,71.5000021820069,10|0,3:2|0:0,0:0:0:0:
308,332,213822,5,6,3:2:0:0:
256,192,213905,12,2,216488,3:2:0:0:
150,92,224488,6,0,B|103:72|103:72|39:121,2,130,6|8|0,3:2|3:2|3:2,0:0:0:0:
221,143,225322,1,0,0:0:0:0:
171,214,225488,2,0,P|161:245|151:276,1,65,8|0,3:2|0:0,0:0:0:0:
193,353,225822,2,0,P|246:317|319:333,1,130,2|8,3:2|3:2,0:0:0:0:
391,295,226322,1,0,0:0:0:0:
339,224,226488,2,0,P|349:193|358:161,1,65,2|0,3:2|3:2,0:0:0:0:
405,87,226822,2,0,L|441:74,2,32.5,8|0|0,3:2|0:0|0:0,0:0:0:0:
335,33,227155,6,0,B|261:35|286:74|219:83,1,130,2|8,3:2|3:2,0:0:0:0:
139,121,227655,1,0,0:0:0:0:
190,191,227822,2,0,P|174:241|166:269,1,65,0|0,3:2|0:0,0:0:0:0:
258,252,228155,2,0,P|268:282|277:313,1,65,8|0,3:2|0:0,0:0:0:0:
349,363,228488,6,0,B|397:352|397:352|419:334|419:334|478:318,1,130,2|8,3:2|3:2,0:0:0:0:
377,170,229155,1,0,3:2:0:0:
465,150,229322,1,0,3:2:0:0:
465,150,229488,2,0,L|449:213,1,65,8|0,3:2|0:0,0:0:0:0:
371,253,229822,6,0,B|323:232|323:232|251:277,2,130,6|8|0,3:2|3:2|3:2,0:0:0:0:
342,336,230655,1,0,0:0:0:0:
258,364,230822,2,0,P|227:353|195:345,1,65,8|0,3:2|0:0,0:0:0:0:
163,263,231155,2,0,P|99:278|41:320,1,130,2|8,3:2|3:2,0:0:0:0:
0,237,231655,1,0,0:0:0:0:
54,167,231822,2,0,B|21:30,1,130,2|8,3:2|3:2,0:0:0:0:
108,17,232322,1,0,0:0:0:0:
163,84,232488,6,0,B|292:67,1,130,2|8,3:2|3:2,0:0:0:0:
354,129,232988,1,0,0:0:0:0:
293,192,233155,2,0,P|251:175|215:166,1,65,0|0,3:2|0:0,0:0:0:0:
223,257,233488,2,0,P|191:266|162:279,1,65,8|0,3:2|0:0,0:0:0:0:
88,328,233822,2,0,P|152:327|213:349,1,130,2|8,3:2|3:2,0:0:0:0:
297,376,234322,1,0,0:0:0:0:
366,322,234488,6,0,P|382:320|404:316,2,32.5,0|0|0,3:2|0:0|3:2,0:0:0:0:
482,286,234822,1,8,3:2:0:0:
482,286,234988,1,8,3:3:0:0:
428,216,235155,5,0,3:0:0:0:
