osu file format v14

[General]
AudioFilename: audio.mp3
AudioLeadIn: 0
PreviewTime: 63822
Countdown: 0
SampleSet: Soft
StackLeniency: 0.3
Mode: 0
LetterboxInBreaks: 0
WidescreenStoryboard: 1

[Editor]
Bookmarks: 11155,21822,32488,43155,53822,64488,85822,96488,107155,117822,139155,149822,160488,171155,181822,192488,213822,235155
DistanceSpacing: 1.5
BeatDivisor: 4
GridSize: 16
TimelineZoom: 1.8

[Metadata]
Title:still alive
TitleUnicode:still alive
Artist:Yousei Teikoku
ArtistUnicode:妖精帝國
Creator:Net0
Version:Isomir's Expert
Source:
Tags:japanese rock Gothic Metal Maot Xunni Moete PaRaDoGi IsomirDiAngelo Yui Takaha Tachibana Nanami Relu YUI Takaha Tachibana gothic lolita agitator Fairy Empire 伊月 ゆい 橘 尭葉 ななみ レル
BeatmapID:2343251
BeatmapSetID:1109705

[Difficulty]
HPDrainRate:5
CircleSize:4
OverallDifficulty:8
ApproachRate:8
SliderMultiplier:1.4
SliderTickRate:1

[Events]
//Background and Video events
0,0,"Bg Yousei.jpg",0,0
//Break Periods
2,88688,95072
2,142022,149072
2,171355,173072
2,174022,175738
2,176688,178405
2,179355,181072
//Storyboard Layer 0 (Background)
//Storyboard Layer 1 (Fail)
//Storyboard Layer 2 (Pass)
//Storyboard Layer 3 (Foreground)
//Storyboard Layer 4 (Overlay)
//Storyboard Sound Samples

[TimingPoints]
489,333.333333333333,4,2,21,50,1,0
11155,-100,4,2,22,50,0,0
21822,-111.111111111111,4,2,22,50,0,0
32488,-100,4,2,22,50,0,0
53822,-142.857142857143,4,2,22,50,0,0
61822,-125,4,2,22,50,0,0
63155,-142.857142857143,4,2,22,50,0,0
63822,-100,4,2,22,50,0,0
64488,-83.3333333333333,4,2,22,60,0,1
67155,-90.9090909090909,4,2,22,60,0,1
69822,-83.3333333333333,4,2,22,60,0,1
72488,-90.9090909090909,4,2,22,60,0,1
75155,-76.9230769230769,4,2,22,60,0,1
84488,-71.4285714285714,4,2,22,60,0,1
85155,-66.6666666666667,4,2,22,60,0,1
85822,-100,4,2,22,50,0,0
107155,-142.857142857143,4,2,22,50,0,0
117822,-83.3333333333333,4,2,22,60,0,1
120488,-90.9090909090909,4,2,22,60,0,1
123155,-83.3333333333333,4,2,22,60,0,1
125822,-90.9090909090909,4,2,22,60,0,1
128488,-76.9230769230769,4,2,22,60,0,1
137822,-71.4285714285714,4,2,22,60,0,1
138488,-66.6666666666667,4,2,22,60,0,1
139155,-100,4,2,22,50,0,0
149822,-90.9090909090909,4,2,22,50,0,0
153822,-90.9090909090909,4,2,22,50,0,0
160488,-83.3333333333333,4,2,22,50,0,0
171155,-100,4,2,24,50,0,0
171322,-100,4,2,21,50,0,0
173822,-100,4,2,23,50,0,0
173988,-100,4,2,21,50,0,0
176488,-100,4,2,24,50,0,0
176655,-100,4,2,21,50,0,0
179155,-100,4,2,23,50,0,0
179321,-100,4,2,21,50,0,0
181822,-142.857142857143,4,2,22,50,0,0
191822,-100,4,2,22,50,0,0
192488,-83.3333333333333,4,2,22,60,0,1
195155,-90.9090909090909,4,2,22,60,0,1
197822,-83.3333333333333,4,2,22,60,0,1
200488,-90.9090909090909,4,2,22,60,0,1
203155,-76.9230769230769,4,2,22,60,0,1
212488,-66.6666666666667,4,2,22,60,0,1
213155,-62.5,4,2,22,60,0,1
213822,-100,4,2,22,50,0,0
224488,-90.9090909090909,4,2,22,50,0,1
235155,-100,4,2,21,50,0,0

[Colours]
Combo1 : 113,144,175
Combo2 : 196,68,70

[HitObjects]
256,192,489,12,8,2822,2:0:0:0:
256,192,3155,12,8,5488,2:0:0:0:
256,192,5822,12,8,8155,2:0:0:0:
256,192,8488,5,0,3:0:0:0:
215,144,9822,6,0,L|224:92,3,35,0|0|0|0,1:0|1:0|1:0|1:0,0:0:0:0:
120,141,10155,2,0,L|111:89,3,35,0|0|0|0,1:0|1:0|1:0|1:0,0:0:0:0:
55,235,10488,5,0,1:0:0:0:
56,238,10572,1,0,1:0:0:0:
57,241,10655,1,0,1:0:0:0:
58,244,10738,1,0,1:0:0:0:
59,247,10822,1,0,1:0:0:0:
60,250,10905,1,0,1:0:0:0:
61,253,10988,1,0,1:0:0:0:
62,256,11072,1,0,1:0:0:0:
63,259,11155,6,0,P|104:255|146:253,1,70,6|0,3:2|0:0,0:0:0:0:
242,337,11488,2,0,P|239:263|237:193,1,140,8|0,3:2|3:2,0:0:0:0:
175,121,11988,1,0,0:0:0:0:
313,133,12155,2,0,P|348:135|383:139,1,70,8|0,3:2|0:0,0:0:0:0:
444,302,12488,6,0,P|376:297|342:239,1,140,2|8,3:2|3:2,0:0:0:0:
382,138,12988,1,0,0:0:0:0:
505,213,13155,1,2,3:2:0:0:
505,213,13322,1,0,3:2:0:0:
491,106,13488,2,0,L|496:71,2,35,8|0|0,3:2|0:0|0:0,0:0:0:0:
334,40,13822,6,0,P|262:33|170:36,1,140,2|8,3:2|3:2,0:0:0:0:
100,13,14322,1,0,0:0:0:0:
46,92,14488,2,0,L|53:186,1,70,0|0,3:2|0:0,0:0:0:0:
47,324,14822,2,0,L|53:254,1,70,8|0,3:2|0:0,0:0:0:0:
153,253,15155,6,0,L|165:326,1,70,2|0,3:2|0:0,0:0:0:0:
150,158,15488,2,0,L|155:88,1,70,8|0,3:2|0:0,0:0:0:0:
253,203,15822,1,0,3:2:0:0:
357,196,15988,1,0,3:2:0:0:
308,285,16155,1,8,3:2:0:0:
301,114,16322,1,0,0:0:0:0:
446,244,16488,6,0,P|449:298|428:330,1,70,6|0,3:2|0:0,0:0:0:0:
333,377,16822,2,0,L|177:366,1,140,8|0,3:2|3:2,0:0:0:0:
86,377,17322,1,0,0:0:0:0:
89,244,17488,2,0,P|130:279|137:317,1,70,8|0,3:2|0:0,0:0:0:0:
21,165,17822,6,0,L|183:153,1,140,2|8,3:2|3:2,0:0:0:0:
247,208,18322,1,0,0:0:0:0:
313,58,18488,1,2,3:2:0:0:
313,58,18655,1,0,3:2:0:0:
333,158,18822,2,0,L|342:213,1,35,8|2,3:2|0:3,0:0:0:0:
416,72,18988,2,0,L|471:63,1,35,0|0,0:0|0:3,0:0:0:0:
512,227,19155,6,0,P|481:278|404:261,1,140,2|8,3:2|3:2,0:0:0:0:
338,192,19655,1,0,0:0:0:0:
317,298,19822,2,0,B|324:336|324:336|308:375,1,70,0|0,3:2|0:0,0:0:0:0:
153,359,20155,2,0,B|146:321|146:321|162:282,1,70,8|0,3:2|0:0,0:0:0:0:
193,208,20488,6,0,B|200:246|200:246|184:285,1,70,2|0,3:2|0:0,0:0:0:0:
39,270,20822,2,0,B|27:240|27:240|34:202,1,70,8|0,3:2|0:0,0:0:0:0:
55,67,21155,1,0,1:2:0:0:
86,52,21238,1,0,1:0:0:0:
120,47,21322,1,0,1:2:0:0:
153,56,21405,1,0,1:0:0:0:
181,76,21488,1,8,0:2:0:0:
181,76,21822,6,0,P|243:69|319:62,1,125.999996154785,6|8,3:2|3:2,0:0:0:0:
420,53,22322,1,2,0:0:0:0:
435,165,22488,2,0,P|465:169|501:175,2,62.9999980773926,2|0|8,0:0|3:2|3:2,0:0:0:0:
318,179,22988,1,2,0:0:0:0:
440,305,23155,6,0,P|364:303|305:311,1,125.999996154785,2|8,3:2|3:2,0:0:0:0:
208,362,23655,1,2,3:2:0:0:
179,253,23822,1,2,0:0:0:0:
86,324,23988,1,2,3:2:0:0:
69,209,24155,1,10,3:2:0:0:
162,136,24322,1,2,0:0:0:0:
54,82,24488,6,0,P|110:91|139:157,1,125.999996154785,2|8,3:2|3:2,0:0:0:0:
179,253,24988,1,2,0:0:0:0:
243,152,25155,2,0,P|250:121|276:79,2,62.9999980773926,2|0|8,0:0|3:2|3:2,0:0:0:0:
303,254,25655,1,2,0:0:0:0:
437,170,25822,6,0,L|416:314,1,125.999996154785,2|8,3:2|3:2,0:0:0:0:
334,155,26322,1,2,3:2:0:0:
498,85,26488,1,2,0:0:0:0:
498,85,26655,1,0,3:2:0:0:
334,155,26822,1,8,3:2:0:0:
366,28,26988,1,2,3:2:0:0:
245,76,27155,6,0,P|180:88|103:50,1,125.999996154785,6|8,3:2|3:2,0:0:0:0:
20,13,27655,1,2,0:0:0:0:
23,129,27822,2,0,P|32:158|32:217,2,62.9999980773926,2|0|8,0:0|3:2|3:2,0:0:0:0:
124,68,28322,1,2,0:0:0:0:
164,213,28488,6,0,P|119:259|88:338,1,125.999996154785,2|8,3:2|3:2,0:0:0:0:
194,381,28988,1,2,3:2:0:0:
291,317,29155,1,2,3:2:0:0:
386,384,29322,1,2,3:2:0:0:
481,311,29488,1,10,3:2:0:0:
386,238,29655,1,2,0:0:0:0:
386,238,29738,1,2,0:0:0:0:
386,238,29822,6,0,P|331:196|266:181,1,125.999996154785,2|8,3:2|3:2,0:0:0:0:
200,90,30322,1,2,0:0:0:0:
311,36,30488,2,0,L|301:103,2,62.9999980773926,2|0|8,0:0|3:2|3:2,0:0:0:0:
400,124,30988,1,2,0:0:0:0:
266,215,31155,6,0,P|185:211|127:228,1,125.999996154785,2|8,3:2|3:2,0:0:0:0:
35,141,31655,1,10,3:2:0:0:
140,100,31822,1,2,0:0:0:0:
18,29,31988,1,0,3:2:0:0:
18,29,32155,1,8,3:2:0:0:
18,29,32322,1,0,3:2:0:0:
35,141,32488,6,0,P|37:175|39:210,1,70,6|0,3:2|0:0,0:0:0:0:
149,241,32822,2,0,P|143:317|139:394,1,140,8|0,3:2|3:2,0:0:0:0:
243,384,33322,1,0,0:0:0:0:
271,265,33488,2,0,P|268:230|266:195,1,70,8|0,3:2|0:0,0:0:0:0:
203,33,33822,6,0,P|154:87|190:150,1,140,2|8,3:2|3:2,0:0:0:0:
266,195,34322,1,0,0:0:0:0:
389,160,34488,1,0,3:2:0:0:
389,160,34655,1,0,3:2:0:0:
319,93,34822,2,0,L|264:88,2,35,8|2|0,3:2|0:0|0:0,0:0:0:0:
461,22,35155,6,0,P|508:68|487:130,1,140,2|8,3:2|0:0,0:0:0:0:
389,160,35655,1,0,0:0:0:0:
325,252,35822,2,0,L|255:258,1,70,0|0,3:2|0:0,0:0:0:0:
443,253,36155,2,0,L|512:259,1,70,8|0,3:2|0:0,0:0:0:0:
512,372,36488,6,0,L|442:378,1,70,2|0,3:2|0:0,0:0:0:0:
257,375,36822,2,0,L|326:381,1,70,8|0,3:2|0:0,0:0:0:0:
325,252,37155,1,0,3:2:0:0:
187,257,37322,1,0,3:2:0:0:
187,257,37405,1,0,1:0:0:0:
187,257,37488,2,0,P|188:281|190:302,1,35,8|0,3:2|1:0,1:0:0:0:
90,369,37655,1,0,1:0:0:0:
56,357,37738,1,0,1:0:0:0:
43,323,37822,6,0,P|47:280|54:236,1,70,6|0,3:2|0:0,0:0:0:0:
8,148,38155,2,0,P|72:142|174:139,1,140,8|0,3:2|3:2,0:0:0:0:
256,167,38655,1,0,0:0:0:0:
228,43,38822,2,0,P|194:42|141:56,1,70,8|0,3:2|0:0,0:0:0:0:
350,91,39155,6,0,P|431:59|439:-8,1,140,2|8,3:2|3:2,0:0:0:0:
512,114,39655,1,0,0:0:0:0:
418,205,39822,1,0,3:2:0:0:
418,205,39988,1,0,3:2:0:0:
500,271,40155,2,0,L|497:325,1,35,8|0,3:2|0:0,0:0:0:0:
384,354,40322,2,0,L|382:319,1,35
285,192,40488,6,0,P|203:223|195:291,1,140,2|8,3:2|3:2,0:0:0:0:
197,372,40988,1,0,0:0:0:0:
99,337,41155,2,0,P|95:295|90:250,1,70,0|0,3:2|0:0,0:0:0:0:
100,113,41488,2,0,P|96:154|91:200,1,70,8|0,3:2|0:0,0:0:0:0:
196,225,41822,6,0,P|192:190|189:155,1,70,2|0,3:2|0:0,0:0:0:0:
197,0,42155,2,0,P|194:34|190:69,1,70,8|0,3:2|0:0,0:0:0:0:
327,115,42488,1,0,1:2:0:0:
362,116,42572,1,0,1:2:0:0:
396,117,42655,1,0,1:2:0:0:
430,118,42738,1,0,1:2:0:0:
465,119,42822,1,8,0:2:0:0:
465,119,43155,6,0,B|501:181|501:181|456:268,1,140,6|8,3:2|3:2,0:0:0:0:
354,296,43655,1,2,0:0:0:0:
354,296,43738,1,0,1:0:0:0:
354,296,43822,2,0,P|370:328|387:359,1,70,2|0,0:0|3:2,0:0:0:0:
302,175,44155,2,0,P|336:176|371:178,1,70,8|2,3:2|0:0,0:0:0:0:
204,105,44488,6,0,B|168:167|168:167|200:228,1,140,2|8,3:2|3:2,0:0:0:0:
96,290,44988,1,2,3:2:0:0:
96,290,45155,1,2,0:0:0:0:
148,384,45322,1,2,3:2:0:0:
96,290,45488,1,10,3:2:0:0:
41,188,45655,1,2,0:0:0:0:
199,227,45822,6,0,P|269:222|369:228,1,140,2|8,3:2|3:2,0:0:0:0:
436,137,46322,1,2,0:0:0:0:
333,70,46488,2,0,P|293:70|260:70,1,70,2|0,0:0|3:2,0:0:0:0:
442,12,46822,2,0,P|482:12|515:12,1,70,8|2,3:2|0:0,0:0:0:0:
348,102,47155,6,0,P|268:101|207:103,1,140,2|8,3:2|3:2,0:0:0:0:
114,24,47655,1,2,3:2:0:0:
46,129,47822,1,2,0:0:0:0:
198,200,47988,1,0,3:2:0:0:
54,137,48155,1,8,3:2:0:0:
54,137,48238,1,0,1:0:0:0:
54,137,48322,2,0,L|47:200,1,35,2|0,1:2|1:0,1:0:0:0:
11,318,48488,6,0,P|89:302|110:236,1,140,6|8,3:2|3:2,0:0:0:0:
196,164,48988,1,2,0:0:0:0:
289,239,49155,2,0,P|289:277|285:324,1,70,2|0,0:0|3:2,0:0:0:0:
445,240,49488,2,0,P|444:278|449:325,1,70,8|2,3:2|0:0,0:0:0:0:
512,146,49822,6,0,P|434:130|413:64,1,140,2|8,3:2|3:2,0:0:0:0:
306,12,50322,1,2,3:2:0:0:
274,124,50488,1,2,3:2:0:0:
158,147,50655,1,2,3:2:0:0:
190,35,50821,1,10,3:2:0:0:
71,59,50988,1,2,0:0:0:0:
35,182,51155,6,0,P|41:260|50:333,1,140,2|8,3:2|3:2,0:0:0:0:
158,375,51655,1,2,0:0:0:0:
254,312,51822,2,0,P|293:307|338:308,1,70,2|0,0:0|3:2,0:0:0:0:
497,313,52155,2,0,P|458:308|413:309,1,70,8|2,3:2|0:0,0:0:0:0:
269,330,52488,6,0,P|277:260|282:190,1,140,2|8,3:2|3:2,0:0:0:0:
196,94,52988,1,10,3:2:0:0:
334,35,53155,1,2,0:0:0:0:
388,126,53322,1,0,3:2:0:0:
190,114,53488,2,0,L|255:110,1,35,8|0,1:2|1:2,1:2:0:0:
392,143,53655,2,0,L|327:139,1,35,0|0,1:2|1:2,1:2:0:0:
224,202,53822,6,0,P|166:208|120:176,2,97.9999970092774,6|8|2,3:2|3:2|0:0,0:0:0:0:
224,202,54655,1,0,3:2:0:0:
198,322,54822,1,8,3:2:0:0:
198,322,55155,6,0,P|144:301|92:321,1,97.9999970092774,2|8,3:2|3:2,0:0:0:0:
106,310,55655,2,0,P|160:330|212:310,1,97.9999970092774,0|0,3:2|3:2,0:0:0:0:
295,280,56155,1,8,3:2:0:0:
512,157,56488,6,0,B|480:97|425:85|380:107|368:167|324:166|287:147,1,244.999992523194,2|0,3:2|3:2,0:0:0:0:
262,51,57488,2,0,P|231:52|206:55,1,48.9999985046387,10|0,3:2|0:0,0:0:0:0:
132,16,57822,6,0,P|129:57|127:123,1,97.9999970092774,2|8,3:2|3:2,0:0:0:0:
127,113,58322,1,8,3:2:0:0:
41,289,58655,1,0,3:2:0:0:
41,289,58822,1,8,3:2:0:0:
41,289,58988,1,0,3:2:0:0:
144,266,59155,6,0,P|143:315|148:363,2,97.9999970092774,6|8|2,3:2|3:2|0:0,0:0:0:0:
144,266,59988,1,0,3:2:0:0:
257,228,60155,1,8,3:2:0:0:
257,228,60488,6,0,P|307:216|354:232,1,97.9999970092774,2|8,3:2|3:2,0:0:0:0:
350,229,60988,2,0,P|300:241|253:225,1,97.9999970092774,0|0,3:2|3:2,0:0:0:0:
161,149,61488,1,8,3:2:0:0:
321,376,61822,6,0,B|382:338|383:256|383:256|417:331|493:337,1,280,2|0,3:2|3:2,0:0:0:0:
492,230,62822,2,0,L|507:164,1,56,10|0,3:2|0:0,0:0:0:0:
507,97,63155,6,0,P|448:88|395:90,1,97.9999970092774,2|8,3:2|3:2,0:0:0:0:
409,88,63655,1,8,3:2:0:0:
332,153,63822,6,0,L|337:203,3,35,2|0|10|10,1:2|1:2|1:2|1:2,1:2:0:0:
245,96,64155,1,10,3:3:0:0:
245,92,64238,1,4,3:3:0:0:
245,88,64322,1,4,3:3:0:0:
246,84,64405,1,4,0:3:0:0:
247,79,64488,5,6,3:2:0:0:
119,17,64655,1,2,0:0:0:0:
130,170,64822,2,0,P|122:219|116:275,1,83.9999974365235,10|2,3:2|0:0,0:0:0:0:
229,235,65155,1,2,3:2:0:0:
157,92,65322,1,2,0:0:0:0:
11,159,65488,1,10,3:2:0:0:
120,345,65655,6,0,P|200:332|311:321,1,167.999994873047,2|2,0:0|0:0,0:0:0:0:
391,314,66155,1,10,3:2:0:0:
445,154,66322,1,2,0:0:0:0:
380,287,66488,1,2,3:2:0:0:
246,221,66655,1,2,0:0:0:0:
315,85,66822,1,10,3:2:0:0:
315,85,67155,6,0,P|266:80|210:80,1,77.0000023498536,6|0,3:2|0:0,0:0:0:0:
62,195,67488,2,0,P|107:180|162:169,1,77.0000023498536,8|0,3:2|0:0,0:0:0:0:
129,85,67822,6,0,P|114:39|103:-15,1,77.0000023498536,2|0,3:2|0:0,0:0:0:0:
235,158,68155,2,0,P|249:203|260:258,1,77.0000023498536,8|0,3:2|0:0,0:0:0:0:
182,371,68488,6,0,P|140:315|179:258,1,115.50000352478,2|0,3:2|0:0,0:0:0:0:
170,246,68822,2,0,L|111:231,1,38.5000011749268,10|0,3:2|0:0,0:0:0:0:
268,331,68988,2,0,P|353:318|456:306,1,154.000004699707,2|0,0:0|0:0,0:0:0:0:
504,190,69488,5,8,3:2:0:0:
504,190,69655,1,2,0:0:0:0:
405,71,69822,5,6,3:2:0:0:
351,224,69988,1,2,0:0:0:0:
313,40,70155,2,0,P|359:48|413:55,1,83.9999974365235,10|2,3:2|0:0,0:0:0:0:
427,158,70488,1,2,3:2:0:0:
256,199,70655,1,2,0:0:0:0:
378,316,70822,1,10,3:2:0:0:
173,265,70988,6,0,P|98:275|79:367,1,167.999994873047,2|2,0:0|0:0,0:0:0:0:
0,243,71488,1,10,3:2:0:0:
0,243,71655,1,2,0:0:0:0:
160,165,71822,1,2,3:2:0:0:
0,65,71988,1,2,0:0:0:0:
94,12,72155,2,0,P|85:68|73:164,1,125.999996154785,10|0,3:2|0:0,0:0:0:0:
61,164,72488,6,0,P|137:171|167:93,1,154.000004699707,6|8,3:2|3:2,0:0:0:0:
212,18,72988,1,0,0:0:0:0:
335,58,73155,2,0,L|327:142,1,77.0000023498536,2|0,3:2|0:0,0:0:0:0:
463,31,73488,2,0,L|471:115,1,77.0000023498536,8|0,3:2|0:0,0:0:0:0:
395,244,73822,6,0,B|318:230|318:230|259:260,1,115.50000352478,2|0,3:2|0:0,0:0:0:0:
260,219,74155,1,10,3:2:0:0:
217,379,74322,1,2,0:0:0:0:
334,348,74488,1,0,3:2:0:0:
334,348,74655,1,0,0:0:0:0:
334,348,74822,1,8,3:2:0:0:
334,348,74988,1,0,0:0:0:0:
192,286,75155,6,0,B|86:289|125:221|7:233,1,181.999991668702,6|8,3:2|3:2,0:0:0:0:
6,137,75655,1,0,0:0:0:0:
199,104,75822,2,0,P|188:152|177:216,1,90.9999958343508,2|0,3:2|0:0,0:0:0:0:
165,9,76155,1,10,0:2:0:0:
165,9,76238,1,0,1:2:0:0:
165,9,76322,1,0,1:2:0:0:
307,123,76488,6,0,P|366:123|415:55,1,136.499993751526,2|0,3:2|0:0,0:0:0:0:
397,29,76822,1,10,3:2:0:0:
486,153,76988,2,0,P|495:197|503:242,1,90.9999958343508,2|0,0:0|3:2,0:0:0:0:
437,317,77322,1,0,0:0:0:0:
324,144,77488,2,0,P|314:188|306:233,1,90.9999958343508,10|0,3:2|0:0,0:0:0:0:
110,352,77822,6,0,P|197:356|204:259,1,181.999991668702,6|8,3:2|3:2,0:0:0:0:
120,224,78322,2,0,L|12:215,2,90.9999958343508,0|0|0,0:0|3:2|0:0,0:0:0:0:
307,233,78822,1,10,3:2:0:0:
307,233,78988,1,2,0:0:0:0:
250,63,79155,6,0,B|221:46|175:50|158:108|172:138|231:192,1,181.999991668702,2|10,3:2|3:2,0:0:0:0:
342,344,79655,2,0,B|381:308|395:278|378:220|332:216|303:233,1,181.999991668702,2|0,0:0|0:0,0:0:0:0:
469,222,80155,1,8,3:2:0:0:
469,222,80322,1,0,0:0:0:0:
408,45,80488,6,0,B|318:93|286:36|211:38,1,181.999991668702,6|8,3:2|3:2,0:0:0:0:
131,12,80988,1,0,0:0:0:0:
63,182,81155,2,0,P|51:128|32:67,1,90.9999958343508,2|0,3:2|0:0,0:0:0:0:
231,142,81488,1,8,1:2:0:0:
231,142,81572,1,0,1:2:0:0:
231,142,81655,1,0,1:2:0:0:
59,285,81822,6,0,P|130:267|229:272,1,136.499993751526,2|0,3:2|0:0,0:0:0:0:
216,239,82155,1,10,3:2:0:0:
317,379,82322,1,2,0:0:0:0:
405,315,82488,1,0,3:2:0:0:
405,315,82655,1,0,0:0:0:0:
348,143,82822,2,0,P|336:197|317:258,1,90.9999958343508,10|0,3:2|0:0,0:0:0:0:
512,78,83155,6,0,B|493:11|398:-7|349:64,3,181.999991668702,6|8|0|8,3:2|3:2|3:2|3:2,0:0:0:0:
348,143,84322,1,0,0:0:0:0:
214,162,84488,6,0,B|165:142|165:142|95:152,1,97.9999970092774,6|0,3:2|0:0,0:0:0:0:
292,227,84822,2,0,B|341:247|341:247|411:237,1,97.9999970092774,10|0,3:2|0:0,0:0:0:0:
185,338,85155,6,0,B|177:326|175:291|175:291|187:260|206:243,1,105.000004005432,6|0,3:2|0:0,0:0:0:0:
321,50,85488,2,0,B|328:61|330:96|330:96|318:127|299:144,1,105.000004005432,10|0,3:2|0:0,0:0:0:0:
136,58,85822,5,6,3:2:0:0:
256,192,85905,12,0,88488,0:0:0:0:
22,145,95822,6,0,L|86:140,1,35,2|2,3:3|0:3,0:0:0:0:
191,146,95988,2,0,L|136:139,1,35,2|2,0:3|0:3,0:0:0:0:
103,68,96155,5,10,3:3:0:0:
103,68,96488,6,0,P|117:114|111:231,1,140,6|8,3:2|3:2,0:0:0:0:
93,323,96988,1,2,0:0:0:0:
6,245,97155,1,2,0:0:0:0:
6,245,97322,1,0,3:2:0:0:
156,141,97488,1,8,3:2:0:0:
381,353,97822,5,2,3:2:0:0:
280,308,97988,1,0,1:0:0:0:
280,308,98072,1,0,1:0:0:0:
280,308,98155,1,8,3:2:0:0:
358,140,98322,5,2,3:2:0:0:
371,242,98488,1,2,0:0:0:0:
462,177,98655,1,2,3:2:0:0:
264,198,98822,1,10,3:2:0:0:
264,198,99155,6,0,P|236:132|291:93,1,140,2|8,3:2|3:2,0:0:0:0:
417,65,99656,1,2,1:2:0:0:
441,60,99739,1,0,1:2:0:0:
466,54,99822,2,0,P|494:86|494:130,1,70,2|0,0:0|3:2,0:0:0:0:
342,6,100155,1,8,3:2:0:0:
34,80,100488,5,2,3:2:0:0:
150,48,100655,1,0,1:2:0:0:
150,48,100738,1,0,1:2:0:0:
150,48,100822,1,8,3:2:0:0:
92,239,100988,5,2,3:2:0:0:
221,187,101155,2,0,P|229:153|235:119,1,70,2|0,0:0|3:2,0:0:0:0:
309,365,101488,1,8,3:2:0:0:
503,149,101822,6,0,B|448:106|448:106|351:131,1,140,6|8,3:2|3:2,0:0:0:0:
342,2,102322,1,2,0:0:0:0:
473,13,102488,2,0,P|462:55|447:106,1,70,2|0,0:0|3:2,0:0:0:0:
253,103,102822,1,8,3:2:0:0:
253,103,103155,6,0,L|263:271,1,140,2|8,3:2|3:2,0:0:0:0:
179,338,103655,1,2,1:2:0:0:
179,338,103738,1,0,1:2:0:0:
179,338,103822,1,2,3:2:0:0:
66,285,103988,1,2,3:2:0:0:
261,242,104155,1,10,3:2:0:0:
89,15,104488,6,0,P|51:45|42:150,1,140,2|8,3:2|3:2,0:0:0:0:
158,182,104988,1,2,0:0:0:0:
219,74,105155,1,2,1:2:0:0:
219,74,105238,1,0,1:2:0:0:
219,74,105322,1,0,3:2:0:0:
15,56,105488,1,8,3:2:0:0:
289,163,105822,6,0,L|437:145,1,140,2|8,3:2|3:2,0:0:0:0:
502,53,106322,1,0,0:0:0:0:
370,41,106488,1,2,0:0:0:0:
370,41,106655,1,0,3:2:0:0:
424,185,106822,1,0,1:2:0:0:
421,219,106905,1,0,1:2:0:0:
418,253,106988,1,0,1:2:0:0:
414,288,107072,1,0,1:2:0:0:
411,322,107155,6,0,P|367:342|318:308,2,97.9999970092774,6|8|2,3:2|3:2|0:0,0:0:0:0:
411,322,107988,1,0,3:2:0:0:
330,227,108155,1,8,3:2:0:0:
330,227,108488,6,0,P|323:166|317:108,1,97.9999970092774,2|8,3:2|3:2,0:0:0:0:
319,129,108988,2,0,P|312:190|306:248,1,97.9999970092774,0|0,3:2|3:2,0:0:0:0:
239,302,109488,1,8,3:2:0:0:
21,165,109822,6,0,B|26:111|85:104|175:201|38:214|36:251|59:302,1,244.999992523194,2|0,3:2|3:2,0:0:0:0:
142,376,110822,2,0,L|154:314,1,48.9999985046387,10|0,3:2|0:0,0:0:0:0:
235,276,111155,6,0,L|209:162,1,97.9999970092774,2|8,3:2|3:2,0:0:0:0:
213,180,111655,1,8,3:2:0:0:
106,42,111988,1,0,3:2:0:0:
106,42,112155,1,8,3:2:0:0:
106,42,112322,1,0,3:2:0:0:
203,86,112488,6,0,L|303:77,2,97.9999970092774,6|8|2,3:2|3:2|0:0,0:0:0:0:
203,86,113322,1,0,3:2:0:0:
190,208,113488,1,8,3:2:0:0:
190,208,113822,6,0,P|186:251|229:292,1,97.9999970092774,2|8,3:2|3:2,0:0:0:0:
221,289,114322,2,0,P|224:245|181:204,1,97.9999970092774,0|0,3:2|3:2,0:0:0:0:
315,203,114822,1,8,3:2:0:0:
502,49,115155,6,0,B|463:66|416:24|416:24|441:80|415:115|406:97|386:133|407:177,1,244.999992523194,2|0,3:2|3:2,0:0:0:0:
496,227,116155,2,0,L|486:288,1,48.9999985046387,10|0,3:2|0:0,0:0:0:0:
485,375,116488,6,0,P|437:350|384:363,1,97.9999970092774,2|8,3:2|3:2,0:0:0:0:
395,356,116988,1,8,3:2:0:0:
290,369,117155,5,2,3:2:0:0:
289,366,117238,1,0,3:2:0:0:
288,363,117322,1,10,3:3:0:0:
287,360,117405,1,10,3:3:0:0:
286,357,117488,2,0,L|276:317,1,24.4999992523194,10|4,3:3|3:3,0:0:0:0:
353,260,117655,2,0,L|363:220,1,24.4999992523194,4|4,3:3|0:3,0:0:0:0:
237,128,117822,5,6,3:2:0:0:
120,193,117988,1,2,0:0:0:0:
235,108,118155,1,10,3:2:0:0:
344,192,118322,1,2,0:0:0:0:
234,269,118488,1,2,3:2:0:0:
325,106,118655,1,2,0:0:0:0:
146,109,118822,1,10,3:2:0:0:
344,192,118988,6,0,B|426:243|431:171|537:222,1,167.999994873047,2|2,0:0|0:0,0:0:0:0:
495,301,119488,1,10,3:2:0:0:
360,334,119655,1,2,0:0:0:0:
324,194,119822,1,2,3:2:0:0:
183,223,119988,1,2,0:0:0:0:
335,173,120155,2,0,P|345:103|357:39,1,125.999996154785,10|0,3:2|0:0,0:0:0:0:
379,32,120488,6,0,P|330:25|282:42,1,77.0000023498536,6|0,3:2|0:0,0:0:0:0:
142,96,120822,2,0,P|191:103|239:86,1,77.0000023498536,8|0,3:2|0:0,0:0:0:0:
325,153,121155,6,0,P|337:198|348:242,1,77.0000023498536,2|0,3:2|0:0,0:0:0:0:
241,370,121488,2,0,P|253:325|264:281,1,77.0000023498536,8|0,3:2|0:0,0:0:0:0:
83,226,121822,6,0,B|141:245|141:245|198:211,1,115.50000352478,2|0,3:2|0:0,0:0:0:0:
219,221,122155,1,8,3:2:0:0:
132,139,122322,2,0,P|143:67|214:50,1,154.000004699707,2|0,0:0|0:0,0:0:0:0:
345,8,122822,5,10,3:2:0:0:
345,8,122988,1,2,0:0:0:0:
453,112,123155,5,6,3:2:0:0:
367,207,123322,2,0,P|354:268|340:401,1,167.999994873047,2|2,0:0|0:0,0:0:0:0:
251,372,123822,1,2,3:2:0:0:
113,265,123988,1,2,0:0:0:0:
274,197,124155,1,10,3:2:0:0:
120,359,124322,6,0,P|104:276|31:223,1,167.999994873047,2|2,0:0|0:0,0:0:0:0:
46,131,124822,1,10,3:2:0:0:
194,99,124988,1,2,0:0:0:0:
345,70,125155,1,2,3:2:0:0:
46,131,125488,1,10,3:2:0:0:
257,335,125822,6,0,P|310:348|377:255,1,154.000004699707,6|8,3:2|3:2,0:0:0:0:
482,254,126322,1,0,0:0:0:0:
337,188,126488,2,0,P|288:191|237:196,1,77.0000023498536,2|0,3:2|0:0,0:0:0:0:
418,108,126822,2,0,P|467:111|518:116,1,77.0000023498536,8|0,3:2|0:0,0:0:0:0:
283,8,127155,6,0,P|229:44|235:111,1,115.50000352478,2|0,3:2|0:0,0:0:0:0:
206,120,127488,1,10,3:2:0:0:
20,85,127655,1,2,0:0:0:0:
134,42,127822,1,0,3:2:0:0:
134,42,127988,1,0,0:0:0:0:
134,42,128155,1,8,3:2:0:0:
134,42,128322,1,0,0:0:0:0:
95,185,128488,6,0,B|37:274|124:264|69:374,1,181.999991668702,6|8,3:2|3:2,0:0:0:0:
185,384,128988,1,0,0:0:0:0:
260,228,129155,2,0,P|213:234|146:240,1,90.9999958343508,2|0,3:2|0:0,0:0:0:0:
303,336,129488,1,8,0:2:0:0:
303,336,129572,1,0,1:2:0:0:
303,336,129655,1,0,1:2:0:0:
338,146,129822,6,0,B|384:119|384:119|484:148,1,136.499993751526,2|0,3:2|0:0,0:0:0:0:
478,176,130155,1,10,3:2:0:0:
409,336,130322,2,0,P|404:284|395:225,1,90.9999958343508,2|0,0:0|3:2,0:0:0:0:
319,174,130655,1,0,0:0:0:0:
488,85,130822,2,0,P|483:137|474:196,1,90.9999958343508,10|0,3:2|0:0,0:0:0:0:
267,62,131155,6,0,B|203:74|203:74|153:47|153:47|58:62,1,181.999991668702,6|8,3:2|3:2,0:0:0:0:
29,157,131655,2,0,P|28:206|15:275,2,90.9999958343508,0|0|0,0:0|3:2|0:0,0:0:0:0:
208,198,132155,1,10,3:2:0:0:
208,198,132322,1,2,0:0:0:0:
106,350,132488,6,0,B|86:299|57:312|49:244|68:214|87:198|114:180,1,181.999991668702,2|10,3:2|3:2,0:0:0:0:
198,34,132988,2,0,B|218:85|247:72|255:140|236:170|217:186|190:204,1,181.999991668702,2|0,0:0|0:0,0:0:0:0:
236,338,133488,1,8,3:2:0:0:
236,338,133655,1,0,0:0:0:0:
430,322,133822,6,0,B|441:266|380:216|300:249,1,181.999991668702,6|8,3:2|3:2,0:0:0:0:
204,193,134322,1,0,0:0:0:0:
382,141,134488,2,0,P|429:149|488:164,1,90.9999958343508,2|0,3:2|0:0,0:0:0:0:
306,34,134822,1,8,3:2:0:0:
306,34,134905,1,0,1:2:0:0:
306,34,134988,1,0,1:2:0:0:
204,193,135155,6,0,P|121:198|128:144,1,136.499993751526,2|0,3:2|0:0,0:0:0:0:
83,153,135488,1,10,3:2:0:0:
189,0,135655,1,2,0:0:0:0:
226,100,135822,1,0,3:2:0:0:
226,100,135988,1,0,0:0:0:0:
55,54,136155,2,0,P|52:105|41:158,1,90.9999958343508,10|0,3:2|0:0,0:0:0:0:
36,362,136488,6,0,B|68:349|68:349|188:357|188:357|233:342,3,181.999991668702,6|8|0|8,3:2|3:2|3:2|3:2,0:0:0:0:
306,384,137655,1,0,0:0:0:0:
290,177,137822,6,0,P|337:186|368:222,1,97.9999970092774,6|0,3:2|0:0,0:0:0:0:
181,221,138155,2,0,P|133:211|102:175,1,97.9999970092774,10|0,3:2|0:0,0:0:0:0:
213,348,138488,6,0,B|238:334|238:334|268:295|264:248,1,105.000004005432,6|0,3:2|0:0,0:0:0:0:
234,39,138822,2,0,B|208:57|201:106|201:106|209:134,1,105.000004005432,10|0,3:2|0:0,0:0:0:0:
432,268,139155,5,6,3:2:0:0:
256,192,139238,12,0,141822,3:2:0:0:
349,17,149822,6,0,P|321:73|370:125,1,115.50000352478,6|0,3:2|0:0,0:0:0:0:
377,120,150155,6,0,L|468:132,1,77.0000023498536,0|0,3:2|0:0,0:0:0:0:
357,233,150488,2,0,L|448:245,1,77.0000023498536,0|0,3:2|0:0,0:0:0:0:
336,347,150822,2,0,L|412:357,1,77.0000023498536,0|0,3:2|0:0,0:0:0:0:
201,304,151155,5,2,3:2:0:0:
175,229,151322,1,0,0:0:0:0:
250,206,151488,1,0,3:2:0:0:
273,279,151655,1,0,0:0:0:0:
160,223,151822,5,0,3:2:0:0:
193,321,151988,1,0,0:0:0:0:
287,290,152155,1,0,3:2:0:0:
255,193,152322,1,0,0:0:0:0:
62,256,152488,6,0,P|50:217|59:135,1,115.50000352478,2|0,3:2|0:0,0:0:0:0:
39,110,152822,6,0,B|81:97|81:97|132:106,1,77.0000023498536,0|0,3:2|0:0,0:0:0:0:
234,8,153155,2,0,B|224:50|224:50|190:90,1,77.0000023498536,0|0,3:2|0:0,0:0:0:0:
234,221,153488,2,0,B|201:191|201:191|184:142,1,77.0000023498536,0|0,3:2|0:0,0:0:0:0:
334,59,153822,5,2,3:2:0:0:
334,59,153988,1,0,0:0:0:0:
459,77,154155,1,0,3:2:0:0:
459,77,154322,1,0,0:0:0:0:
320,174,154488,5,0,3:2:0:0:
447,195,154655,1,0,0:0:0:0:
310,181,154822,1,0,3:2:0:0:
451,186,154988,1,0,0:0:0:0:
374,317,155155,6,0,B|332:327|332:327|295:318|295:318|237:333,1,115.50000352478,2|0,3:2|0:0,0:0:0:0:
245,351,155488,6,0,P|197:341|170:312,1,77.0000023498536,0|0,3:2|0:0,0:0:0:0:
34,300,155822,2,0,P|82:290|109:261,1,77.0000023498536,0|0,3:2|0:0,0:0:0:0:
247,245,156155,2,0,P|199:235|172:206,1,77.0000023498536,0|0,3:2|0:0,0:0:0:0:
18,124,156488,6,0,L|38:217,1,77.0000023498536,2|0,3:2|0:0,0:0:0:0:
160,82,156822,2,0,L|176:6,1,77.0000023498536,0|0,3:2|0:0,0:0:0:0:
301,119,157155,2,0,L|321:212,1,77.0000023498536,0|0,3:2|0:0,0:0:0:0:
449,78,157488,1,0,1:2:0:0:
452,79,157572,1,0,1:2:0:0:
455,80,157655,1,0,1:2:0:0:
458,80,157738,1,0,1:2:0:0:
461,80,157822,5,2,3:2:0:0:
444,213,157988,1,0,0:0:0:0:
310,225,158155,1,2,3:2:0:0:
462,233,158321,1,0,0:0:0:0:
381,352,158488,6,0,P|370:300|366:257,1,77.0000023498536,2|0,3:2|0:0,0:0:0:0:
306,131,158822,2,0,P|295:182|291:226,1,77.0000023498536,2|0,3:2|0:0,0:0:0:0:
201,327,159155,5,2,3:2:0:0:
116,355,159322,1,0,0:0:0:0:
38,231,159488,1,2,3:2:0:0:
123,259,159655,1,0,0:0:0:0:
209,117,159822,5,2,3:2:0:0:
21,143,159988,1,2,0:0:0:0:
194,201,160155,1,2,3:2:0:0:
78,78,160322,1,2,0:0:0:0:
133,143,160488,6,0,P|183:137|221:132,1,83.9999974365235,6|0,3:2|0:0,0:0:0:0:
348,74,160822,2,0,P|298:68|260:63,1,83.9999974365235,8|0,3:2|0:0,0:0:0:0:
287,224,161155,5,0,3:2:0:0:
452,191,161322,1,0,0:0:0:0:
381,266,161488,1,8,3:2:0:0:
357,159,161655,1,0,0:0:0:0:
487,287,161822,5,2,3:2:0:0:
487,287,161988,1,0,0:0:0:0:
298,322,162155,1,8,3:2:0:0:
298,322,162322,1,0,0:0:0:0:
355,148,162488,5,0,3:2:0:0:
385,277,162655,1,0,3:2:0:0:
259,231,162822,1,8,3:2:0:0:
477,189,162988,1,0,0:0:0:0:
368,215,163155,6,0,P|326:208|262:196,1,83.9999974365235,6|0,3:2|0:0,0:0:0:0:
184,303,163488,2,0,P|142:310|101:317,1,83.9999974365235,8|0,3:2|0:0,0:0:0:0:
19,176,163822,5,0,3:2:0:0:
37,81,163988,1,0,0:0:0:0:
133,45,164155,1,8,3:2:0:0:
217,105,164322,1,0,0:0:0:0:
101,243,164488,5,2,3:2:0:0:
125,157,164655,1,0,0:0:0:0:
207,226,164822,1,8,3:2:0:0:
182,318,164989,1,0,0:0:0:0:
226,105,165155,5,0,3:2:0:0:
135,40,165322,1,0,3:2:0:0:
31,79,165489,1,8,3:2:0:0:
12,181,165655,1,0,1:0:0:0:
127,164,165822,6,0,B|175:169|175:169|224:135,1,83.9999974365235,6|0,3:2|0:0,0:0:0:0:
299,148,166155,2,0,B|251:143|251:143|202:177,1,83.9999974365235,8|0,3:2|0:0,0:0:0:0:
173,290,166488,6,0,B|221:295|221:295|270:261,1,83.9999974365235,0|0,3:2|0:0,0:0:0:0:
372,267,166821,2,0,B|324:262|324:262|275:296,1,83.9999974365235,8|0,3:2|0:0,0:0:0:0:
486,327,167155,6,0,L|474:217,1,83.9999974365235,6|0,3:2|0:0,0:0:0:0:
457,76,167488,2,0,L|466:159,1,83.9999974365235,8|0,3:2|0:0,0:0:0:0:
383,364,167822,6,0,L|371:254,1,83.9999974365235,4|0,3:2|3:2,0:0:0:0:
349,72,168155,2,0,L|358:155,1,83.9999974365235,8|0,3:2|0:0,0:0:0:0:
255,336,168488,5,6,3:2:0:0:
85,331,168655,1,0,0:0:0:0:
172,186,168822,1,12,3:2:0:0:
342,182,168989,1,0,0:0:0:0:
82,188,169155,5,2,3:2:0:0:
174,279,169322,1,0,0:0:0:0:
258,183,169488,1,14,3:2:0:0:
172,99,169655,1,0,0:0:0:0:
338,33,169822,5,6,3:2:0:0:
334,127,169988,1,0,0:0:0:0:
438,230,170155,5,10,3:2:0:0:
434,136,170321,1,0,0:0:0:0:
335,293,170488,5,6,3:2:0:0:
227,292,170655,1,2,0:0:0:0:
119,290,170822,1,12,3:2:0:0:
12,288,170988,1,2,0:0:0:0:
174,378,171155,5,6,3:2:0:0:
3,188,173822,5,6,3:2:0:0:
509,196,176488,5,6,3:2:0:0:
325,18,179155,5,6,3:2:0:0:
126,333,181822,6,0,L|234:320,2,97.9999970092774,6|8|2,3:2|3:2|0:0,0:0:0:0:
126,333,182655,1,0,3:2:0:0:
58,268,182822,1,8,3:2:0:0:
58,268,183155,6,0,P|34:216|59:172,1,97.9999970092774,2|8,3:2|3:2,0:0:0:0:
48,181,183655,2,0,P|72:233|47:277,1,97.9999970092774,0|0,3:2|3:2,0:0:0:0:
162,243,184155,1,8,3:2:0:0:
18,73,184488,6,0,B|40:45|62:28|112:26|163:55|125:117|137:154|204:166,1,244.999992523194,2|0,3:2|3:2,0:0:0:0:
281,100,185488,2,0,L|261:35,1,48.9999985046387,10|0,3:2|0:0,0:0:0:0:
363,35,185822,6,0,P|408:35|449:72,1,97.9999970092774,2|8,3:2|3:2,0:0:0:0:
446,68,186322,1,8,3:2:0:0:
394,282,186655,1,0,3:2:0:0:
394,282,186822,1,8,3:2:0:0:
394,282,186988,1,0,3:2:0:0:
296,227,187155,6,0,B|279:193|279:193|293:111,2,97.9999970092774,6|8|2,3:2|3:2|0:0,0:0:0:0:
296,227,187988,1,0,3:2:0:0:
295,340,188155,1,8,3:2:0:0:
295,340,188488,6,0,P|236:330|179:325,1,97.9999970092774,2|8,3:2|3:2,0:0:0:0:
198,326,188988,2,0,P|257:316|314:311,1,97.9999970092774,0|0,3:2|3:2,0:0:0:0:
198,232,189488,1,8,3:2:0:0:
56,12,189822,6,0,B|7:45|6:88|6:88|49:60|101:70|132:100|131:148,1,244.999992523194,2|0,3:2|3:2,0:0:0:0:
40,211,190822,2,0,L|50:163,1,48.9999985046387,10|0,3:2|0:0,0:0:0:0:
132,307,191155,5,2,3:2:0:0:
415,216,191822,5,2,1:2:0:0:
385,206,191905,1,10,1:3:0:0:
355,206,191988,1,10,1:3:0:0:
327,216,192072,1,10,1:3:0:0:
302,232,192155,1,10,1:3:0:0:
273,242,192238,1,4,1:3:0:0:
243,242,192321,1,4,1:3:0:0:
215,231,192405,1,4,1:3:0:0:
194,211,192488,5,6,3:2:0:0:
172,57,192655,1,2,0:0:0:0:
327,89,192822,1,10,3:2:0:0:
150,73,192988,1,2,0:0:0:0:
217,230,193155,1,2,3:2:0:0:
239,11,193322,1,2,0:0:0:0:
33,78,193488,1,10,3:2:0:0:
276,158,193655,6,0,P|345:148|471:141,1,167.999994873047,2|2,0:0|0:0,0:0:0:0:
502,222,194155,1,10,3:2:0:0:
340,362,194322,1,2,0:0:0:0:
286,174,194488,1,2,3:2:0:0:
326,374,194655,1,2,0:0:0:0:
294,157,194822,1,10,3:2:0:0:
0,210,195155,6,0,B|45:207|45:207|86:228,1,77.0000023498536,6|0,3:2|0:0,0:0:0:0:
230,268,195488,2,0,B|184:270|184:270|143:249,1,77.0000023498536,8|0,3:2|0:0,0:0:0:0:
87,309,195822,6,0,L|72:389,1,77.0000023498536,2|0,3:2|0:0,0:0:0:0:
147,172,196155,2,0,L|132:96,1,77.0000023498536,8|0,3:2|0:0,0:0:0:0:
325,67,196488,6,0,P|377:72|453:87,1,115.50000352478,2|0,3:2|0:0,0:0:0:0:
461,57,196822,1,10,3:2:0:0:
484,243,196988,1,2,1:2:0:0:
484,243,197072,1,0,1:2:0:0:
484,243,197155,2,0,P|468:200|459:152,1,77.0000023498536,0|0,3:2|0:0,0:0:0:0:
337,96,197488,5,8,3:2:0:0:
337,96,197655,1,2,0:0:0:0:
240,267,197822,5,6,3:2:0:0:
70,141,197988,1,2,0:0:0:0:
214,111,198155,1,10,3:2:0:0:
94,292,198322,2,0,P|84:346|83:406,1,83.9999974365235,2|2,0:0|3:2,0:0:0:0:
15,231,198655,1,2,0:0:0:0:
204,265,198822,1,10,3:2:0:0:
131,54,198988,6,0,P|64:72|69:178,1,167.999994873047,2|2,0:0|0:0,0:0:0:0:
211,164,199488,1,10,3:2:0:0:
283,44,199655,1,2,0:0:0:0:
367,266,199822,1,2,3:2:0:0:
214,85,199988,1,2,0:0:0:0:
449,58,200155,1,10,3:2:0:0:
472,376,200488,6,0,P|399:328|306:357,1,154.000004699707,6|8,3:2|3:2,0:0:0:0:
249,384,200988,1,0,0:0:0:0:
192,241,201155,2,0,P|187:202|190:154,1,77.0000023498536,2|0,3:2|0:0,0:0:0:0:
44,284,201488,2,0,P|47:244|61:198,1,77.0000023498536,8|0,3:2|0:0,0:0:0:0:
220,66,201822,6,0,P|272:93|284:159,1,115.50000352478,2|0,3:2|0:0,0:0:0:0:
272,177,202155,1,10,3:2:0:0:
99,84,202322,1,2,0:0:0:0:
215,34,202488,1,0,3:2:0:0:
215,34,202655,1,0,0:0:0:0:
215,34,202822,1,8,3:2:0:0:
215,34,202988,1,0,0:0:0:0:
165,216,203155,6,0,B|127:234|88:230|88:230|44:192|9:147,1,181.999991668702,6|8,3:2|3:2,0:0:0:0:
28,302,203655,1,0,0:0:0:0:
253,272,203822,2,0,P|268:320|279:380,1,90.9999958343508,2|0,3:2|0:0,0:0:0:0:
148,205,204155,1,8,3:2:0:0:
148,205,204238,1,0,1:2:0:0:
148,205,204322,1,0,1:2:0:0:
368,234,204488,6,0,P|389:215|410:96,1,136.499993751526,2|0,3:2|0:0,0:0:0:0:
441,95,204822,1,10,3:2:0:0:
259,162,204988,1,2,0:0:0:0:
259,162,205155,1,0,3:2:0:0:
222,44,205322,1,0,0:0:0:0:
140,241,205488,2,0,P|130:290|123:345,1,90.9999958343508,10|0,3:2|0:0,0:0:0:0:
3,72,205822,6,0,B|50:39|106:49|123:116|144:132|202:123,1,181.999991668702,6|8,3:2|3:2,0:0:0:0:
239,24,206322,2,0,L|358:13,2,90.9999958343508,0|0|0,0:0|3:2|0:0,0:0:0:0:
355,183,206822,1,10,3:2:0:0:
355,183,206988,1,2,0:0:0:0:
495,11,207155,6,0,P|481:46|452:208,1,181.999991668702,2|10,3:2|3:2,0:0:0:0:
371,384,207655,2,0,P|370:346|333:185,1,181.999991668702,2|0,0:0|0:0,0:0:0:0:
483,305,208155,1,8,3:2:0:0:
483,305,208322,1,0,0:0:0:0:
254,340,208488,6,0,P|161:263|182:235,1,181.999991668702,6|8,3:2|3:2,0:0:0:0:
250,160,208988,1,0,0:0:0:0:
59,99,209155,2,0,P|69:153|73:206,1,90.9999958343508,2|0,3:2|0:0,0:0:0:0:
238,12,209488,1,8,3:2:0:0:
238,12,209572,1,0,1:2:0:0:
238,12,209655,1,0,1:2:0:0:
325,219,209822,6,0,P|393:211|491:196,1,136.499993751526,2|0,3:2|0:0,0:0:0:0:
486,228,210155,1,10,3:2:0:0:
511,62,210322,2,0,P|459:55|407:45,1,90.9999958343508,2|0,0:0|3:2,0:0:0:0:
314,10,210655,1,0,0:0:0:0:
314,241,210822,2,0,P|269:249|224:254,1,90.9999958343508,10|0,3:2|0:0,0:0:0:0:
90,48,211155,6,0,B|45:121|111:148|67:228,3,181.999991668702,6|8|0|8,3:2|3:2|3:2|3:2,0:0:0:0:
94,335,212322,1,0,0:0:0:0:
215,152,212488,6,0,B|226:112|226:112|204:34,1,105.000004005432,6|0,3:2|0:0,0:0:0:0:
299,231,212822,2,0,B|288:271|288:271|310:349,1,105.000004005432,10|0,3:2|0:0,0:0:0:0:
83,253,213155,6,0,B|119:241|163:240|163:240|232:265,1,112,6|0,3:2|0:0,0:0:0:0:
428,129,213488,2,0,B|392:141|348:142|348:142|279:117,1,112,10|0,3:2|0:0,0:0:0:0:
113,13,213822,6,0,L|100:108,1,70,6|0,3:2|0:0,0:0:0:0:
18,180,214155,2,0,P|82:171|176:163,1,140,8|0,3:2|3:2,0:0:0:0:
246,102,214655,1,0,0:0:0:0:
163,269,214822,2,0,P|175:307|186:365,1,70,8|0,3:2|0:0,0:0:0:0:
292,382,215155,5,2,3:2:0:0:
292,382,215322,1,0,0:0:0:0:
379,246,215488,2,0,L|281:242,1,70,8|0,3:2|0:0,0:0:0:0:
233,158,215822,5,2,3:2:0:0:
322,0,215988,1,0,3:2:0:0:
225,44,216155,2,0,L|169:32,1,35,8|0,1:2|1:2,1:2:0:0:
326,127,216322,2,0,L|360:134,1,35,0|0,1:2|1:2,1:2:0:0:
206,261,216488,6,0,P|163:271|117:280,1,70,2|0,3:2|0:0,0:0:0:0:
25,240,216822,2,0,P|80:240|120:331,1,140,8|0,3:2|3:2,0:0:0:0:
203,374,217322,1,0,0:0:0:0:
329,301,217488,2,0,P|319:258|310:212,1,70,8|0,3:2|0:0,0:0:0:0:
398,162,217822,5,2,3:2:0:0:
398,162,217988,1,0,0:0:0:0:
443,309,218155,2,0,P|435:343|427:377,1,70,8|0,3:2|0:0,0:0:0:0:
262,225,218488,5,0,3:2:0:0:
368,237,218655,1,0,3:2:0:0:
217,245,218822,1,8,3:2:0:0:
415,215,218988,1,0,0:0:0:0:
290,73,219155,6,0,P|277:115|270:166,1,70,6|0,3:2|0:0,0:0:0:0:
136,167,219488,2,0,P|62:132|67:75,1,140,8|0,3:2|3:2,0:0:0:0:
148,13,219988,1,0,0:0:0:0:
273,75,220155,2,0,P|286:117|293:168,1,70,8|0,3:2|0:0,0:0:0:0:
254,268,220488,5,2,3:2:0:0:
254,268,220655,1,0,0:0:0:0:
370,200,220822,2,0,P|410:202|451:214,1,70,8|0,3:2|0:0,0:0:0:0:
341,348,221155,5,2,3:2:0:0:
223,371,221322,1,0,3:2:0:0:
210,260,221488,1,8,3:2:0:0:
94,246,221655,1,0,0:0:0:0:
237,154,221822,6,0,P|244:119|249:73,1,70,2|0,3:2|0:0,0:0:0:0:
106,1,222155,2,0,P|120:67|126:159,1,140,8|0,3:2|3:2,0:0:0:0:
61,230,222655,1,0,0:0:0:0:
200,289,222822,2,0,P|204:323|211:358,1,70,8|0,3:2|0:0,0:0:0:0:
322,368,223155,5,2,3:2:0:0:
322,368,223322,1,0,0:0:0:0:
402,248,223488,1,8,3:2:0:0:
270,174,223655,1,0,0:0:0:0:
371,45,223822,5,2,1:2:0:0:
340,40,223905,1,0,1:2:0:0:
308,36,223988,1,2,1:2:0:0:
276,35,224072,1,0,1:2:0:0:
244,36,224155,1,0,1:2:0:0:
212,37,224238,1,0,1:2:0:0:
180,40,224322,1,0,1:2:0:0:
149,45,224405,1,0,1:2:0:0:
116,56,224488,6,0,B|63:117|63:117|103:209,1,154.000004699707,6|8,3:2|3:2,0:0:0:0:
42,275,224988,1,0,0:0:0:0:
197,366,225155,2,0,B|250:305|250:305|210:213,1,154.000004699707,0|8,3:2|3:2,0:0:0:0:
271,147,225655,1,0,0:0:0:0:
361,314,225822,6,0,L|451:323,1,77.0000023498536,2|0,3:2|0:0,0:0:0:0:
512,169,226155,2,0,L|422:178,1,77.0000023498536,8|0,3:2|0:0,0:0:0:0:
271,147,226488,2,0,L|210:134,2,38.5000011749268,2|0|0,3:2|1:2|3:2,0:0:0:0:
369,91,226822,1,8,1:2:0:0:
353,60,226905,1,0,1:2:0:0:
325,39,226988,1,0,1:2:0:0:
290,37,227072,1,0,1:2:0:0:
256,46,227155,6,0,P|260:96|264:139,1,77.0000023498536,2|0,3:2|0:0,0:0:0:0:
194,227,227488,2,0,L|31:208,1,154.000004699707,8|0,3:2|3:2,0:0:0:0:
39,336,227988,1,0,0:0:0:0:
206,331,228155,2,0,P|209:292|212:254,1,77.0000023498536,8|0,3:2|0:0,0:0:0:0:
316,197,228488,6,0,L|329:296,1,77.0000023498536,2|0,3:2|0:0,0:0:0:0:
496,335,228822,1,8,3:2:0:0:
496,335,228988,1,0,0:0:0:0:
403,169,229155,1,0,3:2:0:0:
412,360,229322,1,0,3:2:0:0:
480,143,229488,1,8,1:2:0:0:
446,134,229572,1,0,1:2:0:0:
412,127,229655,1,0,1:2:0:0:
378,120,229738,1,0,1:2:0:0:
344,109,229822,6,0,P|343:66|433:33,1,154.000004699707,6|8,3:2|3:2,0:0:0:0:
446,134,230322,1,0,0:0:0:0:
295,231,230488,2,0,P|252:232|217:143,1,154.000004699707,0|8,3:2|3:2,0:0:0:0:
334,115,230988,1,0,0:0:0:0:
164,41,231155,6,0,P|125:46|71:54,1,77.0000023498536,2|0,3:2|0:0,0:0:0:0:
0,199,231488,2,0,P|38:204|76:209,1,77.0000023498536,8|0,3:2|0:0,0:0:0:0:
192,372,231822,1,2,1:2:0:0:
192,372,231905,1,0,1:2:0:0:
192,372,231988,1,0,1:2:0:0:
266,248,232155,1,8,1:2:0:0:
261,214,232238,1,0,1:2:0:0:
256,180,232322,1,0,1:2:0:0:
248,147,232405,1,0,1:2:0:0:
242,113,232488,6,0,P|288:99|345:106,1,77.0000023498536,2|0,3:2|0:0,0:0:0:0:
451,20,232822,2,0,P|437:101|424:186,1,154.000004699707,8|0,3:2|3:2,0:0:0:0:
479,286,233322,1,0,0:0:0:0:
298,321,233488,1,8,3:2:0:0:
324,202,233655,1,0,0:0:0:0:
168,273,233822,6,0,L|179:380,1,77.0000023498536,2|0,3:2|0:0,0:0:0:0:
42,230,234155,2,0,L|54:144,1,77.0000023498536,8|0,3:2|0:0,0:0:0:0:
197,34,234488,5,0,1:2:0:0:
239,39,234572,1,0,1:2:0:0:
271,66,234655,1,0,1:2:0:0:
283,106,234738,1,0,1:2:0:0:
274,147,234822,1,0,1:2:0:0:
272,189,234905,1,0,1:2:0:0:
280,230,234988,1,0,1:2:0:0:
310,259,235072,1,0,1:2:0:0:
348,262,235155,1,0,1:2:0:0:
