osu file format v14

[General]
AudioFilename: audio.mp3
AudioLeadIn: 0
PreviewTime: 61848
Countdown: 0
SampleSet: Normal
StackLeniency: 0.7
Mode: 0
LetterboxInBreaks: 0
WidescreenStoryboard: 1

[Editor]
DistanceSpacing: 1
BeatDivisor: 4
GridSize: 32
TimelineZoom: 2.1

[Metadata]
Title:one
TitleUnicode:one
Artist:Yousei Teikoku
ArtistUnicode:妖精帝國
Creator:Lasse
Version:Normal
Source:クイーンズブレイド スパイラルカオス
Tags:Yōsei Japanese Rock gothic lolita agitator lantis Queen's Blade: Spiral Chaos opening video game
BeatmapID:2464766
BeatmapSetID:1182149

[Difficulty]
HPDrainRate:3
CircleSize:3.4
OverallDifficulty:5
ApproachRate:6
SliderMultiplier:0.999999999999999
SliderTickRate:1

[Events]
//Background and Video events
0,0,"q1.jpg",0,0
//Break Periods
2,85456,94627
2,149877,158072
//Storyboard Layer 0 (Background)
//Storyboard Layer 1 (Fail)
//Storyboard Layer 2 (Pass)
//Storyboard Layer 3 (Foreground)
//Storyboard Layer 4 (Overlay)
//Storyboard Sound Samples

[TimingPoints]
625,315.789473684211,4,1,1,60,1,0
10730,-100,4,1,1,67,0,0
20835,-100,4,1,1,60,0,0
21151,-111.111111111111,4,2,1,58,0,0
30625,-111.111111111111,4,2,1,62,0,0
30940,-100,4,1,1,67,0,0
41046,-100,4,1,1,60,0,0
41361,-111.111111111111,4,2,1,58,0,0
50835,-111.111111111111,4,2,1,62,0,0
51151,-99.9999999999999,4,1,1,64,0,0
58730,-100,4,1,1,66,0,0
61888,-100,4,2,1,48,0,0
61967,-100,4,2,1,50,0,0
62046,-100,4,2,1,52,0,0
62125,-100,4,2,1,54,0,0
62203,-100,4,2,1,56,0,0
62282,-100,4,2,1,58,0,0
62361,-100,4,2,1,60,0,0
62440,-100,4,2,1,62,0,0
62519,-90.9090909090909,4,1,1,70,0,1
72151,-90.9090909090909,4,1,2,70,0,1
72467,-90.9090909090909,4,1,1,70,0,0
72625,-90.9090909090909,4,1,1,70,0,1
81940,-90.9090909090909,4,1,1,68,0,1
82098,-90.9090909090909,4,1,1,66,0,1
82414,-90.9090909090909,4,1,1,64,0,1
82730,-111.111111111111,4,1,1,60,0,0
83046,-111.111111111111,4,1,1,58,0,0
84625,-111.111111111111,4,2,1,62,0,0
84940,-111.111111111111,4,2,1,64,0,0
85256,-100,4,1,1,67,0,0
95361,-100,4,1,1,60,0,0
95677,-111.111111111111,4,2,1,58,0,0
105151,-111.111111111111,4,2,1,62,0,0
105467,-100,4,1,1,64,0,0
113046,-100,4,1,1,66,0,0
116203,-100,4,2,1,50,0,0
116282,-100,4,2,1,52,0,0
116361,-100,4,2,1,54,0,0
116440,-100,4,2,1,56,0,0
116519,-100,4,2,1,58,0,0
116598,-100,4,2,1,60,0,0
116677,-100,4,2,1,62,0,0
116756,-100,4,2,1,64,0,0
116835,-90.9090909090909,4,1,1,70,0,1
125677,-90.9090909090909,4,1,2,70,0,1
125756,-90.9090909090909,4,1,1,70,0,1
126151,-90.9090909090909,4,1,2,70,0,1
126230,-90.9090909090909,4,1,1,70,0,1
126782,-90.9090909090909,4,1,1,70,0,0
126940,-90.9090909090909,4,1,1,70,0,1
136256,-90.9090909090909,4,1,1,68,0,1
136414,-90.9090909090909,4,1,1,66,0,1
136730,-90.9090909090909,4,1,1,64,0,1
137046,-111.111111111111,4,1,1,60,0,0
137361,-111.111111111111,4,1,1,58,0,0
138309,-100,4,1,1,60,0,0
138940,-100,4,2,1,62,0,0
139256,-100,4,2,1,64,0,0
139572,-90.9090909090909,4,1,2,70,0,0
139730,-90.9090909090909,4,1,1,70,0,0
140993,-90.9090909090909,4,1,2,70,0,0
141151,-90.9090909090909,4,1,1,70,0,0
141309,-90.9090909090909,4,1,2,70,0,0
141467,-90.9090909090909,4,1,1,70,0,0
142098,-90.9090909090909,4,1,2,70,0,0
142256,-90.9090909090909,4,1,1,70,0,0
143203,-90.9090909090909,4,1,2,70,0,0
143361,-90.9090909090909,4,1,1,70,0,0
144625,-90.9090909090909,4,1,2,70,0,0
144782,-90.9090909090909,4,1,1,70,0,0
146046,-90.9090909090909,4,1,2,70,0,0
146203,-90.9090909090909,4,1,1,70,0,0
147782,-90.9090909090909,4,1,2,70,0,0
147940,-90.9090909090909,4,1,1,70,0,0
148256,-90.9090909090909,4,1,2,70,0,0
148572,-90.9090909090909,4,1,1,68,0,0
149046,-90.9090909090909,4,1,1,66,0,0
149361,-90.9090909090909,4,1,1,64,0,0
149519,-90.9090909090909,4,2,1,60,0,0
149598,-90.9090909090909,4,2,1,58,0,0
149677,-200,4,2,1,56,0,0
149756,-200,4,2,1,50,0,0
159151,-111.111111111111,4,1,1,56,0,0
159782,-100,4,1,1,64,0,0
160098,-99.9999999999999,4,1,1,64,0,0
167361,-99.9999999999999,4,1,1,66,0,0
171151,-99.9999999999999,4,1,1,68,0,0
173046,-99.9999999999999,4,2,1,52,0,0
173125,-99.9999999999999,4,2,1,54,0,0
173203,-99.9999999999999,4,2,1,56,0,0
173282,-99.9999999999999,4,2,1,58,0,0
173361,-99.9999999999999,4,2,1,60,0,0
173440,-99.9999999999999,4,2,1,62,0,0
173519,-99.9999999999999,4,2,1,64,0,0
173598,-99.9999999999999,4,2,1,66,0,0
173677,-90.9090909090909,4,1,1,72,0,1
183309,-90.9090909090909,4,1,2,72,0,1
183625,-90.9090909090909,4,1,1,72,0,0
183782,-90.9090909090909,4,1,1,72,0,1
193098,-90.9090909090909,4,1,1,70,0,1
193256,-90.9090909090909,4,1,1,68,0,1
193572,-90.9090909090909,4,1,1,66,0,1
193888,-111.111111111111,4,1,1,60,0,0
194203,-111.111111111111,4,1,1,58,0,0
195782,-111.111111111111,4,1,1,62,0,0
196414,-111.111111111111,4,1,1,60,0,0
214098,-111.111111111111,4,1,1,62,0,0
215361,-100,4,1,1,64,0,0
216309,-133.333333333333,4,1,1,65,0,0
216625,-90.9090909090909,4,1,1,72,0,1
226414,-90.9090909090909,4,1,1,72,0,0
226730,-90.9090909090909,4,1,1,74,0,1
234309,-90.9090909090909,4,1,1,76,0,1
236677,-90.9090909090909,4,1,1,74,0,1
236756,-90.9090909090909,4,1,1,72,0,1
236835,-100,4,1,99,70,0,0

[Colours]
Combo1 : 240,140,140
Combo2 : 200,180,220
Combo3 : 240,200,155
Combo4 : 150,185,220

[HitObjects]
71,91,10098,5,10,0:1:0:0:
71,91,10256,1,10,0:3:0:0:
44,238,10730,6,2,B|100:226|89:263|147:252,1,99.9999999999999,14|8,0:3|0:2,0:1:0:0:
187,236,11203,1,2,0:2:0:0:
247,315,11519,1,10,0:3:0:0:
346,306,11835,1,10,0:3:0:0:
423,369,12151,1,10,0:3:0:0:
495,299,12467,1,8,0:3:0:0:
495,299,12625,2,0,B|510:250|493:197,1,99.9999999999999,2|8,0:2|0:2,0:0:0:0:
469,156,13098,5,8,0:3:0:0:
469,156,13256,2,2,L|363:146,1,99.9999999999999,10|8,0:3|0:2,0:1:0:0:
331,179,13730,1,2,0:2:0:0:
296,272,14046,1,10,0:3:0:0:
203,309,14361,1,10,0:3:0:0:
104,290,14677,1,8,0:3:0:0:
30,225,14993,1,8,0:3:0:0:
28,124,15309,1,8,0:3:0:0:
28,124,15467,2,0,L|44:73,1,50,8|8,0:2|0:3,0:0:0:0:
73,36,15782,6,2,B|119:19|188:37,1,99.9999999999999,14|8,0:3|0:2,0:1:0:0:
210,64,16256,1,2,0:2:0:0:
304,31,16572,1,10,0:3:0:0:
342,123,16888,1,10,0:3:0:0:
440,107,17203,1,10,0:3:0:0:
490,193,17519,1,8,0:3:0:0:
490,193,17677,2,0,B|503:241|493:294,1,99.9999999999999,2|8,0:2|0:2,0:0:0:0:
477,339,18151,5,8,0:3:0:0:
477,339,18309,2,2,L|363:332,1,99.9999999999999,10|8,0:3|0:2,0:1:0:0:
342,368,18782,1,2,0:2:0:0:
261,309,19098,1,10,0:3:0:0:
317,226,19414,1,10,0:3:0:0:
250,150,19730,1,8,0:3:0:0:
319,77,20046,1,8,0:3:0:0:
243,11,20361,1,8,0:3:0:0:
243,11,20519,2,0,B|197:34|197:34|129:18,1,99.9999999999999,10|12,0:1|1:3,0:0:0:0:
67,60,21151,6,0,B|28:116|56:200,1,134.999995880127,10|10,0:2|0:3,0:2:0:0:
70,281,21940,2,2,L|50:373,2,89.999997253418,10|8|8,0:3|0:3|0:3,0:2:0:0:
146,233,22888,1,8,0:3:0:0:
146,233,23046,2,0,B|190:243|190:243|245:225,1,89.999997253418,10|10,0:2|0:3,0:2:0:0:
294,163,23677,6,0,B|285:85|344:38,1,134.999995880127,10|10,0:2|0:3,0:2:0:0:
427,18,24467,1,10,0:3:0:0:
483,88,24782,2,0,B|490:133|473:177,1,89.999997253418,10|8,0:3|0:3,0:0:0:0:
365,374,25888,1,14,0:3:0:0:
306,305,26203,6,0,B|282:244|297:166,1,134.999995880127,10|10,0:2|0:3,0:2:0:0:
358,100,26993,2,2,L|463:105,2,89.999997253418,10|8|8,0:3|0:3|0:3,0:2:0:0:
281,53,27940,1,10,0:3:0:0:
281,53,28098,2,0,B|238:31|189:31,1,89.999997253418,8|10,0:2|0:3,0:0:0:0:
114,73,28730,6,0,B|85:140|120:210,1,134.999995880127,10|10,0:2|0:3,0:0:0:0:
200,239,29519,2,2,B|295:231,1,89.999997253418,10|8,0:3|0:3,0:2:0:0:
334,231,29993,1,10,0:2:0:0:
334,231,30151,2,0,B|371:262|368:323|317:348,1,134.999995880127,8|8,0:3|0:2,0:0:0:0:
217,358,30940,6,2,B|184:353|184:353|159:368|159:368|113:363,1,99.9999999999999,14|8,0:3|0:2,0:1:0:0:
73,350,31414,1,2,0:2:0:0:
9,273,31730,1,10,0:3:0:0:
38,177,32046,1,10,0:3:0:0:
136,161,32361,1,10,0:3:0:0:
220,224,32677,1,8,0:3:0:0:
220,224,32835,2,0,B|269:239|322:222,1,99.9999999999999,2|8,0:2|0:2,0:0:0:0:
366,203,33309,5,8,0:3:0:0:
366,203,33467,2,2,L|370:91,1,99.9999999999999,10|8,0:3|0:2,0:1:0:0:
365,52,33940,1,2,0:2:0:0:
267,76,34256,1,10,0:3:0:0:
180,25,34572,1,10,0:3:0:0:
83,50,34888,1,8,0:3:0:0:
51,144,35203,1,8,0:3:0:0:
105,234,35519,1,8,0:3:0:0:
105,234,35677,2,0,B|125:244|163:244,1,50,8|8,0:2|0:3,0:0:0:0:
199,222,35993,6,2,B|220:111,1,99.9999999999999,14|8,0:3|0:2,0:1:0:0:
254,89,36467,1,2,0:2:0:0:
353,76,36782,1,10,0:3:0:0:
433,134,37098,1,10,0:3:0:0:
440,233,37414,1,10,0:3:0:0:
401,325,37730,1,8,0:3:0:0:
401,325,37888,2,0,B|354:307|300:311,1,99.9999999999999,2|8,0:2|0:2,0:0:0:0:
265,344,38361,5,8,0:3:0:0:
265,344,38519,2,2,B|218:362|164:358,1,99.9999999999999,10|8,0:3|0:2,0:1:0:0:
116,358,38993,1,2,0:2:0:0:
27,310,39309,1,10,0:3:0:0:
1,213,39625,1,10,0:3:0:0:
38,120,39940,1,8,0:3:0:0:
134,93,40256,1,8,0:3:0:0:
227,141,40572,1,8,0:3:0:0:
227,141,40730,2,0,B|269:164|269:164|330:134,1,99.9999999999999,10|12,0:1|1:3,0:0:0:0:
390,87,41361,6,0,B|464:59|513:114,1,134.999995880127,10|10,0:2|0:3,0:2:0:0:
511,204,42151,2,2,L|494:297,2,89.999997253418,10|8|8,0:3|0:3|0:3,0:2:0:0:
464,132,43098,1,8,0:3:0:0:
464,132,43256,2,0,B|424:106|363:104,1,89.999997253418,10|10,0:2|0:3,0:2:0:0:
315,169,43888,6,0,B|317:320,1,134.999995880127,10|10,0:2|0:3,0:2:0:0:
249,363,44677,1,10,0:3:0:0:
159,359,44993,2,0,B|70:349,1,89.999997253418,10|8,0:3|0:3,0:0:0:0:
17,275,45625,2,0,B|12:194|58:143,1,134.999995880127,10|14,0:3|0:3,0:0:0:0:
137,116,46414,6,0,B|202:124|275:91,1,134.999995880127,10|8,0:2|0:3,0:2:0:0:
350,50,47203,2,2,B|384:27|451:25,2,89.999997253418,10|8|8,0:3|0:3|0:3,0:2:0:0:
302,126,48151,1,10,0:3:0:0:
302,126,48309,2,0,B|287:224,1,89.999997253418,8|10,0:2|0:3,0:0:0:0:
239,290,48940,6,0,B|182:326|100:309,1,134.999995880127,10|8,0:2|0:3,0:0:0:0:
37,254,49730,2,2,B|22:145,2,89.999997253418,10|8|8,0:3|0:3|0:3,0:2:0:0:
99,326,50677,1,10,0:3:0:0:
99,326,50835,2,0,B|136:344|187:336,1,89.999997253418,8|14,0:2|0:3,0:0:0:0:
279,298,51467,5,10,0:2:0:0:
231,210,51782,1,10,0:2:0:0:
285,126,52098,1,10,0:3:0:0:
214,54,52414,2,0,B|167:31|116:40,1,99.9999999999999,10|10,0:2|0:3,0:2:0:0:
77,71,52888,1,8,0:2:0:0:
77,71,53046,2,0,B|37:104|36:161,2,99.9999999999999,10|10|14,0:3|0:2|0:3,0:0:0:0:
168,12,53993,5,10,0:2:0:0:
254,61,54309,1,10,0:2:0:0:
348,28,54625,1,10,0:3:0:0:
434,79,54940,2,0,B|456:125|449:185,1,99.9999999999999,10|8,0:3|0:3,0:0:0:0:
439,228,55414,1,8,0:2:0:0:
439,228,55572,2,0,B|427:267|427:267|428:286|428:286|411:336,2,99.9999999999999,10|8|14,0:3|0:2|0:3,0:0:0:0:
409,132,56519,5,10,0:2:0:0:
321,178,56835,1,10,0:2:0:0:
234,128,57151,1,10,0:3:0:0:
145,173,57467,2,0,B|39:179,1,99.9999999999999,10|10,0:2|0:3,0:2:0:0:
20,222,57940,1,8,0:2:0:0:
20,222,58098,2,0,B|-1:273|29:321,1,99.9999999999999,8|10,0:3|0:2,0:0:0:0:
124,366,58730,6,2,L|243:347,1,99.9999999999999,14|8,0:3|0:2,0:2:0:0:
320,373,59361,2,0,L|439:354,1,99.9999999999999,10|8,0:2|0:3,0:0:0:0:
487,283,59993,2,0,B|508:242|495:184,1,99.9999999999999,10|8,0:1|0:3,0:0:0:0:
466,144,60467,2,0,B|416:155|368:119,1,99.9999999999999,10|8,0:1|0:3,0:0:0:0:
329,94,60940,1,10,0:1:0:0:
276,8,61256,1,14,0:3:0:0:
169,150,61888,6,0,B|175:174|175:174|166:197|166:197|173:222|173:222|163:245|163:245|172:271|172:271|167:306,1,150,8|8,2:2|2:2,0:0:0:0:
127,329,62519,6,2,L|11:321,2,110.000003356934,14|8|8,0:3|0:2|0:3,0:1:0:0:
224,380,63467,1,10,0:2:0:0:
317,322,63782,1,2,0:2:0:0:
418,377,64098,1,10,0:2:0:0:
418,377,64256,1,10,0:2:0:0:
480,286,64572,2,0,B|493:233|475:161,1,110.000003356934,10|2,0:3|0:2,0:2:0:0:
462,123,65046,5,10,0:3:0:0:
385,201,65361,1,10,0:2:0:0:
276,180,65677,1,10,0:3:0:0:
192,251,65993,1,10,0:1:0:0:
93,200,66309,2,2,B|69:159|71:93,1,110.000003356934,2|10,0:2|0:2,0:1:0:0:
94,46,66782,1,10,0:3:0:0:
94,46,66940,2,2,B|135:22|200:24,1,110.000003356934,8|8,0:3|0:2,0:1:0:0:
315,63,67572,6,0,B|373:62|423:79,1,110.000003356934,14|10,0:3|0:1,0:0:0:0:
470,178,68203,2,0,B|471:236|453:286,1,110.000003356934,10|10,0:3|0:1,0:0:0:0:
390,377,68835,1,2,0:2:0:0:
309,309,69151,1,10,0:2:0:0:
309,309,69309,2,2,B|286:136,1,165.0000050354,10|10,0:2|0:2,0:1:0:0:
204,57,70098,6,2,B|155:33|91:49,1,110.000003356934,10|8,0:3|0:2,0:1:0:0:
25,132,70730,2,2,B|18:187|45:184|39:246,1,110.000003356934,10|10,0:3|0:2,0:1:0:0:
15,347,71361,1,2,0:2:0:0:
121,374,71677,1,8,0:2:0:0:
121,374,71835,1,10,0:3:0:0:
187,286,72151,1,10,0:1:0:0:
301,331,72467,5,8,0:2:0:0:
301,331,72625,2,2,B|355:348|406:315,2,110.000003356934,14|8|8,0:3|0:2|0:3,0:1:0:0:
195,299,73572,1,10,0:2:0:0:
174,191,73888,1,2,0:2:0:0:
273,142,74203,1,10,0:2:0:0:
273,142,74361,1,10,0:2:0:0:
361,212,74677,2,0,B|416:228|468:204,1,110.000003356934,10|2,0:3|0:2,0:2:0:0:
511,169,75151,5,10,0:3:0:0:
481,63,75467,1,10,0:2:0:0:
378,23,75782,1,10,0:3:0:0:
279,72,76098,1,10,0:1:0:0:
258,180,76414,2,2,B|250:218|250:218|258:244|258:244|248:297,1,110.000003356934,2|8,0:2|0:2,0:1:0:0:
232,341,76888,1,10,0:3:0:0:
232,341,77046,2,2,B|183:368|127:342,1,110.000003356934,8|8,0:3|0:2,0:1:0:0:
38,275,77677,6,2,B|20:223|29:164,1,110.000003356934,14|8,0:3|0:2,0:1:0:0:
76,67,78309,2,2,B|211:48,1,110.000003356934,10|10,0:3|0:2,0:1:0:0:
264,128,78940,1,2,0:1:0:0:
366,83,79256,1,10,0:1:0:0:
366,83,79414,2,2,B|417:41|492:82|475:149,1,165.0000050354,10|10,0:2|0:1,0:1:0:0:
420,238,80203,6,2,B|307:222,1,110.000003356934,10|8,0:3|0:2,0:1:0:0:
218,162,80835,2,0,B|238:100|192:60,1,110.000003356934,10|8,0:3|0:2,0:0:0:0:
96,11,81467,1,2,0:2:0:0:
36,104,81782,1,10,0:2:0:0:
36,104,81940,2,2,B|29:128|37:158|37:158|51:177|51:177|32:220|43:262,1,165.0000050354,10|8,0:3|0:3,0:1:0:0:
87,348,82730,6,0,B|178:320|281:335,1,179.999994506836,14|8,0:3|0:3,0:0:0:0:
439,378,83993,2,0,B|474:305|454:200,2,179.999994506836,8|8|14,0:3|0:2|0:3,0:0:0:0:
402,298,95677,6,0,B|337:274|249:298,1,134.999995880127,10|10,0:2|0:3,0:2:0:0:
185,332,96467,2,2,B|142:350|85:340,2,89.999997253418,10|8|8,0:3|0:3|0:3,0:2:0:0:
264,290,97414,1,8,0:3:0:0:
264,290,97572,2,0,B|264:249|279:201,1,89.999997253418,10|10,0:2|0:3,0:2:0:0:
350,145,98203,6,0,B|353:67|283:19,1,134.999995880127,10|10,0:2|0:3,0:2:0:0:
206,8,98993,1,10,0:3:0:0:
137,66,99309,2,0,B|121:113|121:154,1,89.999997253418,10|8,0:3|0:3,0:0:0:0:
185,218,99940,2,0,B|235:213|265:275|220:313,1,134.999995880127,10|14,0:3|0:3,0:0:0:0:
150,373,100730,6,0,B|110:347|110:347|75:348|75:348|19:308,1,134.999995880127,10|10,0:2|0:3,0:2:0:0:
16,229,101519,2,0,B|13:182|42:131,2,89.999997253418,10|8|8,0:3|0:3|0:3,0:2:0:0:
54,310,102467,1,10,0:3:0:0:
54,310,102625,2,0,B|98:299|155:304,1,89.999997253418,8|10,0:2|0:3,0:0:0:0:
225,349,103256,6,0,B|294:360|368:340,1,134.999995880127,10|10,0:2|0:3,0:0:0:0:
409,264,104046,2,0,B|436:214|414:158,1,89.999997253418,10|8,0:3|0:3,0:2:0:0:
400,142,104519,1,10,0:2:0:0:
400,142,104677,2,0,B|392:98|349:51,1,89.999997253418,8|10,0:3|0:2,0:0:0:0:
200,30,105467,1,14,0:3:0:0:
145,112,105782,5,10,0:2:0:0:
227,168,106098,1,10,0:2:0:0:
222,267,106414,1,10,0:3:0:0:
150,336,106730,2,0,B|99:345|51:320,1,99.9999999999999,10|10,0:2|0:3,0:2:0:0:
28,277,107203,1,8,0:2:0:0:
28,277,107361,2,0,B|12:229|32:178,2,99.9999999999999,10|10|14,0:3|0:2|0:3,0:0:0:0:
100,357,108309,5,10,0:2:0:0:
193,323,108625,1,10,0:2:0:0:
286,358,108940,1,10,0:3:0:0:
375,313,109256,2,0,B|392:263|381:205,1,99.9999999999999,10|8,0:3|0:3,0:0:0:0:
355,178,109730,1,8,0:2:0:0:
355,178,109888,2,0,B|319:171|319:171|299:177|299:177|242:167,2,99.9999999999999,10|8|14,0:3|0:2|0:3,0:0:0:0:
436,245,110835,5,10,0:2:0:0:
504,172,111151,1,10,0:2:0:0:
427,107,111467,1,10,0:3:0:0:
355,178,111782,2,0,B|305:200|254:174,1,99.9999999999999,10|10,0:2|0:3,0:2:0:0:
221,149,112256,1,8,0:2:0:0:
221,149,112414,2,0,B|229:100|207:50,1,99.9999999999999,8|10,0:3|0:2,0:0:0:0:
104,17,113046,6,2,B|70:58|65:107,1,99.9999999999999,14|8,0:3|0:2,0:2:0:0:
29,201,113677,2,0,B|30:251|56:301,1,99.9999999999999,10|8,0:2|0:3,0:0:0:0:
138,351,114309,2,0,B|174:336|244:341,1,99.9999999999999,10|8,0:1|0:3,0:0:0:0:
286,348,114782,2,0,B|322:363|392:358,1,99.9999999999999,10|8,0:1|0:3,0:0:0:0:
434,348,115256,1,10,0:1:0:0:
486,262,115572,1,14,0:3:0:0:
377,93,116203,6,0,B|352:92|352:92|332:75|332:75|308:76|308:76|288:61|288:61|262:63|262:63|239:55,1,150,8|8,2:2|2:2,0:0:0:0:
186,38,116835,6,2,B|128:21|56:46,2,110.000003356934,14|8|8,0:3|0:2|0:3,0:1:0:0:
268,110,117782,1,10,0:2:0:0:
354,36,118098,1,2,0:2:0:0:
462,72,118414,1,10,0:2:0:0:
462,72,118572,1,10,0:2:0:0:
498,175,118888,2,0,B|501:243|483:295,1,110.000003356934,10|2,0:3|0:2,0:2:0:0:
465,334,119361,5,10,0:3:0:0:
362,373,119677,1,10,0:2:0:0:
294,286,119993,1,10,0:3:0:0:
355,194,120309,1,10,0:1:0:0:
299,99,120625,2,2,B|256:57|198:60,1,110.000003356934,2|10,0:2|0:2,0:1:0:0:
150,50,121098,1,10,0:3:0:0:
150,50,121256,2,2,B|91:65|63:113,1,110.000003356934,8|8,0:3|0:2,0:1:0:0:
30,227,121888,6,0,B|35:341,1,110.000003356934,14|10,0:3|0:1,0:0:0:0:
136,378,122519,2,0,B|173:343|237:339,1,110.000003356934,10|10,0:3|0:1,0:0:0:0:
346,351,123151,1,2,0:2:0:0:
451,383,123467,1,10,0:2:0:0:
451,383,123625,2,2,B|487:307|453:217,1,165.0000050354,10|10,0:2|0:2,0:1:0:0:
362,149,124414,6,2,B|253:137,1,110.000003356934,10|8,0:3|0:2,0:1:0:0:
179,219,125046,2,2,B|203:274|184:326,1,110.000003356934,10|10,0:3|0:2,0:1:0:0:
82,367,125677,1,10,0:1:0:0:
4,296,125993,1,10,0:2:0:0:
4,296,126151,1,10,0:1:0:0:
63,203,126467,1,10,0:3:0:0:
185,225,126782,5,8,0:0:0:0:
185,225,126940,2,2,B|240:244|294:220,2,110.000003356934,14|8|8,0:3|0:2|0:3,0:1:0:0:
79,194,127888,1,10,0:2:0:0:
72,84,128203,1,2,0:2:0:0:
175,40,128519,1,10,0:2:0:0:
175,40,128677,1,10,0:2:0:0:
273,88,128993,2,0,B|322:75|389:80,1,110.000003356934,10|2,0:3|0:2,0:2:0:0:
437,82,129467,5,10,0:3:0:0:
410,188,129782,1,10,0:2:0:0:
506,240,130098,1,10,0:3:0:0:
480,347,130414,1,10,0:1:0:0:
370,359,130730,2,2,B|253:344,1,110.000003356934,2|8,0:2|0:2,0:1:0:0:
230,305,131203,1,10,0:3:0:0:
230,305,131361,2,2,B|203:256|235:199,1,110.000003356934,8|8,0:3|0:2,0:1:0:0:
338,142,131993,6,2,B|365:90|331:35,1,110.000003356934,14|8,0:3|0:2,0:1:0:0:
223,21,132625,2,2,B|93:38,1,110.000003356934,10|10,0:3|0:2,0:1:0:0:
19,91,133256,1,2,0:1:0:0:
52,195,133572,1,10,0:1:0:0:
52,195,133730,2,2,B|74:280|129:236|155:340,1,165.0000050354,10|10,0:2|0:1,0:1:0:0:
260,364,134519,6,2,B|372:354,1,110.000003356934,10|8,0:3|0:2,0:1:0:0:
478,373,135151,2,0,B|504:318|476:263,1,110.000003356934,10|8,0:3|0:2,0:0:0:0:
423,171,135782,1,2,0:2:0:0:
328,224,136098,1,10,0:2:0:0:
328,224,136256,2,2,B|276:250|276:250|212:228|170:217,1,165.0000050354,10|8,0:3|0:3,0:1:0:0:
93,148,137046,6,0,B|58:89|104:17|189:33,1,179.999994506836,14|8,0:3|0:3,0:0:0:0:
305,182,138309,2,0,L|314:284,1,99.9999999999999,8|8,0:3|0:3,0:0:0:0:
370,369,138940,2,0,B|424:386|462:346,1,99.9999999999999,8|8,2:2|2:2,0:0:0:0:
504,245,139572,5,14,0:1:0:0:
426,167,139888,1,10,0:2:0:0:
331,223,140203,1,10,0:3:0:0:
236,166,140519,1,10,0:1:0:0:
172,255,140835,1,2,0:2:0:0:
172,255,140993,2,2,B|123:276|123:276|53:239,1,110.000003356934,10|10,0:1|0:1,2:1:0:0:
7,97,141782,1,10,0:1:0:0:
92,27,142098,6,0,B|146:14|146:14|215:32,1,110.000003356934,10|10,0:1|0:2,2:2:0:0:
244,58,142572,1,2,0:1:0:0:
181,148,142888,1,10,0:3:0:0:
260,223,143203,2,0,B|270:261|270:261|263:284|263:284|276:333,1,110.000003356934,10|10,0:1|0:2,0:0:0:0:
372,380,143835,1,8,0:3:0:0:
459,312,144151,1,10,0:3:0:0:
459,312,144309,1,8,0:2:0:0:
445,202,144625,6,0,B|434:170|434:170|441:136|441:136|426:82,1,110.000003356934,14|10,0:1|0:2,0:0:0:0:
392,55,145098,2,0,B|278:39,1,110.000003356934,2|10,0:1|0:3,0:0:0:0:
231,19,145572,1,10,0:1:0:0:
70,86,146046,6,0,B|50:141|50:141|62:197,1,110.000003356934,10|10,0:1|0:3,0:0:0:0:
99,230,146519,2,0,B|223:206,1,110.000003356934,2|10,0:1|0:1,0:0:0:0:
249,245,146993,2,0,B|235:297|235:297|256:353,1,110.000003356934,8|2,0:3|0:1,0:0:0:0:
298,383,147467,1,10,0:2:0:0:
411,381,147782,2,0,B|419:354|419:354|409:324,1,55.0000016784668,10|2,0:1|0:2,0:0:0:0:
355,232,148256,6,2,B|307:173|321:37|420:-3|420:-3|475:72|475:72|435:132|462:197,1,495.000015106201,10|14,0:1|0:3,2:1:0:0:
30,139,159151,6,0,B|16:98|27:47,2,89.999997253418,8|8|14,2:2|2:2|2:3,0:0:0:0:
82,228,160098,5,10,0:2:0:0:
165,173,160414,1,10,0:2:0:0:
250,224,160730,1,10,0:3:0:0:
342,184,161046,2,0,B|389:164|459:181,1,99.9999999999999,10|10,0:2|0:3,0:2:0:0:
487,206,161519,1,8,0:2:0:0:
487,206,161677,2,0,B|503:254|491:307,2,99.9999999999999,10|10|14,0:3|0:2|0:3,0:0:0:0:
420,125,162625,5,10,0:2:0:0:
333,173,162940,1,10,0:2:0:0:
244,126,163256,1,10,0:3:0:0:
185,206,163572,2,0,B|163:254|179:314,1,99.9999999999999,10|8,0:3|0:3,0:0:0:0:
201,347,164046,1,8,0:2:0:0:
201,347,164203,2,0,B|312:365,2,99.9999999999999,10|8|14,0:3|0:2|0:3,0:0:0:0:
96,371,165151,5,10,0:2:0:0:
38,289,165467,1,10,0:2:0:0:
102,212,165782,1,10,0:3:0:0:
198,239,166098,2,0,B|243:245|297:230,1,99.9999999999999,10|10,0:2|0:3,0:2:0:0:
341,206,166572,1,8,0:2:0:0:
341,206,166730,2,0,B|353:156|339:104,1,99.9999999999999,8|10,0:3|0:2,0:0:0:0:
254,40,167361,6,2,B|218:31|218:31|201:34|201:34|149:23,1,99.9999999999999,14|8,0:3|0:2,0:2:0:0:
64,68,167993,2,0,B|32:112|40:174,1,99.9999999999999,10|8,0:2|0:3,0:0:0:0:
100,242,168625,2,0,B|143:225|204:237,1,99.9999999999999,10|8,0:1|0:3,0:0:0:0:
243,257,169098,2,0,B|280:280|344:279,1,99.9999999999999,10|8,0:1|0:3,0:0:0:0:
389,278,169572,1,10,0:1:0:0:
452,200,169888,2,0,B|465:35,2,150,12|8|8,0:2|0:1|0:3,0:0:0:0:
391,286,171151,6,0,B|347:263|277:271,1,99.9999999999999,14|8,0:1|0:1,0:0:0:0:
244,280,171625,2,0,B|200:303|146:296,1,99.9999999999999,10|8,0:1|0:3,0:0:0:0:
97,292,172098,1,10,0:1:0:0:
10,241,172414,1,14,0:3:0:0:
144,97,173046,6,0,B|163:81|163:81|187:80|187:80|205:61|205:61|230:61|230:61|248:44|248:44|286:32,1,150,8|8,0:2|0:2,0:0:0:0:
326,50,173677,6,2,B|380:68|442:58,2,110.000003356934,14|8|8,0:3|0:2|0:3,0:1:0:0:
220,17,174625,1,10,0:2:0:0:
124,71,174940,1,2,0:2:0:0:
129,184,175256,1,10,0:2:0:0:
129,184,175414,1,10,0:2:0:0:
229,229,175730,2,0,B|288:244|350:218,1,110.000003356934,10|2,0:3|0:2,0:2:0:0:
387,199,176203,5,10,0:3:0:0:
493,224,176519,1,10,0:2:0:0:
497,333,176835,1,10,0:3:0:0:
395,375,177151,1,10,0:1:0:0:
310,305,177467,2,2,B|269:281|203:283,1,110.000003356934,2|10,0:2|0:2,0:1:0:0:
165,322,177940,1,10,0:3:0:0:
165,322,178098,2,2,B|124:346|58:344,1,110.000003356934,8|8,0:3|0:2,0:1:0:0:
0,237,178730,6,0,B|18:109,1,110.000003356934,14|10,0:3|0:1,0:0:0:0:
75,35,179361,2,0,B|131:14|199:31,1,110.000003356934,10|10,0:3|0:1,0:0:0:0:
283,74,179993,1,2,0:2:0:0:
220,165,180309,1,10,0:2:0:0:
220,165,180467,2,2,B|174:244|213:332,1,165.0000050354,10|10,0:2|0:2,0:1:0:0:
312,381,181256,6,2,B|427:370,1,110.000003356934,10|8,0:3|0:2,0:1:0:0:
486,281,181888,2,2,B|501:231|485:172,1,110.000003356934,10|10,0:3|0:2,0:1:0:0:
447,69,182519,1,2,0:2:0:0:
344,101,182835,1,8,0:2:0:0:
344,101,182993,1,10,0:3:0:0:
261,27,183309,1,10,0:1:0:0:
151,64,183625,5,8,0:2:0:0:
151,64,183782,2,2,B|88:77|46:48,2,110.000003356934,14|8|8,0:3|0:2|0:3,0:1:0:0:
257,35,184730,1,10,0:2:0:0:
329,117,185046,1,2,0:2:0:0:
423,58,185361,1,10,0:2:0:0:
423,58,185519,1,10,0:2:0:0:
488,146,185835,2,0,B|499:204|479:267,1,110.000003356934,10|2,0:3|0:2,0:2:0:0:
456,303,186309,5,10,0:3:0:0:
374,377,186625,1,10,0:2:0:0:
271,336,186940,1,10,0:3:0:0:
279,226,187256,1,10,0:1:0:0:
372,167,187572,2,2,B|389:115|389:115|369:54,1,110.000003356934,2|8,0:2|0:2,0:1:0:0:
329,26,188046,1,10,0:3:0:0:
329,26,188203,2,2,B|217:19,1,110.000003356934,8|8,0:3|0:2,0:1:0:0:
106,57,188835,6,2,B|83:109|97:168,1,110.000003356934,14|8,0:3|0:2,0:1:0:0:
194,215,189467,2,2,B|242:190|322:198,1,110.000003356934,10|10,0:3|0:2,0:1:0:0:
396,251,190098,1,2,0:1:0:0:
336,344,190414,1,10,0:1:0:0:
336,344,190572,2,2,B|250:378|169:345,1,165.0000050354,10|10,0:2|0:1,0:1:0:0:
75,282,191361,6,2,B|67:165,1,110.000003356934,10|8,0:3|0:2,0:1:0:0:
100,66,191993,2,0,B|137:32|204:35,1,110.000003356934,10|8,0:3|0:2,0:0:0:0:
312,44,192625,1,2,0:2:0:0:
267,146,192940,1,10,0:2:0:0:
267,146,193098,2,2,B|258:169|260:189|260:189|273:214|273:214|248:257|263:318,1,165.0000050354,10|8,0:3|0:3,0:1:0:0:
347,367,193888,6,0,B|408:392|478:347|464:274,1,179.999994506836,14|8,0:3|0:3,0:0:0:0:
385,118,195151,2,0,B|291:102,1,89.999997253418,8|8,0:3|0:3,0:0:0:0:
237,42,195782,1,8,0:2:0:0:
237,42,195940,1,8,0:2:0:0:
113,97,196414,6,0,B|55:175|75:271,2,179.999994506836,6|10|2,0:1|0:2|0:1,0:0:0:0:
192,40,197993,1,2,0:2:0:0:
271,81,198309,1,10,0:2:0:0:
354,48,198625,1,2,0:2:0:0:
428,97,198940,2,0,B|461:172|449:273,1,179.999994506836,2|8,0:1|0:2,0:2:0:0:
401,358,199888,5,0,0:2:0:0:
323,313,200203,2,0,B|274:295|219:300,1,89.999997253418,2|0,0:1|0:2,0:0:0:0:
158,347,200835,2,0,B|109:365|54:360,1,89.999997253418,10|0,0:2|0:2,0:0:0:0:
19,285,201467,2,0,L|13:97,2,179.999994506836,6|8|2,0:1|0:2|0:1,0:0:0:0:
83,357,203046,5,2,0:2:0:0:
165,320,203361,1,10,0:2:0:0:
244,361,203677,1,2,0:2:0:0:
320,313,203993,2,0,B|345:274|345:274|338:192|301:137,1,179.999994506836,2|8,0:1|0:2,0:2:0:0:
183,16,205256,5,2,0:1:0:0:
60,148,205888,1,10,0:1:0:0:
221,227,206519,2,0,B|299:205|410:222,2,179.999994506836,6|8|2,0:1|0:2|0:1,0:0:0:0:
144,281,208098,5,2,0:2:0:0:
117,366,208414,1,10,0:2:0:0:
36,325,208730,1,2,0:2:0:0:
63,240,209046,2,0,B|75:194|75:194|69:128|69:128|86:58,1,179.999994506836,2|8,0:1|0:2,0:2:0:0:
261,32,210309,6,0,B|361:29,1,89.999997253418,2|0,0:1|0:2,0:0:0:0:
435,61,210940,2,0,B|455:102|449:151,1,89.999997253418,10|0,0:2|0:2,0:0:0:0:
396,221,211572,2,0,B|318:188|302:261|217:214,1,179.999994506836,6|8,0:1|0:2,0:2:0:0:
72,116,212835,2,0,B|11:187|37:285,1,179.999994506836,2|8,0:1|0:2,0:0:0:0:
199,362,214098,6,0,L|382:348,1,179.999994506836,10|8,0:1|0:2,0:2:0:0:
510,198,215361,1,14,0:1:0:0:
388,49,215993,2,0,B|338:25|279:35,1,99.9999999999999,14|10,0:2|0:2,0:0:0:0:
193,86,216625,6,2,B|168:137|168:137|176:193,1,110.000003356934,14|10,0:1|0:2,0:1:0:0:
212,230,217098,1,10,0:3:0:0:
279,316,217414,1,10,0:3:0:0:
279,316,217572,1,10,0:2:0:0:
178,361,217888,2,2,B|125:368|125:368|71:351,1,110.000003356934,10|10,0:1|0:2,0:1:0:0:
19,331,218361,1,10,0:3:0:0:
5,221,218677,1,10,0:3:0:0:
5,221,218835,1,10,0:2:0:0:
115,223,219151,6,2,B|240:210,1,110.000003356934,10|10,0:1|0:2,0:1:0:0:
279,209,219625,1,10,0:3:0:0:
364,287,219940,1,10,0:3:0:0:
364,287,220098,1,10,0:2:0:0:
456,227,220414,2,2,B|477:177|458:113,1,110.000003356934,10|10,0:1|0:2,0:1:0:0:
445,65,220888,1,10,0:3:0:0:
353,14,221203,1,10,0:3:0:0:
353,14,221361,1,10,0:2:0:0:
259,85,221677,5,14,0:1:0:0:
321,175,221993,1,10,0:1:0:0:
304,283,222309,1,10,0:1:0:0:
210,341,222625,1,10,0:1:0:0:
112,289,222940,2,2,B|96:239|96:239|119:175,1,110.000003356934,10|10,0:1|0:1,0:1:0:0:
219,147,223572,2,2,L|343:159,1,110.000003356934,10|10,0:1|0:1,0:1:0:0:
385,177,224046,5,8,0:3:0:0:
385,177,224203,2,2,B|416:125|391:72,1,110.000003356934,10|10,0:1|0:1,0:1:0:0:
290,25,224835,2,2,L|169:30,1,110.000003356934,10|10,0:1|0:1,0:1:0:0:
87,89,225467,1,10,0:1:0:0:
141,184,225782,1,10,0:1:0:0:
68,266,226098,1,10,0:1:0:0:
118,363,226414,1,10,0:1:0:0:
238,349,226730,6,2,B|291:329|350:340,1,110.000003356934,14|10,0:1|0:2,0:1:0:0:
397,360,227203,1,10,0:3:0:0:
491,304,227519,1,10,0:3:0:0:
491,304,227677,1,10,0:2:0:0:
455,199,227993,2,2,B|443:166|443:166|447:141|447:141|426:81,1,110.000003356934,10|10,0:1|0:2,0:1:0:0:
411,42,228467,1,10,0:3:0:0:
309,13,228782,1,10,0:3:0:0:
309,13,228940,1,10,0:2:0:0:
240,108,229256,6,2,B|213:164|231:227,1,110.000003356934,10|10,0:1|0:2,0:1:0:0:
255,262,229730,1,10,0:3:0:0:
208,361,230046,1,10,0:3:0:0:
208,361,230203,1,10,0:2:0:0:
105,320,230519,2,2,B|77:272|82:214,1,110.000003356934,10|10,0:1|0:2,0:1:0:0:
94,160,230993,1,10,0:3:0:0:
190,103,231309,1,10,0:3:0:0:
190,103,231467,1,8,0:2:0:0:
277,179,231782,5,14,0:1:0:0:
245,284,232098,1,10,0:1:0:0:
316,367,232414,1,10,0:1:0:0:
424,349,232730,1,10,0:1:0:0:
465,247,233046,2,2,B|472:193|472:193|458:130,1,110.000003356934,14|10,0:1|0:1,0:1:0:0:
388,54,233677,2,2,L|277:38,1,110.000003356934,10|10,0:1|0:1,0:1:0:0:
164,98,234309,5,14,0:1:0:0:
256,192,234467,12,14,236835,0:3:0:0:
