osu file format v14

[General]
AudioFilename: audio.mp3
AudioLeadIn: 0
PreviewTime: 61848
Countdown: 0
SampleSet: Normal
StackLeniency: 0.7
Mode: 0
LetterboxInBreaks: 0
WidescreenStoryboard: 1

[Editor]
DistanceSpacing: 0.5
BeatDivisor: 4
GridSize: 32
TimelineZoom: 2.1

[Metadata]
Title:one
TitleUnicode:one
Artist:Yousei Teikoku
ArtistUnicode:妖精帝國
Creator:Lasse
Version:Hard
Source:クイーンズブレイド スパイラルカオス
Tags:Yōsei Japanese Rock gothic lolita agitator lantis Queen's Blade: Spiral Chaos opening video game
BeatmapID:2464764
BeatmapSetID:1182149

[Difficulty]
HPDrainRate:4.7
CircleSize:3.8
OverallDifficulty:6.8
ApproachRate:8
SliderMultiplier:1.4
SliderTickRate:1

[Events]
//Background and Video events
0,0,"q1.jpg",0,0
//Break Periods
2,149877,158401
//Storyboard Layer 0 (Background)
//Storyboard Layer 1 (Fail)
//Storyboard Layer 2 (Pass)
//Storyboard Layer 3 (Foreground)
//Storyboard Layer 4 (Overlay)
//Storyboard Sound Samples

[TimingPoints]
625,315.789473684211,4,1,1,60,1,0
10730,-100,4,1,1,67,0,0
20835,-100,4,1,1,60,0,0
21151,-133.333333333333,4,2,1,58,0,0
30625,-133.333333333333,4,2,1,62,0,0
30940,-100,4,1,1,67,0,0
41046,-100,4,1,1,60,0,0
41361,-133.333333333333,4,2,1,58,0,0
50835,-133.333333333333,4,2,1,62,0,0
51151,-111.111111111111,4,1,1,64,0,0
58730,-100,4,1,1,66,0,0
61888,-111.111111111111,4,2,1,48,0,0
61967,-100,4,2,1,50,0,0
62046,-100,4,2,1,52,0,0
62125,-100,4,2,1,54,0,0
62203,-100,4,2,1,56,0,0
62282,-100,4,2,1,58,0,0
62361,-100,4,2,1,60,0,0
62440,-100,4,2,1,62,0,0
62519,-90.9090909090909,4,1,1,70,0,1
72151,-90.9090909090909,4,1,2,70,0,1
72309,-90.9090909090909,4,1,1,70,0,1
72467,-90.9090909090909,4,1,1,70,0,0
72625,-90.9090909090909,4,1,1,70,0,1
81940,-90.9090909090909,4,1,1,68,0,1
82098,-90.9090909090909,4,1,1,66,0,1
82414,-90.9090909090909,4,1,1,64,0,1
82730,-125,4,1,1,60,0,0
83046,-125,4,1,1,58,0,0
84625,-111.111111111111,4,2,1,62,0,0
84940,-111.111111111111,4,2,1,64,0,0
85256,-100,4,1,1,67,0,0
95361,-100,4,1,1,60,0,0
95677,-133.333333333333,4,2,1,58,0,0
105151,-133.333333333333,4,2,1,62,0,0
105467,-111.111111111111,4,1,1,64,0,0
113046,-100,4,1,1,66,0,0
116203,-111.111111111111,4,2,1,50,0,0
116282,-100,4,2,1,52,0,0
116361,-100,4,2,1,54,0,0
116440,-100,4,2,1,56,0,0
116519,-100,4,2,1,58,0,0
116598,-100,4,2,1,60,0,0
116677,-100,4,2,1,62,0,0
116756,-100,4,2,1,64,0,0
116835,-90.9090909090909,4,1,1,70,0,1
125677,-90.9090909090909,4,1,2,70,0,1
125756,-90.9090909090909,4,1,1,70,0,1
126151,-90.9090909090909,4,1,2,70,0,1
126230,-90.9090909090909,4,1,1,70,0,1
126782,-90.9090909090909,4,1,1,70,0,0
126940,-90.9090909090909,4,1,1,70,0,1
136256,-90.9090909090909,4,1,1,68,0,1
136414,-90.9090909090909,4,1,1,66,0,1
136730,-90.9090909090909,4,1,1,64,0,1
137046,-125,4,1,1,60,0,0
137361,-125,4,1,1,58,0,0
138309,-111.111111111111,4,1,1,60,0,0
138940,-100,4,2,1,62,0,0
139256,-100,4,2,1,64,0,0
139572,-90.9090909090909,4,1,2,70,0,0
139730,-90.9090909090909,4,1,1,70,0,0
140993,-90.9090909090909,4,1,2,70,0,0
141151,-90.9090909090909,4,1,1,70,0,0
141309,-90.9090909090909,4,1,2,70,0,0
141467,-90.9090909090909,4,1,1,70,0,0
142098,-90.9090909090909,4,1,2,70,0,0
142256,-90.9090909090909,4,1,1,70,0,0
143203,-90.9090909090909,4,1,2,70,0,0
143361,-90.9090909090909,4,1,1,70,0,0
144625,-90.9090909090909,4,1,2,70,0,0
144782,-90.9090909090909,4,1,1,70,0,0
146046,-90.9090909090909,4,1,2,70,0,0
146203,-90.9090909090909,4,1,1,70,0,0
147782,-90.9090909090909,4,1,2,70,0,0
147940,-90.9090909090909,4,1,1,70,0,0
148256,-90.9090909090909,4,1,2,70,0,0
148572,-90.9090909090909,4,1,1,68,0,0
149046,-90.9090909090909,4,1,1,66,0,0
149361,-90.9090909090909,4,1,1,64,0,0
149519,-90.9090909090909,4,2,1,60,0,0
149598,-90.9090909090909,4,2,1,58,0,0
149677,-200,4,2,1,56,0,0
149756,-200,4,2,1,50,0,0
159151,-111.111111111111,4,1,1,56,0,0
159782,-100,4,1,1,64,0,0
160098,-111.111111111111,4,1,1,64,0,0
167361,-99.9999999999999,4,1,1,66,0,0
171151,-99.9999999999999,4,1,1,68,0,0
173046,-111.111111111111,4,2,1,52,0,0
173125,-99.9999999999999,4,2,1,54,0,0
173203,-99.9999999999999,4,2,1,56,0,0
173282,-99.9999999999999,4,2,1,58,0,0
173361,-99.9999999999999,4,2,1,60,0,0
173440,-99.9999999999999,4,2,1,62,0,0
173519,-99.9999999999999,4,2,1,64,0,0
173598,-99.9999999999999,4,2,1,66,0,0
173677,-90.9090909090909,4,1,1,72,0,1
183309,-90.9090909090909,4,1,2,72,0,1
183467,-90.9090909090909,4,1,1,72,0,1
183625,-90.9090909090909,4,1,1,72,0,0
183782,-90.9090909090909,4,1,1,72,0,1
193098,-90.9090909090909,4,1,1,70,0,1
193256,-90.9090909090909,4,1,1,68,0,1
193572,-90.9090909090909,4,1,1,66,0,1
193888,-125,4,1,1,60,0,0
194203,-125,4,1,1,58,0,0
195782,-125,4,1,1,62,0,0
196414,-117.647058823529,4,1,1,60,0,0
214098,-111.111111111111,4,1,1,62,0,0
215361,-100,4,1,1,64,0,0
216309,-111.111111111111,4,1,1,65,0,0
216625,-90.9090909090909,4,1,1,72,0,1
226572,-90.9090909090909,4,1,1,72,0,0
226730,-90.9090909090909,4,1,1,74,0,1
234309,-90.9090909090909,4,1,1,76,0,1
236677,-90.9090909090909,4,1,1,74,0,1
236756,-90.9090909090909,4,1,1,72,0,1
236835,-100,4,1,99,70,0,0

[Colours]
Combo1 : 240,140,140
Combo2 : 200,180,220
Combo3 : 240,200,155
Combo4 : 150,185,220

[HitObjects]
28,219,10098,5,10,0:1:0:0:
19,300,10256,1,10,0:3:0:0:
19,300,10730,6,2,B|81:333|157:296,1,140,14|8,0:3|0:2,0:1:0:0:
198,220,11203,2,0,B|192:140,1,70,2|8,0:2|0:3,0:2:0:0:
285,208,11519,2,0,B|279:138,1,70,10|8,0:3|0:2,0:2:0:0:
344,55,11835,6,2,B|405:14|481:38,1,140,10|10,0:3|0:3,0:1:0:0:
483,135,12309,2,0,B|503:164|512:198,1,70,8|8,0:2|0:3,0:0:0:0:
491,293,12625,1,2,0:2:0:0:
491,293,12782,1,8,0:3:0:0:
402,282,12940,1,8,0:2:0:0:
342,347,13098,5,8,0:3:0:0:
342,347,13177,1,8,0:3:0:0:
342,347,13256,2,2,B|308:377|308:377|247:370|254:303,1,140,10|8,0:3|0:2,0:1:0:0:
267,222,13730,2,0,B|282:189|278:153,1,70,2|8,0:2|0:3,0:2:0:0:
242,72,14046,2,0,B|214:48|178:43,1,70,10|8,0:3|0:2,0:2:0:0:
76,76,14361,6,2,B|30:131|43:210,1,140,10|8,0:3|0:3,0:1:0:0:
68,295,14835,2,0,B|102:279|147:281,1,70,8|8,0:2|0:3,0:0:0:0:
230,297,15151,1,2,0:2:0:0:
230,297,15309,1,8,0:3:0:0:
283,370,15467,1,8,0:2:0:0:
375,335,15625,5,8,0:3:0:0:
375,335,15703,1,8,0:3:0:0:
375,335,15782,2,2,B|408:268|385:198,1,140,14|8,0:3|0:2,0:1:0:0:
301,162,16256,2,0,B|212:149,1,70,2|8,0:2|0:3,0:2:0:0:
347,83,16572,2,0,B|416:72,1,70,10|8,0:3|0:2,0:2:0:0:
262,30,16888,6,2,B|222:20|222:20|191:37|191:37|113:21,1,140,10|10,0:3|0:3,0:1:0:0:
37,87,17361,2,0,B|25:54|42:18,1,70,8|8,0:2|0:3,0:0:0:0:
126,111,17677,1,2,0:2:0:0:
126,111,17835,1,8,0:3:0:0:
63,177,17993,1,8,0:2:0:0:
128,256,18151,5,8,0:3:0:0:
128,256,18230,1,8,0:3:0:0:
128,256,18309,2,2,L|301:239,1,140,10|8,0:3|0:2,0:1:0:0:
345,293,18782,2,0,B|342:334|359:371,1,70,2|8,0:2|0:3,0:2:0:0:
452,381,19098,2,0,B|465:353|462:312,1,70,10|8,0:3|0:2,0:2:0:0:
418,221,19414,6,2,B|397:188|397:188|416:147|403:88,1,140,10|8,0:3|0:3,0:1:0:0:
329,20,19888,2,0,B|309:97,1,70,8|8,0:2|0:3,0:0:0:0:
250,154,20203,1,8,0:3:0:0:
250,154,20282,1,8,0:3:0:0:
250,154,20361,2,0,B|213:157|182:138,1,70,8|10,0:3|0:1,0:0:0:0:
110,81,20677,2,0,L|100:27,2,35,8|8|12,0:2|0:2|1:3,0:0:0:0:
28,191,21151,6,0,B|11:245|25:294,1,105.000004005432,10|8,0:2|0:3,0:2:0:0:
74,353,21625,2,0,B|104:339|138:341,1,52.5000020027161,10|8,0:3|0:2,0:2:0:0:
200,334,21940,2,2,B|238:368|316:366,2,105.000004005432,10|8|8,0:3|0:3|0:3,0:2:0:0:
113,227,22888,2,0,L|107:174,1,52.5000020027161,8|10,0:3|0:2,0:0:0:0:
96,97,23203,1,8,0:3:0:0:
96,97,23282,1,8,0:3:0:0:
96,97,23361,1,10,0:3:0:0:
212,26,23677,6,0,B|243:15|282:12,1,52.5000020027161,10|0,0:2|0:2,0:2:0:0:
339,38,23993,1,10,0:3:0:0:
339,38,24151,2,0,B|345:71|376:99,1,52.5000020027161,8|8,0:3|0:2,0:2:0:0:
424,130,24467,2,2,B|459:172|461:240,2,105.000004005432,10|8|8,0:3|0:3|0:3,2:2:0:0:
361,84,25256,2,0,L|332:64,2,26.2500010013581,8|8|8,0:3|0:3|0:3,0:0:0:0:
424,130,25572,2,0,B|446:143|488:140,1,52.5000020027161,8|8,0:2|0:2,0:0:0:0:
512,69,25888,1,14,0:3:0:0:
512,215,26203,6,0,B|503:279,1,52.5000020027161,10|0,0:2|0:2,0:2:0:0:
460,328,26519,1,10,0:3:0:0:
460,328,26677,2,0,B|430:314|391:315,1,52.5000020027161,8|8,0:3|0:2,0:2:0:0:
339,342,26993,2,2,B|287:372|221:365,2,105.000004005432,10|8|8,0:3|0:3|0:3,0:2:0:0:
422,233,27940,2,0,L|431:166,1,52.5000020027161,10|8,0:3|0:2,0:0:0:0:
441,105,28256,1,8,0:3:0:0:
441,105,28335,1,8,0:3:0:0:
441,105,28414,1,10,0:3:0:0:
324,24,28730,6,0,B|248:13,1,52.5000020027161,10|0,0:2|0:2,0:0:0:0:
246,89,29046,1,10,0:3:0:0:
246,89,29203,2,0,B|174:99,1,52.5000020027161,8|8,0:3|0:2,0:2:0:0:
122,72,29519,2,2,B|103:59|84:59|84:59|60:74|55:123,1,105.000004005432,10|8,0:3|0:3,0:2:0:0:
42,194,29993,2,0,L|63:250,1,52.5000020027161,10|8,0:2|0:3,0:2:0:0:
96,321,30309,1,8,0:3:0:0:
96,321,30388,1,8,0:3:0:0:
96,321,30467,1,8,0:3:0:0:
169,282,30625,6,0,L|210:263,3,26.2500010013581,8|8|8|8,0:2|0:2|0:2|0:2,0:0:0:0:
214,274,30940,6,2,B|210:332|260:359|312:342,1,140,14|8,0:3|0:2,0:1:0:0:
394,371,31414,2,0,B|402:290,1,70,2|8,0:2|0:3,0:2:0:0:
489,351,31730,2,0,B|483:281,1,70,10|8,0:3|0:2,0:2:0:0:
447,167,32046,6,2,B|422:199|393:190|393:190|366:157|313:149,1,140,10|10,0:3|0:3,0:1:0:0:
258,212,32519,2,0,B|262:257|240:292,1,70,8|8,0:2|0:3,0:0:0:0:
183,351,32835,1,2,0:2:0:0:
183,351,32993,1,8,0:3:0:0:
108,307,33151,1,8,0:2:0:0:
30,351,33309,5,8,0:3:0:0:
30,351,33388,1,8,0:3:0:0:
30,351,33467,2,2,B|3:288|37:211,1,140,10|8,0:3|0:2,0:1:0:0:
105,156,33940,2,0,B|136:174|173:168,1,70,2|8,0:2|0:3,0:2:0:0:
239,230,34256,2,0,B|270:212|307:218,1,70,10|8,0:3|0:2,0:2:0:0:
408,262,34572,6,2,B|434:273|460:275|460:275|490:257|488:178,1,140,10|8,0:3|0:3,0:1:0:0:
452,113,35046,2,0,B|426:40,1,70,8|8,0:2|0:3,0:0:0:0:
341,14,35361,1,2,0:2:0:0:
341,14,35519,1,8,0:3:0:0:
273,67,35677,1,8,0:2:0:0:
193,36,35835,5,8,0:3:0:0:
193,36,35914,1,8,0:3:0:0:
193,36,35993,2,2,B|125:15|54:28,1,140,14|8,0:3|0:2,0:1:0:0:
37,117,36467,2,0,B|14:143|4:178,1,70,2|8,0:2|0:3,0:2:0:0:
30,266,36782,2,0,B|32:300|50:332,1,70,10|8,0:3|0:2,0:2:0:0:
152,357,37098,6,2,B|203:348|203:348|230:363|230:363|302:352,1,140,10|10,0:3|0:3,0:1:0:0:
375,376,37572,2,0,B|360:344|367:303,1,70,8|8,0:2|0:3,0:0:0:0:
413,230,37888,1,2,0:2:0:0:
413,230,38046,1,8,0:3:0:0:
353,162,38203,1,8,0:2:0:0:
290,234,38361,5,8,0:3:0:0:
290,234,38440,1,8,0:3:0:0:
290,234,38519,2,2,B|253:258|253:258|134:235,1,140,10|8,0:3|0:2,0:1:0:0:
84,187,38993,2,0,B|73:156|80:110,1,70,2|8,0:2|0:3,0:2:0:0:
132,42,39309,2,0,B|208:28,1,70,10|8,0:3|0:2,0:2:0:0:
308,7,39625,6,2,B|315:56|351:66|351:66|386:47|425:52,1,140,10|8,0:3|0:3,0:1:0:0:
475,115,40098,2,0,B|492:146|495:181,1,70,8|8,0:2|0:3,0:0:0:0:
485,272,40414,1,8,0:3:0:0:
485,272,40493,1,8,0:3:0:0:
485,272,40572,2,0,B|450:256|417:256,1,70,8|10,0:3|0:1,0:0:0:0:
344,310,40888,2,0,L|334:364,2,35,8|8|12,0:2|0:2|1:3,0:0:0:0:
347,173,41361,6,0,B|348:146|339:107,1,52.5000020027161,10|0,0:2|0:0,0:2:0:0:
281,72,41677,1,10,0:3:0:0:
281,72,41835,2,0,B|274:49|258:22,1,52.5000020027161,8|8,0:3|0:2,0:2:0:0:
184,48,42151,2,2,B|143:20|69:27,2,105.000004005432,10|8|8,0:3|0:3|0:3,0:2:0:0:
240,172,43098,2,0,B|240:195|246:225,1,52.5000020027161,8|10,0:3|0:2,0:0:0:0:
289,303,43414,1,8,0:3:0:0:
289,303,43493,1,8,0:3:0:0:
289,303,43572,1,10,0:3:0:0:
152,374,43888,6,0,B|119:371|82:358,1,52.5000020027161,10|0,0:2|0:2,0:2:0:0:
41,317,44203,1,10,0:3:0:0:
41,317,44361,2,0,B|34:284|39:245,1,52.5000020027161,8|8,0:3|0:2,0:2:0:0:
77,197,44677,2,2,B|98:148|92:81,2,105.000004005432,10|8|8,0:3|0:3|0:3,2:2:0:0:
37,264,45467,2,0,L|11:295,2,26.2500010013581,8|8|10,0:3|0:3|0:3,0:0:0:0:
77,197,45782,2,0,B|81:170|104:146,1,52.5000020027161,8|8,0:2|0:2,0:0:0:0:
172,117,46098,1,14,0:3:0:0:
247,230,46414,6,0,B|256:294,1,52.5000020027161,10|0,0:2|0:2,0:2:0:0:
302,350,46730,1,8,0:3:0:0:
302,350,46888,2,0,B|331:359|371:337,1,52.5000020027161,10|8,0:3|0:2,0:2:0:0:
420,306,47203,2,2,B|425:253|464:203,2,105.000004005432,10|8|8,0:3|0:3|0:3,0:2:0:0:
302,376,48151,2,0,L|244:361,1,52.5000020027161,10|8,0:3|0:2,0:0:0:0:
177,346,48467,1,8,0:3:0:0:
177,346,48546,1,8,0:3:0:0:
177,346,48625,1,10,0:3:0:0:
253,232,48940,6,0,B|264:211|266:181,1,52.5000020027161,10|0,0:2|0:2,0:0:0:0:
230,113,49256,1,8,0:3:0:0:
230,113,49414,2,0,B|224:83|212:54,1,52.5000020027161,10|8,0:3|0:2,0:2:0:0:
142,35,49730,2,2,B|81:27|45:65,1,105.000004005432,10|8,0:3|0:3,0:2:0:0:
20,139,50203,2,0,L|31:201,1,52.5000020027161,10|8,0:2|0:3,0:2:0:0:
57,272,50519,1,8,0:3:0:0:
57,272,50598,1,8,0:3:0:0:
57,272,50677,1,10,0:3:0:0:
108,332,50835,2,0,B|157:347|212:310,1,105.000004005432,8|14,0:2|0:3,0:0:0:0:
208,313,51467,6,0,B|218:227,1,62.9999980773926,10|0,0:2|0:2,0:2:0:0:
224,323,51782,2,0,B|231:260,1,62.9999980773926,10|0,0:2|0:2,0:2:0:0:
240,333,52098,2,0,B|247:270,1,62.9999980773926,10|0,0:3|0:2,0:2:0:0:
335,329,52414,6,0,B|371:338|412:317,1,62.9999980773926,10|8,0:2|0:3,0:2:0:0:
409,321,52651,1,8,0:3:0:0:
420,317,52730,2,0,B|431:289|427:243,1,62.9999980773926,10|8,0:3|0:2,0:0:0:0:
394,180,53046,1,10,0:3:0:0:
394,180,53125,1,8,0:3:0:0:
394,180,53203,1,8,0:3:0:0:
459,130,53361,2,0,B|482:68|448:3,1,125.999996154785,10|14,0:2|0:3,0:0:0:0:
451,8,53993,6,0,B|370:19,1,62.9999980773926,10|0,0:2|0:2,0:2:0:0:
448,27,54309,2,0,B|367:38,1,62.9999980773926,10|0,0:2|0:2,0:2:0:0:
445,46,54625,2,0,B|364:57,1,62.9999980773926,10|8,0:3|0:2,0:2:0:0:
307,105,54940,6,0,B|307:76|289:33,1,62.9999980773926,10|8,0:3|0:3,0:0:0:0:
282,36,55177,1,8,0:3:0:0:
271,29,55256,2,0,B|237:15|189:23,1,62.9999980773926,8|8,0:3|0:2,0:0:0:0:
134,62,55572,1,10,0:3:0:0:
134,62,55651,1,8,0:3:0:0:
134,62,55730,1,8,0:3:0:0:
88,134,55888,2,0,B|43:203,2,62.9999980773926,8|8|14,0:2|0:2|0:3,0:0:0:0:
88,134,56519,6,0,B|115:150|148:144,1,62.9999980773926,10|0,0:2|0:2,0:2:0:0:
85,150,56835,2,0,B|112:166|145:160,1,62.9999980773926,10|0,0:2|0:2,0:2:0:0:
82,166,57151,2,0,B|109:182|142:176,1,62.9999980773926,10|0,0:3|0:2,0:2:0:0:
195,244,57467,6,0,B|221:229|266:225,1,62.9999980773926,10|8,0:2|0:3,0:2:0:0:
267,227,57703,1,8,0:3:0:0:
279,229,57782,2,0,B|309:242|337:279,1,62.9999980773926,10|8,0:3|0:2,0:0:0:0:
369,349,58098,1,8,0:3:0:0:
369,349,58177,1,8,0:3:0:0:
369,349,58256,1,8,0:3:0:0:
285,375,58414,2,0,B|212:368,1,62.9999980773926,10|8,0:2|0:3,0:0:0:0:
122,342,58730,6,2,B|85:371|85:371|34:362|29:296,1,140,14|8,0:3|0:2,0:2:0:0:
10,223,59203,1,8,0:3:0:0:
40,144,59361,2,0,L|58:67,1,70,10|8,0:2|0:3,0:0:0:0:
61,62,59598,1,8,0:3:0:0:
71,52,59677,2,0,B|106:34|139:39,1,70,8|8,0:3|0:3,0:0:0:0:
213,111,59993,6,0,B|212:156|238:195,1,70,10|10,0:1|0:3,0:0:0:0:
228,178,60230,1,8,0:3:0:0:
228,178,60309,1,8,0:3:0:0:
322,239,60467,6,0,B|367:238|406:264,1,70,10|10,0:1|0:3,0:0:0:0:
389,254,60703,1,8,0:3:0:0:
389,254,60782,1,8,0:3:0:0:
456,336,60940,6,0,L|465:374,4,35,10|8|8|8|14,0:1|0:1|0:1|0:1|0:3,0:0:0:0:
469,186,61888,6,0,L|479:154,7,31.4999990386963,8|8|8|8|8|8|8|8,2:2|2:2|2:2|2:2|2:2|2:2|2:2|2:2,0:0:0:0:
485,130,62519,6,2,B|444:59|344:80,2,154.000004699707,14|8|8,0:3|0:2|0:3,0:1:0:0:
438,309,63467,1,10,0:2:0:0:
438,309,63625,1,8,0:3:0:0:
355,363,63782,6,0,B|262:382|221:311,1,154.000004699707,2|10,0:2|0:2,0:2:0:0:
209,213,64256,2,0,B|233:179|234:117,1,77.0000023498536,10|8,0:2|0:3,0:2:0:0:
126,151,64572,2,0,B|125:112|149:78,1,77.0000023498536,10|8,0:3|0:2,0:2:0:0:
238,32,64888,1,2,0:2:0:0:
328,92,65046,6,2,B|408:127|487:81,2,154.000004699707,10|10|10,0:3|0:2|0:3,0:1:0:0:
250,28,65835,1,8,0:3:0:0:
165,81,65993,2,0,B|141:115|141:153,1,77.0000023498536,10|8,0:1|0:3,0:0:0:0:
202,247,66309,6,2,B|247:229|247:229|302:267|282:328,1,154.000004699707,2|10,0:2|0:2,0:1:0:0:
199,372,66782,1,10,0:3:0:0:
199,372,66861,1,8,0:3:0:0:
199,372,66940,2,2,L|105:361,1,77.0000023498536,8|8,0:3|0:3,0:1:0:0:
23,384,67256,2,0,B|10:344|22:303,1,77.0000023498536,8|8,0:2|0:2,0:0:0:0:
70,199,67572,5,14,0:3:0:0:
70,199,67730,1,2,0:2:0:0:
156,248,67888,2,2,B|201:259|256:231,1,77.0000023498536,10|0,0:1|0:2,0:1:0:0:
324,310,68203,5,10,0:3:0:0:
324,310,68361,1,10,0:3:0:0:
373,224,68519,2,2,B|384:179|356:124,1,77.0000023498536,10|0,0:1|0:2,0:1:0:0:
281,69,68835,6,2,B|231:59|231:59|193:80|193:80|125:68,1,154.000004699707,2|10,0:2|0:2,0:1:0:0:
40,106,69309,2,2,B|29:69|43:30,1,77.0000023498536,10|8,0:2|0:3,0:1:0:0:
124,153,69625,1,10,0:3:0:0:
124,153,69782,2,2,B|135:190|120:228,1,77.0000023498536,10|0,0:2|0:2,0:1:0:0:
34,306,70098,6,2,B|93:266|182:273,1,154.000004699707,10|8,0:3|0:2,0:1:0:0:
276,305,70572,1,0,0:2:0:0:
363,353,70730,2,2,B|400:369|452:359,1,77.0000023498536,10|8,0:3|0:3,0:1:0:0:
453,262,71046,2,2,B|490:247|520:203,1,77.0000023498536,10|8,0:2|0:3,0:1:0:0:
455,101,71361,6,2,B|453:47|410:7|347:21,1,154.000004699707,2|8,0:2|0:2,0:1:0:0:
259,56,71835,1,10,0:3:0:0:
259,56,71914,1,8,0:3:0:0:
259,56,71993,1,8,0:3:0:0:
273,149,72151,2,0,B|277:193|260:224,1,77.0000023498536,10|8,0:1|0:2,0:0:0:0:
166,288,72467,5,8,0:2:0:0:
166,288,72546,1,8,0:2:0:0:
166,288,72625,2,2,B|112:275|112:275|67:296|67:296|10:283,2,154.000004699707,14|8|8,0:3|0:2|0:3,0:1:0:0:
358,357,73572,1,10,0:2:0:0:
358,357,73730,1,8,0:3:0:0:
451,323,73888,6,0,B|493:269|469:172,1,154.000004699707,2|10,0:2|0:2,0:2:0:0:
374,144,74361,2,0,B|274:155,1,77.0000023498536,10|8,0:2|0:3,0:2:0:0:
277,53,74677,2,0,B|177:42,1,77.0000023498536,10|8,0:3|0:2,0:2:0:0:
106,7,74993,1,2,0:2:0:0:
37,95,75151,6,2,B|-3:170|32:256,2,154.000004699707,10|10|10,0:3|0:2|0:3,0:1:0:0:
106,23,75940,1,8,0:3:0:0:
190,76,76098,2,0,B|221:96|268:85,1,77.0000023498536,10|8,0:1|0:3,0:0:0:0:
374,46,76414,6,2,B|389:24|428:18|428:18|466:54|455:115,1,154.000004699707,2|8,0:2|0:2,0:1:0:0:
418,193,76888,1,10,0:3:0:0:
418,193,76967,1,8,0:3:0:0:
418,193,77046,2,2,B|396:229|395:280,1,77.0000023498536,8|8,0:3|0:3,0:1:0:0:
338,355,77361,2,0,B|337:318|315:282,1,77.0000023498536,8|8,0:2|0:2,0:0:0:0:
216,242,77677,6,2,B|190:281|190:281|136:299|86:254,1,154.000004699707,14|8,0:3|0:2,0:1:0:0:
12,194,78151,1,0,0:2:0:0:
71,113,78309,2,2,B|63:11,1,77.0000023498536,10|8,0:3|0:3,0:1:0:0:
156,92,78625,2,2,B|164:-10,1,77.0000023498536,10|8,0:2|0:3,0:1:0:0:
254,99,78940,6,0,B|337:78|402:120,1,154.000004699707,2|10,0:1|0:1,0:0:0:0:
452,203,79414,2,0,B|439:280,1,77.0000023498536,10|8,0:2|0:3,0:0:0:0:
365,347,79730,1,8,0:3:0:0:
365,347,79888,2,0,B|334:328|283:330,1,77.0000023498536,10|0,0:1|0:0,0:0:0:0:
171,364,80203,6,2,B|93:374|93:374|40:321,1,154.000004699707,10|8,0:3|0:2,0:1:0:0:
13,223,80677,1,0,0:2:0:0:
69,140,80835,2,0,B|166:124,1,77.0000023498536,10|8,0:3|0:3,0:0:0:0:
191,216,81151,2,0,B|288:232,1,77.0000023498536,8|8,0:2|0:3,0:0:0:0:
347,303,81467,6,2,B|390:335|390:335|454:326|452:264,1,154.000004699707,2|10,0:2|0:2,0:1:0:0:
448,176,81940,1,10,0:3:0:0:
448,176,82019,1,8,0:3:0:0:
448,176,82098,2,0,B|423:79,1,77.0000023498536,8|8,0:2|0:2,0:0:0:0:
343,158,82414,2,0,B|318:61,1,77.0000023498536,8|8,0:3|0:3,0:0:0:0:
231,27,82730,6,0,B|177:61|123:41,3,112,14|8|8|8,0:3|0:3|0:3|0:3,0:0:0:0:
176,177,83993,6,0,B|128:148|68:162,1,112,8|8,0:3|0:3,0:0:0:0:
0,315,84625,6,0,B|29:303|29:303|66:308,1,62.9999980773926,8|8,0:2|0:2,0:0:0:0:
141,348,84940,2,0,B|170:336|170:336|207:341,1,62.9999980773926,8|8,0:2|0:2,0:0:0:0:
306,375,85256,6,2,B|378:393|443:364,1,140,14|8,0:3|0:2,0:1:0:0:
508,299,85730,2,0,B|498:219,1,70,2|8,0:2|0:3,0:2:0:0:
410,251,86046,2,0,B|417:167,1,70,10|8,0:3|0:2,0:2:0:0:
378,77,86361,6,2,B|311:95|238:54,1,140,10|10,0:3|0:3,0:1:0:0:
151,52,86835,2,0,B|117:32|67:32,1,70,8|8,0:2|0:3,0:0:0:0:
0,70,87151,1,2,0:2:0:0:
0,70,87309,1,8,0:3:0:0:
1,161,87467,1,8,0:2:0:0:
88,221,87625,5,8,0:3:0:0:
88,221,87703,1,8,0:3:0:0:
88,221,87782,2,2,B|144:216|144:216|165:231|165:231|228:228,1,140,10|8,0:3|0:2,0:1:0:0:
304,187,88256,2,0,B|296:153|304:117,1,70,2|8,0:2|0:3,0:2:0:0:
390,216,88572,2,0,B|398:250|388:293,1,70,10|8,0:3|0:2,0:2:0:0:
299,350,88888,6,2,B|243:345|243:345|222:360|222:360|159:357,1,140,10|8,0:3|0:3,0:1:0:0:
61,384,89361,2,0,B|70:307,1,70,8|8,0:2|0:3,0:0:0:0:
104,229,89677,1,2,0:2:0:0:
104,229,89835,1,8,0:3:0:0:
186,266,89993,1,8,0:2:0:0:
269,214,90151,5,8,0:3:0:0:
269,214,90230,1,8,0:3:0:0:
269,214,90309,2,2,B|287:142|263:74,1,140,14|8,0:3|0:2,0:1:0:0:
179,42,90782,2,0,B|149:23|111:20,1,70,2|8,0:2|0:3,0:2:0:0:
47,83,91098,2,0,B|22:108|11:144,1,70,10|8,0:3|0:2,0:2:0:0:
55,240,91414,6,2,B|88:272|132:262|132:262|151:241|175:227,1,140,10|10,0:3|0:3,0:1:0:0:
259,192,91888,2,0,B|293:208|327:207,1,70,8|8,0:2|0:3,0:0:0:0:
410,170,92203,1,2,0:2:0:0:
410,170,92361,1,8,0:3:0:0:
483,220,92519,1,8,0:2:0:0:
455,315,92677,5,8,0:3:0:0:
455,315,92756,1,8,0:3:0:0:
455,315,92835,2,2,B|428:343|428:343|388:320|330:318,1,140,10|8,0:3|0:2,0:1:0:0:
243,344,93309,2,0,B|215:364|171:367,1,70,2|8,0:2|0:3,0:2:0:0:
86,371,93625,2,0,B|58:350|41:309,1,70,10|8,0:3|0:2,0:2:0:0:
51,205,93940,6,2,B|74:141|10:134|40:71,1,140,10|8,0:3|0:3,0:1:0:0:
119,25,94414,2,0,B|147:47|192:45,1,70,8|8,0:2|0:3,0:0:0:0:
281,68,94730,1,8,0:3:0:0:
281,68,94809,1,8,0:3:0:0:
281,68,94888,2,0,B|309:46|354:48,1,70,8|10,0:3|0:1,0:0:0:0:
431,81,95203,2,0,L|459:132,2,35,8|8|12,0:2|0:2|1:3,0:0:0:0:
307,151,95677,6,0,B|268:161|251:199|270:237,1,105.000004005432,10|8,0:2|0:3,0:2:0:0:
331,282,96151,2,0,B|342:307|343:338,1,52.5000020027161,10|8,0:3|0:2,0:2:0:0:
278,373,96467,2,2,B|239:348|163:352,2,105.000004005432,10|8|8,0:3|0:3|0:3,0:2:0:0:
415,373,97414,2,0,B|435:370|460:347,1,52.5000020027161,8|10,0:3|0:2,0:0:0:0:
512,288,97730,1,8,0:3:0:0:
512,288,97809,1,8,0:3:0:0:
512,288,97888,1,10,0:3:0:0:
441,171,98203,6,0,B|417:157|371:155,1,52.5000020027161,10|0,0:2|0:2,0:2:0:0:
319,179,98519,1,10,0:3:0:0:
319,179,98677,2,0,B|295:193|249:195,1,52.5000020027161,8|8,0:3|0:2,0:2:0:0:
193,182,98993,2,2,B|145:158|81:153,2,105.000004005432,10|8|8,0:3|0:3|0:3,2:2:0:0:
265,215,99782,2,0,B|281:224|289:223,2,26.2500010013581,8|8|10,0:3|0:3|0:3,0:0:0:0:
202,260,100098,2,0,B|179:277|167:298,1,52.5000020027161,8|8,0:2|0:2,0:0:0:0:
138,374,100414,1,14,0:3:0:0:
26,295,100730,6,0,B|19:274|17:243,1,52.5000020027161,10|0,0:2|0:2,0:2:0:0:
46,170,101046,1,8,0:3:0:0:
46,170,101203,2,2,B|77:164|110:142,1,52.5000020027161,8|8,0:3|0:2,0:1:0:0:
159,108,101519,2,0,B|160:54|199:4,2,105.000004005432,10|8|8,0:3|0:3|0:3,0:2:0:0:
249,210,102467,2,0,B|274:200|307:195,1,52.5000020027161,10|8,0:3|0:2,0:0:0:0:
384,205,102782,1,8,0:3:0:0:
384,205,102861,1,8,0:3:0:0:
384,205,102940,1,10,0:3:0:0:
489,116,103256,6,0,B|493:89|483:60,1,52.5000020027161,10|0,0:2|0:2,0:0:0:0:
412,43,103572,1,8,0:3:0:0:
412,43,103730,2,2,B|395:21|368:7,1,52.5000020027161,10|8,0:3|0:2,0:1:0:0:
301,40,104046,2,0,B|240:32|202:66,1,105.000004005432,10|8,0:3|0:3,0:2:0:0:
165,133,104519,2,0,B|163:160|152:183,1,52.5000020027161,10|8,0:2|0:3,0:2:0:0:
107,247,104835,1,8,0:3:0:0:
107,247,104914,1,8,0:3:0:0:
107,247,104993,1,10,0:2:0:0:
0,115,105467,5,14,0:3:0:0:
0,115,105782,2,0,B|10:29,1,62.9999980773926,10|0,0:2|0:2,0:2:0:0:
16,125,106098,2,0,B|23:62,1,62.9999980773926,10|0,0:2|0:2,0:2:0:0:
32,135,106414,2,0,B|39:72,1,62.9999980773926,10|0,0:3|0:2,0:2:0:0:
129,111,106730,6,0,B|165:120|206:99,1,62.9999980773926,10|8,0:2|0:3,0:2:0:0:
203,103,106967,1,8,0:3:0:0:
214,99,107046,2,0,B|241:81|273:78,1,62.9999980773926,10|8,0:3|0:2,0:0:0:0:
362,88,107361,1,10,0:3:0:0:
362,88,107440,1,8,0:3:0:0:
362,88,107519,1,8,0:3:0:0:
425,139,107677,2,0,B|453:193|443:262,1,125.999996154785,10|14,0:2|0:3,0:0:0:0:
444,262,108309,6,0,B|362:257,1,62.9999980773926,10|0,0:2|0:2,0:2:0:0:
437,280,108625,2,0,B|355:275,1,62.9999980773926,10|0,0:2|0:2,0:2:0:0:
430,298,108940,2,0,B|348:293,1,62.9999980773926,10|8,0:3|0:2,0:2:0:0:
289,362,109256,6,0,B|295:331|286:299,1,62.9999980773926,10|8,0:3|0:3,0:0:0:0:
279,289,109493,1,8,0:3:0:0:
272,278,109572,2,0,B|262:245|269:215,1,62.9999980773926,8|8,0:3|0:2,0:0:0:0:
324,155,109888,1,10,0:3:0:0:
324,155,109967,1,8,0:3:0:0:
324,155,110046,1,8,0:3:0:0:
402,131,110203,2,0,L|490:138,2,62.9999980773926,8|8|14,0:2|0:2|0:3,0:0:0:0:
402,131,110835,6,0,B|405:97|387:72,1,62.9999980773926,10|0,0:2|0:2,0:2:0:0:
385,134,111151,2,0,B|389:100|371:74,1,62.9999980773926,10|0,0:2|0:2,0:2:0:0:
370,138,111467,2,0,B|373:105|355:79,1,62.9999980773926,10|0,0:3|0:2,0:2:0:0:
258,49,111782,6,0,B|232:34|187:30,1,62.9999980773926,10|8,0:2|0:3,0:2:0:0:
186,32,112019,1,8,0:3:0:0:
174,34,112098,2,0,B|144:47|111:83,1,62.9999980773926,10|8,0:3|0:2,0:0:0:0:
86,147,112414,1,8,0:3:0:0:
86,147,112493,1,8,0:3:0:0:
86,147,112572,1,8,0:3:0:0:
88,228,112730,2,0,B|96:258|112:286,1,62.9999980773926,10|8,0:2|0:3,0:0:0:0:
194,346,113046,6,2,B|246:343|246:343|268:361|268:361|337:357,1,140,14|8,0:3|0:2,0:2:0:0:
408,379,113519,1,8,0:3:0:0:
458,311,113677,2,0,L|459:229,1,70,10|8,0:2|0:3,0:0:0:0:
450,229,113914,1,8,0:3:0:0:
443,216,113993,2,0,L|444:134,1,70,8|8,0:3|0:3,0:0:0:0:
388,57,114309,6,0,B|348:35|301:41,1,70,10|10,0:1|0:3,0:0:0:0:
321,39,114546,1,8,0:3:0:0:
321,39,114625,1,8,0:3:0:0:
275,123,114782,6,0,B|235:144|188:138,1,70,10|10,0:1|0:3,0:0:0:0:
208,141,115019,1,8,0:3:0:0:
208,141,115098,1,8,0:3:0:0:
133,75,115256,6,0,L|124:37,4,35,10|8|8|8|14,0:1|0:1|0:1|0:1|0:3,0:0:0:0:
52,250,116203,6,0,L|42:282,7,31.4999990386963,8|8|8|8|8|8|8|8,2:2|2:2|2:2|2:2|2:2|2:2|2:2|2:2,0:0:0:0:
42,305,116835,6,2,B|106:346|106:346|183:316,2,154.000004699707,14|8|8,0:3|0:2|0:3,0:1:0:0:
6,112,117782,1,10,0:2:0:0:
6,112,117940,1,8,0:3:0:0:
82,47,118098,2,0,B|154:18|154:18|218:59,1,154.000004699707,2|10,0:2|0:2,0:2:0:0:
253,153,118572,2,0,B|233:190|237:249,1,77.0000023498536,10|8,0:2|0:3,0:2:0:0:
340,228,118888,2,0,B|360:265|356:302,1,77.0000023498536,10|8,0:3|0:2,0:2:0:0:
282,369,119203,1,2,0:2:0:0:
185,320,119361,6,2,B|112:289|33:303,2,154.000004699707,10|10|10,0:3|0:2|0:3,0:1:0:0:
271,371,120151,1,8,0:3:0:0:
359,324,120309,2,0,B|378:290|377:247,1,77.0000023498536,10|8,0:1|0:3,0:0:0:0:
332,149,120625,6,2,B|291:86|307:1,1,154.000004699707,2|10,0:2|0:2,0:1:0:0:
401,69,121098,1,10,0:3:0:0:
401,69,121177,1,8,0:3:0:0:
401,69,121256,2,2,B|431:50|495:44,1,77.0000023498536,8|8,0:3|0:3,0:1:0:0:
466,137,121572,2,0,B|482:175|477:218,1,77.0000023498536,8|8,0:2|0:2,0:0:0:0:
414,298,121888,5,14,0:3:0:0:
414,298,122046,1,2,0:2:0:0:
323,255,122203,2,2,B|287:241|247:244,1,77.0000023498536,10|0,0:1|0:2,0:1:0:0:
159,310,122519,5,10,0:3:0:0:
159,310,122677,1,10,0:3:0:0:
77,252,122835,2,2,B|57:215|69:156,1,77.0000023498536,10|0,0:1|0:2,0:1:0:0:
127,86,123151,6,2,B|220:60|192:128|284:106,1,154.000004699707,2|10,0:2|0:2,0:1:0:0:
368,74,123625,2,2,B|366:33|383:-4,1,77.0000023498536,10|8,0:2|0:3,0:1:0:0:
468,94,123940,1,10,0:3:0:0:
468,94,124098,2,2,B|483:128|481:169,1,77.0000023498536,10|0,0:2|0:2,0:1:0:0:
445,281,124414,6,2,B|379:242|297:260,1,154.000004699707,10|8,0:3|0:2,0:1:0:0:
208,310,124888,1,0,0:2:0:0:
120,359,125046,2,2,B|78:367|36:341,1,77.0000023498536,10|8,0:3|0:3,0:1:0:0:
36,246,125361,2,2,B|8:213|9:164,1,77.0000023498536,10|8,0:2|0:3,0:1:0:0:
97,116,125677,6,2,B|123:38|210:24,1,154.000004699707,10|10,0:1|0:2,0:1:0:0:
318,22,126151,1,10,0:1:0:0:
318,22,126230,1,8,0:3:0:0:
318,22,126309,1,8,0:3:0:0:
409,62,126467,2,0,B|434:87|442:140,1,77.0000023498536,10|8,0:3|0:0,0:0:0:0:
389,231,126782,5,8,0:0:0:0:
389,231,126861,1,8,0:0:0:0:
389,231,126940,2,2,B|350:300|370:379,2,154.000004699707,14|8|8,0:3|0:2|0:3,0:1:0:0:
467,48,127888,1,10,0:2:0:0:
467,48,128046,1,8,0:3:0:0:
387,107,128203,6,0,B|304:119|241:70,1,154.000004699707,2|10,0:2|0:2,0:2:0:0:
141,76,128677,2,0,B|106:48|71:45,1,77.0000023498536,10|8,0:2|0:3,0:2:0:0:
63,145,128993,2,0,B|34:180|32:214,1,77.0000023498536,10|8,0:3|0:2,0:2:0:0:
67,309,129309,1,2,0:2:0:0:
166,359,129467,6,2,B|329:349,2,154.000004699707,10|10|10,0:3|0:2|0:3,0:1:0:0:
67,338,130256,1,8,0:3:0:0:
18,250,130414,2,0,B|12:211|30:172,1,77.0000023498536,10|8,0:1|0:3,0:0:0:0:
112,101,130730,6,2,B|163:95|163:95|201:115|201:115|260:108,1,154.000004699707,2|8,0:2|0:2,0:1:0:0:
363,87,131203,1,10,0:3:0:0:
363,87,131282,1,8,0:3:0:0:
363,87,131361,2,2,B|361:44|386:0,1,77.0000023498536,8|8,0:3|0:3,0:1:0:0:
457,105,131677,2,0,B|475:137|474:179,1,77.0000023498536,8|8,0:2|0:2,0:0:0:0:
439,281,131993,6,2,B|357:247|370:312|287:279,1,154.000004699707,14|8,0:3|0:2,0:1:0:0:
202,231,132467,1,0,0:2:0:0:
244,140,132625,2,2,B|250:100|241:63,1,77.0000023498536,10|8,0:3|0:3,0:1:0:0:
146,96,132940,2,2,B|121:63|89:43,1,77.0000023498536,10|8,0:2|0:3,0:1:0:0:
37,140,133256,6,0,B|-6:216|23:295,1,154.000004699707,2|10,0:1|0:1,0:0:0:0:
95,356,133730,2,0,B|190:332,1,77.0000023498536,10|8,0:2|0:3,0:0:0:0:
265,369,134046,1,8,0:3:0:0:
265,369,134203,2,0,B|268:283,1,77.0000023498536,10|0,0:1|0:0,0:0:0:0:
240,187,134519,6,2,B|213:208|186:208|186:208|143:179|152:124,1,154.000004699707,10|8,0:3|0:2,0:1:0:0:
179,28,134993,1,0,0:2:0:0:
277,43,135151,2,0,B|374:27,1,77.0000023498536,10|8,0:3|0:3,0:0:0:0:
424,101,135467,2,0,B|499:113,1,77.0000023498536,8|8,0:2|0:3,0:0:0:0:
426,199,135782,6,2,B|483:216|496:278|467:324,1,154.000004699707,2|10,0:2|0:2,0:1:0:0:
373,382,136256,1,10,0:3:0:0:
373,382,136335,1,8,0:3:0:0:
373,382,136414,2,0,B|354:281,1,77.0000023498536,8|8,0:2|0:2,0:0:0:0:
258,310,136730,2,0,B|239:209,1,77.0000023498536,8|8,0:3|0:3,0:0:0:0:
277,151,137046,6,0,B|332:171|389:147,3,112,14|8|8|8,0:3|0:3|0:3|0:3,0:0:0:0:
284,45,138309,6,0,B|255:34|221:32,1,62.9999980773926,8|8,0:3|0:0,0:0:0:0:
134,19,138625,2,0,B|109:38|94:71,1,62.9999980773926,8|8,0:3|0:0,0:0:0:0:
82,159,138940,6,0,L|95:203,3,35,8|8|8|8,2:2|2:2|2:2|2:2,0:0:0:0:
88,220,139256,2,0,L|101:264,3,35,8|8|8|8,2:2|2:2|2:2|2:2,0:0:0:0:
94,284,139572,6,0,B|157:331|157:331|228:284,1,154.000004699707,14|10,0:1|0:2,0:0:0:0:
298,339,140046,1,0,0:2:0:0:
371,283,140203,2,2,B|382:247|382:247|370:197,1,77.0000023498536,10|8,0:3|0:3,0:1:0:0:
325,134,140519,1,10,0:1:0:0:
325,134,140677,1,10,0:1:0:0:
236,180,140835,5,2,0:2:0:0:
236,180,140993,2,2,B|199:195|199:195|140:174,1,77.0000023498536,10|8,0:1|0:2,2:1:0:0:
74,206,141309,2,0,B|47:238|47:238|6:133|6:133|56:46,1,231.000007049561,10|10,0:1|0:1,0:0:0:0:
129,21,141940,5,10,0:3:0:0:
129,21,142019,1,8,0:3:0:0:
129,21,142098,2,0,L|289:38,1,154.000004699707,10|10,0:1|0:2,0:0:0:0:
372,84,142572,2,0,B|386:50|386:50|376:1,1,77.0000023498536,2|10,0:1|0:3,0:0:0:0:
282,37,142888,2,0,B|268:71|268:71|278:120,1,77.0000023498536,10|10,0:3|0:2,0:0:0:0:
359,189,143203,5,10,0:1:0:0:
359,189,143361,2,0,L|456:174,1,77.0000023498536,2|10,0:2|0:2,0:0:0:0:
512,265,143677,5,8,0:2:0:0:
512,265,143756,1,8,0:2:0:0:
512,265,143835,2,2,B|498:338|498:338|439:377|439:377|411:341|411:341|368:314,1,231.000007049561,8|8,0:3|0:2,2:1:0:0:
267,261,144467,5,8,0:3:0:0:
267,261,144546,1,8,0:3:0:0:
267,261,144625,2,0,B|254:291|224:304|224:304|193:257|137:253,1,154.000004699707,14|10,0:1|0:2,0:0:0:0:
43,291,145098,2,0,B|9:312|9:312|48:190,1,154.000004699707,2|10,0:1|0:3,0:0:0:0:
130,129,145572,2,0,B|153:164|212:157|212:157|222:124|250:106,1,154.000004699707,10|2,0:1|0:2,0:0:0:0:
335,47,146046,5,10,0:1:0:0:
424,84,146203,1,10,0:2:0:0:
424,84,146361,1,10,0:3:0:0:
438,181,146519,2,0,B|385:235|385:235|309:195,1,154.000004699707,2|10,0:1|0:1,0:0:0:0:
241,128,146993,5,8,0:3:0:0:
241,128,147072,1,8,0:3:0:0:
241,128,147151,2,0,B|248:90|248:90|230:53,1,77.0000023498536,10|2,0:3|0:1,0:0:0:0:
143,113,147467,2,2,B|121:81|121:81|83:67,1,77.0000023498536,10|8,0:2|0:1,0:1:0:0:
22,160,147782,5,10,0:1:0:0:
22,160,147940,2,2,B|6:194|6:194|7:252,1,77.0000023498536,2|8,0:2|0:2,0:1:0:0:
67,333,148256,6,2,B|120:326|120:326|149:354|149:354|222:368,1,154.000004699707,10|8,0:1|0:1,2:1:0:0:
301,316,148730,2,0,L|287:234,1,77.0000023498536,8|8,0:2|0:3,0:0:0:0:
239,163,149046,1,8,0:3:0:0:
239,163,149125,1,8,0:3:0:0:
239,163,149203,2,0,L|253:81,1,77.0000023498536,8|8,0:3|0:2,0:0:0:0:
329,22,149519,5,8,0:3:0:0:
329,22,149598,1,8,0:3:0:0:
329,22,149677,1,14,0:3:0:0:
438,176,159151,6,0,B|443:137|435:113,1,62.9999980773926,8|8,2:2|2:2,0:0:0:0:
429,98,159388,1,8,2:2:0:0:
416,87,159467,2,0,B|387:71|348:69,1,62.9999980773926,8|8,2:2|2:2,0:0:0:0:
256,96,159782,5,14,2:3:0:0:
256,96,160098,2,0,B|246:10,1,62.9999980773926,10|0,0:2|0:2,0:2:0:0:
240,106,160414,2,0,B|233:43,1,62.9999980773926,10|0,0:2|0:2,0:2:0:0:
224,116,160730,2,0,B|217:53,1,62.9999980773926,10|0,0:3|0:2,0:2:0:0:
134,113,161046,6,0,B|98:104|57:125,1,62.9999980773926,10|8,0:2|0:3,0:2:0:0:
63,127,161282,1,8,0:3:0:0:
56,137,161361,2,0,B|38:163|35:196,1,62.9999980773926,10|8,0:3|0:2,0:0:0:0:
41,285,161677,1,10,0:3:0:0:
41,285,161756,1,8,0:3:0:0:
41,285,161835,1,8,0:3:0:0:
98,343,161993,2,0,B|164:358|221:326,1,125.999996154785,10|14,0:2|0:3,0:0:0:0:
220,326,162625,6,0,B|227:244,1,62.9999980773926,10|0,0:2|0:2,0:2:0:0:
238,321,162940,2,0,B|245:239,1,62.9999980773926,10|0,0:2|0:2,0:2:0:0:
257,316,163256,2,0,B|264:234,1,62.9999980773926,10|8,0:3|0:2,0:2:0:0:
361,313,163572,6,0,B|392:319|424:310,1,62.9999980773926,10|8,0:3|0:3,0:0:0:0:
434,303,163809,1,8,0:3:0:0:
445,296,163888,2,0,B|468:271|468:235,1,62.9999980773926,8|8,0:3|0:2,0:0:0:0:
427,169,164203,1,10,0:3:0:0:
427,169,164282,1,8,0:3:0:0:
427,169,164361,1,8,0:3:0:0:
427,83,164519,2,0,B|435:51|463:9,2,62.9999980773926,8|8|14,0:2|0:2|0:3,0:0:0:0:
427,83,165151,6,0,B|395:82|370:60,1,62.9999980773926,10|0,0:2|0:2,0:2:0:0:
421,98,165467,2,0,B|389:97|364:74,1,62.9999980773926,10|0,0:2|0:2,0:2:0:0:
413,113,165782,2,0,B|382:112|356:90,1,62.9999980773926,10|0,0:3|0:2,0:2:0:0:
262,136,166098,6,0,B|239:118|195:109,1,62.9999980773926,10|8,0:2|0:3,0:2:0:0:
192,113,166335,1,8,0:3:0:0:
180,117,166414,2,0,B|151:120|113:145,1,62.9999980773926,10|8,0:3|0:2,0:0:0:0:
67,202,166730,1,8,0:3:0:0:
67,202,166809,1,8,0:3:0:0:
67,202,166888,1,8,0:3:0:0:
127,257,167046,2,0,B|156:276|185:279,1,62.9999980773926,10|8,0:2|0:3,0:0:0:0:
280,229,167361,6,2,B|271:162|296:91,1,140,14|8,0:3|0:2,0:2:0:0:
363,35,167835,1,8,0:3:0:0:
439,75,167993,2,0,B|451:102|454:143,1,70,10|8,0:2|0:3,0:0:0:0:
453,157,168230,1,8,0:3:0:0:
453,170,168309,2,0,L|445:254,1,70,8|8,0:3|0:3,0:0:0:0:
413,333,168625,6,0,B|373:311|326:317,1,70,10|8,0:1|0:3,0:0:0:0:
346,315,168861,1,8,0:3:0:0:
346,315,168940,1,8,0:3:0:0:
260,361,169098,6,0,B|220:382|173:376,1,70,10|8,0:1|0:3,0:0:0:0:
193,379,169335,1,8,0:3:0:0:
193,379,169414,1,8,0:3:0:0:
98,350,169572,6,0,B|78:321|77:265,1,70,10|8,0:1|0:3,0:0:0:0:
118,186,169888,6,0,B|151:164|200:163,1,70,12|8,0:2|0:3,0:0:0:0:
197,168,170125,1,8,0:3:0:0:
208,175,170203,2,0,B|241:197|273:197,1,70,8|8,0:3|0:1,0:0:0:0:
372,195,170519,2,0,L|406:221,2,35,8|8|8,0:3|0:3|0:3,0:0:0:0:
346,107,170835,2,0,B|319:77|288:68,1,70,8|8,0:3|0:3,0:0:0:0:
183,29,171151,6,0,B|149:47|114:41,1,70,14|8,0:1|0:1,0:0:0:0:
115,41,171388,1,8,0:1:0:0:
115,41,171467,1,8,0:1:0:0:
41,101,171625,6,0,B|23:135|28:169,1,70,10|8,0:1|0:3,0:0:0:0:
28,168,171861,1,8,0:3:0:0:
28,168,171940,1,8,0:3:0:0:
73,258,172098,6,0,L|119:271,4,35,10|8|8|8|14,0:1|0:2|0:2|0:2|0:3,0:0:0:0:
351,366,173046,6,0,L|393:355,7,31.4999990386963,8|8|8|8|8|8|8|8,0:2|0:2|0:2|0:2|0:2|0:2|0:2|0:2,0:0:0:0:
406,368,173677,6,2,B|442:305|415:208,2,154.000004699707,14|8|8,0:3|0:2|0:3,0:1:0:0:
244,257,174625,1,10,0:2:0:0:
244,257,174782,1,8,0:3:0:0:
159,309,174940,6,0,B|89:342|89:342|32:289,1,154.000004699707,2|10,0:2|0:2,0:2:0:0:
39,189,175414,2,0,B|20:155|22:93,1,77.0000023498536,10|8,0:2|0:3,0:2:0:0:
122,116,175730,2,0,B|132:78|177:36,1,77.0000023498536,10|8,0:3|0:2,0:2:0:0:
259,22,176046,1,2,0:2:0:0:
357,73,176203,6,2,B|428:107|428:107|516:62,2,154.000004699707,10|10|10,0:3|0:2|0:3,0:1:0:0:
274,16,176993,1,8,0:3:0:0:
212,95,177151,2,0,B|192:135|211:177,1,77.0000023498536,10|8,0:1|0:3,0:0:0:0:
291,240,177467,6,2,B|351:221|380:290|380:290|345:330,1,154.000004699707,2|10,0:2|0:2,0:1:0:0:
272,370,177940,1,10,0:3:0:0:
272,370,178019,1,8,0:3:0:0:
272,370,178098,2,2,L|180:358,1,77.0000023498536,8|8,0:3|0:3,0:1:0:0:
97,381,178414,2,0,L|95:286,1,77.0000023498536,8|8,0:2|0:2,0:0:0:0:
163,215,178730,5,14,0:3:0:0:
163,215,178888,1,2,0:2:0:0:
254,255,179046,2,2,B|300:260|346:227,1,77.0000023498536,10|0,0:1|0:2,0:1:0:0:
405,168,179361,5,10,0:3:0:0:
405,168,179519,1,10,0:3:0:0:
342,89,179677,2,2,B|308:66|250:70,1,77.0000023498536,10|0,0:1|0:2,0:1:0:0:
163,93,179993,6,2,B|147:118|119:128|119:128|80:92|30:94,1,154.000004699707,2|10,0:2|0:2,0:1:0:0:
43,194,180467,2,2,B|20:225|20:272,1,77.0000023498536,10|8,0:2|0:3,0:1:0:0:
75,350,180782,1,10,0:3:0:0:
75,350,180940,2,2,B|108:336|153:326,1,77.0000023498536,10|0,0:2|0:2,0:1:0:0:
257,343,181256,6,2,B|328:380|406:363,1,154.000004699707,10|8,0:3|0:2,0:1:0:0:
502,331,181730,1,0,0:2:0:0:
504,230,181888,2,2,B|503:191|483:142,1,77.0000023498536,10|8,0:3|0:3,0:1:0:0:
399,201,182203,2,2,B|376:169|332:139,1,77.0000023498536,10|8,0:2|0:3,0:1:0:0:
284,238,182519,6,2,B|195:215|224:295|132:289,1,154.000004699707,2|8,0:2|0:2,0:1:0:0:
56,276,182993,1,10,0:3:0:0:
56,276,183072,1,8,0:3:0:0:
56,276,183151,1,8,0:3:0:0:
7,188,183309,2,0,B|3:144|20:113,1,77.0000023498536,10|8,0:1|0:2,0:0:0:0:
106,46,183625,5,8,0:2:0:0:
106,46,183703,1,8,0:2:0:0:
106,46,183782,2,2,B|160:33|160:33|203:60|262:41,2,154.000004699707,14|8|8,0:3|0:2|0:3,0:1:0:0:
3,218,184730,1,10,0:2:0:0:
3,218,184888,1,8,0:3:0:0:
56,302,185046,6,0,B|107:285|150:312|150:312|204:299,1,154.000004699707,2|10,0:2|0:2,0:2:0:0:
299,350,185519,2,0,B|301:253,1,77.0000023498536,10|8,0:2|0:3,0:2:0:0:
213,212,185835,2,0,B|215:115,1,77.0000023498536,10|8,0:3|0:2,0:2:0:0:
245,39,186151,1,2,0:2:0:0:
348,79,186309,6,2,B|435:110|499:67,2,154.000004699707,10|10|10,0:3|0:2|0:3,0:1:0:0:
260,30,187098,1,8,0:3:0:0:
202,112,187256,2,0,B|188:153|197:192,1,77.0000023498536,10|8,0:1|0:3,0:0:0:0:
255,280,187572,6,2,B|310:299|310:299|326:332|326:332|387:355,1,154.000004699707,2|8,0:2|0:2,0:1:0:0:
481,321,188046,1,10,0:3:0:0:
481,321,188125,1,8,0:3:0:0:
481,321,188203,2,2,B|499:281|488:231,1,77.0000023498536,8|8,0:3|0:3,0:1:0:0:
439,159,188519,2,0,B|435:120|416:86,1,77.0000023498536,8|8,0:2|0:2,0:0:0:0:
307,59,188835,6,2,B|246:12|159:25,1,154.000004699707,14|8,0:3|0:2,0:1:0:0:
65,57,189309,1,0,0:2:0:0:
15,143,189467,2,2,B|4:182|16:229,1,77.0000023498536,10|8,0:3|0:3,0:1:0:0:
91,282,189782,2,2,B|127:266|167:269,1,77.0000023498536,10|8,0:2|0:3,0:1:0:0:
250,336,190098,6,0,B|303:381|398:360,1,154.000004699707,2|10,0:1|0:1,0:0:0:0:
480,304,190572,2,0,B|467:227,1,77.0000023498536,10|8,0:2|0:3,0:0:0:0:
419,145,190888,1,8,0:3:0:0:
419,145,191046,2,0,B|388:134|332:136,1,77.0000023498536,10|0,0:1|0:0,0:0:0:0:
257,204,191361,6,2,B|190:259|94:219,1,154.000004699707,10|8,0:3|0:2,0:1:0:0:
16,192,191835,1,0,0:2:0:0:
22,92,191993,2,0,B|30:52|57:18,1,77.0000023498536,10|8,0:3|0:3,0:0:0:0:
148,55,192309,2,0,B|181:32|225:27,1,77.0000023498536,8|8,0:2|0:3,0:0:0:0:
311,89,192625,6,2,B|323:144|323:144|312:178|312:178|328:257,1,154.000004699707,2|10,0:2|0:2,0:1:0:0:
381,333,193098,1,10,0:3:0:0:
381,333,193177,1,8,0:3:0:0:
381,333,193256,2,0,B|418:344|470:314,1,77.0000023498536,8|8,0:2|0:2,0:0:0:0:
499,231,193572,2,0,B|479:129,1,77.0000023498536,8|8,0:3|0:3,0:0:0:0:
436,69,193888,6,0,B|383:88|329:54,3,112,14|8|8|8,0:3|0:3|0:3|0:3,0:0:0:0:
227,145,195151,6,0,B|174:125|120:159,1,112,8|8,0:3|0:3,0:0:0:0:
18,260,195782,5,8,0:2:0:0:
18,260,195940,1,8,0:2:0:0:
203,358,196414,6,0,B|263:369|323:349,1,119.000002269745,6|0,0:1|0:2,0:0:0:0:
393,323,196888,1,0,0:2:0:0:
393,323,197046,2,0,B|395:197,1,119.000002269745,10|0,0:2|0:2,0:0:0:0:
356,53,197677,1,2,0:1:0:0:
210,105,197993,6,0,B|183:117|148:104,1,59.5000011348725,2|0,0:2|0:2,0:0:0:0:
211,125,198309,2,0,B|184:137|153:126,1,59.5000011348725,10|0,0:2|0:2,0:0:0:0:
211,145,198625,2,0,B|184:157|153:146,1,59.5000011348725,2|0,0:2|0:2,0:0:0:0:
67,174,198940,6,0,B|31:228|47:287,2,119.000002269745,2|0|8,0:1|0:2|0:2,0:2:0:0:
169,59,199888,1,0,0:2:0:0:
169,59,200046,1,0,0:2:0:0:
236,96,200203,2,0,B|297:111|362:81,1,119.000002269745,2|0,0:1|0:2,0:0:0:0:
462,188,200835,2,0,B|401:173|336:203,1,119.000002269745,10|0,0:2|0:2,0:0:0:0:
258,333,201467,6,0,B|202:358|141:343,1,119.000002269745,6|0,0:1|0:2,0:0:0:0:
72,308,201940,1,0,0:2:0:0:
72,308,202098,2,0,L|57:179,1,119.000002269745,8|0,0:2|0:2,0:0:0:0:
92,38,202730,1,2,0:1:0:0:
242,73,203046,6,0,B|275:78|303:62,1,59.5000011348725,2|0,0:2|0:2,0:0:0:0:
302,85,203361,2,0,B|275:99|244:93,1,59.5000011348725,10|0,0:2|0:2,0:0:0:0:
247,113,203677,2,0,B|275:120|304:104,1,59.5000011348725,2|0,0:2|0:2,0:0:0:0:
411,116,203993,6,0,B|450:163|459:225,1,119.000002269745,2|0,0:1|0:2,0:2:0:0:
446,303,204467,1,0,0:2:0:0:
446,303,204625,2,0,B|392:341|322:315,1,119.000002269745,8|0,0:2|0:2,0:2:0:0:
255,184,205256,6,0,B|240:105,1,59.5000011348725,2|0,0:1|0:2,0:2:0:0:
233,119,205493,1,0,0:2:0:0:
223,111,205572,2,0,B|208:32,1,59.5000011348725,0|0,0:2|0:2,0:2:0:0:
128,21,205888,2,0,B|89:13|50:48|59:96,1,119.000002269745,10|0,0:1|0:2,0:0:0:0:
68,175,206361,1,8,0:2:0:0:
138,223,206519,6,0,B|258:211,1,119.000002269745,6|0,0:1|0:2,0:0:0:0:
329,184,206993,1,0,0:2:0:0:
329,184,207151,2,0,B|309:122|343:63,1,119.000002269745,8|0,0:2|0:2,0:0:0:0:
478,0,207782,1,2,0:1:0:0:
511,151,208098,6,0,B|507:222,1,59.5000011348725,2|0,0:2|0:2,0:0:0:0:
488,211,208414,2,0,B|491:151,1,59.5000011348725,10|0,0:2|0:2,0:0:0:0:
471,151,208730,2,0,B|468:211,1,59.5000011348725,2|0,0:2|0:2,0:0:0:0:
403,282,209046,6,0,B|345:263|339:310|276:283,2,119.000002269745,2|0|8,0:1|0:2|0:2,0:2:0:0:
490,151,209993,1,0,0:2:0:0:
490,151,210151,1,0,0:2:0:0:
438,90,210309,2,0,B|388:57|324:62,1,119.000002269745,2|0,0:1|0:2,0:0:0:0:
362,212,210940,2,0,B|312:245|248:240,1,119.000002269745,10|0,0:2|0:2,0:0:0:0:
148,133,211572,6,0,B|154:65|102:17,1,119.000002269745,6|0,0:1|0:2,0:2:0:0:
32,37,212046,1,0,0:2:0:0:
32,37,212203,2,0,B|0:87|22:151,1,119.000002269745,8|0,0:2|0:2,0:2:0:0:
95,287,212835,6,0,B|224:270,1,119.000002269745,2|0,0:1|0:2,0:0:0:0:
255,342,213309,1,0,0:2:0:0:
255,342,213467,2,0,B|384:359,1,119.000002269745,8|0,0:2|0:2,0:0:0:0:
502,257,214098,6,0,B|521:195|500:126,1,125.999996154785,10|0,0:1|0:2,0:2:0:0:
453,63,214572,1,0,0:2:0:0:
453,63,214730,2,0,B|323:49,1,125.999996154785,8|0,0:2|0:2,0:2:0:0:
222,145,215361,6,0,B|205:224,1,70,14|8,0:1|0:3,0:0:0:0:
197,228,215598,1,8,0:3:0:0:
188,243,215677,2,0,B|171:322,1,70,8|8,0:3|0:3,0:0:0:0:
97,373,215993,2,0,B|60:375|27:352,1,70,14|8,0:2|0:3,0:0:0:0:
0,268,216309,2,0,B|15:192,1,62.9999980773926,10|8,0:2|0:3,0:2:0:0:
89,125,216625,6,0,B|157:150|157:150|233:118,1,154.000004699707,14|10,0:1|0:2,0:0:0:0:
331,86,217098,1,10,0:3:0:0:
331,86,217177,1,8,0:3:0:0:
331,86,217256,2,0,B|320:47|341:7,1,77.0000023498536,10|10,0:1|0:3,0:0:0:0:
428,95,217572,2,0,B|446:130|435:169,1,77.0000023498536,10|8,0:2|0:3,0:2:0:0:
374,255,217888,6,0,B|329:246|329:246|285:272|285:272|225:264,1,154.000004699707,10|10,0:1|0:2,0:0:0:0:
170,180,218361,1,10,0:3:0:0:
170,180,218440,1,8,0:3:0:0:
170,180,218519,2,0,B|173:137|155:97,1,77.0000023498536,10|10,0:1|0:3,0:0:0:0:
93,38,218835,1,10,0:2:0:0:
35,111,218993,5,8,0:3:0:0:
35,111,219072,1,8,0:3:0:0:
35,111,219151,2,0,B|8:188|36:274,1,154.000004699707,10|10,0:1|0:2,0:0:0:0:
102,348,219625,1,10,0:3:0:0:
102,348,219703,1,8,0:3:0:0:
102,348,219782,2,0,B|171:324|259:336,1,154.000004699707,10|10,0:1|0:2,0:0:0:0:
464,370,220414,6,0,B|492:298|468:219,1,154.000004699707,10|10,0:1|0:2,0:0:0:0:
414,140,220888,1,10,0:3:0:0:
414,140,220967,1,8,0:3:0:0:
414,140,221046,2,0,B|373:148|338:135,1,77.0000023498536,10|10,0:1|0:3,0:0:0:0:
265,74,221361,1,10,0:2:0:0:
188,138,221519,5,8,0:3:0:0:
188,138,221598,1,8,0:3:0:0:
188,138,221677,2,2,B|155:205|174:288,1,154.000004699707,14|10,0:1|0:1,0:1:0:0:
236,370,222151,1,8,0:3:0:0:
336,383,222309,2,2,B|425:371,1,77.0000023498536,10|8,0:1|0:3,0:1:0:0:
489,307,222625,2,2,B|475:209,1,77.0000023498536,10|8,0:1|0:3,0:1:0:0:
450,127,222940,6,0,B|426:165|382:163|382:163|360:132|323:122,1,154.000004699707,10|10,0:1|0:1,0:0:0:0:
222,133,223414,1,8,0:3:0:0:
208,232,223572,2,0,B|198:320,1,77.0000023498536,10|8,0:1|0:3,0:0:0:0:
123,373,223888,1,10,0:1:0:0:
123,373,224046,1,8,0:3:0:0:
34,317,224203,6,2,B|16:241|42:164,1,154.000004699707,10|10,0:1|0:1,0:1:0:0:
67,67,224677,1,8,0:3:0:0:
161,99,224835,2,2,B|241:121|241:121|316:92,1,154.000004699707,10|10,0:1|0:1,0:1:0:0:
489,152,225467,6,0,B|503:197|495:228,1,77.0000023498536,10|8,0:1|0:3,0:0:0:0:
492,242,225703,1,8,0:3:0:0:
482,254,225782,2,0,B|388:245,1,77.0000023498536,10|8,0:1|0:3,0:0:0:0:
341,172,226098,2,0,B|340:125|327:96,1,77.0000023498536,10|8,0:1|0:3,0:0:0:0:
319,83,226335,1,8,0:3:0:0:
307,72,226414,2,0,L|224:52,1,77.0000023498536,10|8,0:1|0:3,0:0:0:0:
129,88,226730,6,0,B|89:118|89:118|113:234,1,154.000004699707,14|10,0:1|0:2,0:0:0:0:
199,285,227203,1,10,0:3:0:0:
199,285,227282,1,8,0:3:0:0:
199,285,227361,2,0,B|218:211,1,77.0000023498536,10|10,0:1|0:3,0:0:0:0:
298,149,227677,2,0,B|333:135|380:143,1,77.0000023498536,10|8,0:2|0:3,0:2:0:0:
455,223,227993,6,0,B|489:278|472:337|472:337|422:362,1,154.000004699707,10|10,0:1|0:2,0:0:0:0:
349,380,228467,1,10,0:3:0:0:
349,380,228546,1,8,0:3:0:0:
349,380,228625,2,0,B|348:335|324:296,1,77.0000023498536,10|10,0:1|0:3,0:0:0:0:
264,230,228940,1,10,0:2:0:0:
182,296,229098,5,8,0:3:0:0:
182,296,229177,1,8,0:3:0:0:
182,296,229256,2,0,B|110:332|110:332|52:279,1,154.000004699707,10|10,0:1|0:2,0:0:0:0:
9,195,229730,1,10,0:3:0:0:
9,195,229809,1,8,0:3:0:0:
9,195,229888,2,0,B|-2:114|49:50,1,154.000004699707,10|10,0:1|0:2,0:0:0:0:
245,11,230519,6,0,B|304:20|304:20|325:50|325:50|382:61,1,154.000004699707,10|10,0:1|0:2,0:0:0:0:
391,169,230993,1,10,0:3:0:0:
391,169,231072,1,8,0:3:0:0:
391,169,231151,2,0,B|424:148|470:144,1,77.0000023498536,10|10,0:1|0:3,0:0:0:0:
511,233,231467,1,8,0:2:0:0:
464,324,231625,5,8,0:3:0:0:
464,324,231703,1,8,0:3:0:0:
464,324,231782,2,0,B|387:348|315:308,1,154.000004699707,14|10,0:1|0:1,0:0:0:0:
234,247,232256,1,8,0:3:0:0:
277,156,232414,2,0,B|290:121|284:67,1,77.0000023498536,10|8,0:1|0:3,0:0:0:0:
184,80,232730,2,0,B|168:46|126:12,1,77.0000023498536,10|8,0:1|0:3,0:0:0:0:
56,88,233046,6,0,B|15:123|7:178|29:229,1,154.000004699707,14|10,0:1|0:1,0:0:0:0:
72,319,233519,1,8,0:3:0:0:
159,368,233677,2,0,B|314:350,1,154.000004699707,10|10,0:1|0:1,0:0:0:0:
479,239,234309,6,0,B|491:203|480:162,1,77.0000023498536,14|8,0:1|0:3,0:0:0:0:
471,145,234546,1,8,0:3:0:0:
457,130,234625,2,0,B|416:133|382:112,1,77.0000023498536,10|8,0:1|0:3,0:0:0:0:
312,42,234940,6,0,B|279:21|238:24,1,77.0000023498536,10|8,0:1|0:3,0:0:0:0:
220,31,235177,1,8,0:3:0:0:
204,42,235256,2,0,B|183:76|185:115,1,77.0000023498536,10|8,0:1|0:3,0:0:0:0:
256,186,235572,6,0,B|295:184|329:207,1,77.0000023498536,14|8,0:1|0:3,0:0:0:0:
340,222,235809,1,8,0:3:0:0:
349,239,235888,2,0,B|350:278|334:315,1,77.0000023498536,10|8,0:1|0:3,0:0:0:0:
249,366,236203,6,0,L|165:352,1,77.0000023498536,10|8,0:1|0:3,0:0:0:0:
154,358,236440,1,8,0:3:0:0:
135,362,236519,2,0,B|102:335|88:268|123:219,1,154.000004699707,10|14,0:1|0:3,0:0:0:0:
