osu file format v14

[General]
AudioFilename: audio.mp3
AudioLeadIn: 0
PreviewTime: 61848
Countdown: 0
SampleSet: Normal
StackLeniency: 0.7
Mode: 0
LetterboxInBreaks: 0
WidescreenStoryboard: 1

[Editor]
DistanceSpacing: 1
BeatDivisor: 4
GridSize: 32
TimelineZoom: 2.1

[Metadata]
Title:one
TitleUnicode:one
Artist:Yousei Teikoku
ArtistUnicode:妖精帝國
Creator:Lasse
Version:Expert
Source:クイーンズブレイド スパイラルカオス
Tags:Yōsei Japanese Rock gothic lolita agitator lantis Queen's Blade: Spiral Chaos opening video game
BeatmapID:2464763
BeatmapSetID:1182149

[Difficulty]
HPDrainRate:6.2
CircleSize:4.2
OverallDifficulty:8.7
ApproachRate:9.1
SliderMultiplier:1.76
SliderTickRate:1

[Events]
//Background and Video events
0,0,"q1.jpg",0,0
//Break Periods
//Storyboard Layer 0 (Background)
//Storyboard Layer 1 (Fail)
//Storyboard Layer 2 (Pass)
//Storyboard Layer 3 (Foreground)
//Storyboard Layer 4 (Overlay)
//Storyboard Sound Samples

[TimingPoints]
625,315.789473684211,4,1,1,60,1,0
10730,-100,4,1,1,67,0,0
20835,-100,4,1,1,60,0,0
21151,-133.333333333333,4,2,1,58,0,0
30625,-133.333333333333,4,2,1,62,0,0
30940,-100,4,1,1,67,0,0
41046,-100,4,1,1,60,0,0
41361,-133.333333333333,4,2,1,58,0,0
50835,-133.333333333333,4,2,1,62,0,0
51151,-111.111111111111,4,1,1,64,0,0
58730,-100,4,1,1,66,0,0
61888,-100,4,2,1,48,0,0
61967,-100,4,2,1,50,0,0
62046,-100,4,2,1,52,0,0
62125,-100,4,2,1,54,0,0
62203,-100,4,2,1,56,0,0
62282,-100,4,2,1,58,0,0
62361,-100,4,2,1,60,0,0
62440,-100,4,2,1,62,0,0
62519,-90.9090909090909,4,1,1,70,0,1
72151,-90.9090909090909,4,1,2,70,0,1
72309,-90.9090909090909,4,1,1,70,0,1
72467,-90.9090909090909,4,1,1,70,0,0
72625,-90.9090909090909,4,1,1,70,0,1
81940,-90.9090909090909,4,1,1,68,0,1
82098,-90.9090909090909,4,1,1,66,0,1
82414,-90.9090909090909,4,1,1,64,0,1
82730,-100,4,1,1,60,0,0
83046,-100,4,1,1,58,0,0
84625,-100,4,2,1,62,0,0
84940,-100,4,2,1,64,0,0
85256,-100,4,1,1,67,0,0
95361,-100,4,1,1,60,0,0
95677,-133.333333333333,4,2,1,58,0,0
105151,-133.333333333333,4,2,1,62,0,0
105467,-111.111111111111,4,1,1,64,0,0
113046,-100,4,1,1,66,0,0
116203,-100,4,2,1,50,0,0
116282,-100,4,2,1,52,0,0
116361,-100,4,2,1,54,0,0
116440,-100,4,2,1,56,0,0
116519,-100,4,2,1,58,0,0
116598,-100,4,2,1,60,0,0
116677,-100,4,2,1,62,0,0
116756,-100,4,2,1,64,0,0
116835,-90.9090909090909,4,1,1,70,0,1
125677,-90.9090909090909,4,1,2,70,0,1
125756,-90.9090909090909,4,1,1,70,0,1
126151,-90.9090909090909,4,1,2,70,0,1
126230,-90.9090909090909,4,1,1,70,0,1
126625,-90.9090909090909,4,1,1,70,0,0
126940,-90.9090909090909,4,1,1,70,0,1
136256,-90.9090909090909,4,1,1,68,0,1
136414,-90.9090909090909,4,1,1,66,0,1
136730,-90.9090909090909,4,1,1,64,0,1
137046,-100,4,1,1,60,0,0
137361,-100,4,1,1,58,0,0
138309,-100,4,1,1,60,0,0
138940,-100,4,2,1,62,0,0
139256,-100,4,2,1,64,0,0
139572,-90.9090909090909,4,1,2,70,0,0
139730,-90.9090909090909,4,1,1,70,0,0
140993,-90.9090909090909,4,1,2,70,0,0
141151,-90.9090909090909,4,1,1,70,0,0
141309,-90.9090909090909,4,1,2,70,0,0
141467,-90.9090909090909,4,1,1,70,0,0
142098,-90.9090909090909,4,1,2,70,0,0
142256,-90.9090909090909,4,1,1,70,0,0
143203,-90.9090909090909,4,1,2,70,0,0
143361,-90.9090909090909,4,1,1,70,0,0
144625,-90.9090909090909,4,1,2,70,0,0
144782,-90.9090909090909,4,1,1,70,0,0
146046,-90.9090909090909,4,1,2,70,0,0
146203,-90.9090909090909,4,1,1,70,0,0
147782,-90.9090909090909,4,1,2,70,0,0
147940,-90.9090909090909,4,1,1,70,0,0
148256,-90.9090909090909,4,1,2,70,0,0
148572,-90.9090909090909,4,1,1,68,0,0
149046,-90.9090909090909,4,1,1,66,0,0
149361,-90.9090909090909,4,1,1,64,0,0
149519,-90.9090909090909,4,2,1,60,0,0
149598,-90.9090909090909,4,2,1,58,0,0
149677,-200,4,2,1,56,0,0
149756,-200,4,2,1,50,0,0
159151,-200,4,1,1,56,0,0
159782,-100,4,1,1,64,0,0
160098,-111.111111111111,4,1,1,64,0,0
167361,-99.9999999999999,4,1,1,66,0,0
171151,-99.9999999999999,4,1,1,68,0,0
173046,-99.9999999999999,4,2,1,52,0,0
173125,-99.9999999999999,4,2,1,54,0,0
173203,-99.9999999999999,4,2,1,56,0,0
173282,-99.9999999999999,4,2,1,58,0,0
173361,-99.9999999999999,4,2,1,60,0,0
173440,-99.9999999999999,4,2,1,62,0,0
173519,-99.9999999999999,4,2,1,64,0,0
173598,-99.9999999999999,4,2,1,66,0,0
173677,-83.3333333333333,4,1,1,72,0,1
183309,-83.3333333333333,4,1,2,72,0,1
183467,-83.3333333333333,4,1,1,72,0,1
183625,-83.3333333333333,4,1,1,72,0,0
183782,-83.3333333333333,4,1,1,72,0,1
193098,-83.3333333333333,4,1,1,70,0,1
193256,-83.3333333333333,4,1,1,68,0,1
193572,-83.3333333333333,4,1,1,66,0,1
193888,-100,4,1,1,60,0,0
194203,-100,4,1,1,58,0,0
195782,-100,4,1,1,62,0,0
196414,-125,4,1,1,60,0,0
214098,-111.111111111111,4,1,1,62,0,0
215361,-100,4,1,1,64,0,0
216309,-111.111111111111,4,1,1,65,0,0
216625,-83.3333333333333,4,1,1,72,0,1
226572,-83.3333333333333,4,1,1,72,0,0
226730,-76.9230769230769,4,1,1,74,0,1
234309,-76.9230769230769,4,1,1,76,0,1
236677,-76.9230769230769,4,1,1,74,0,1
236756,-76.9230769230769,4,1,1,72,0,1
236835,-100,4,1,99,70,0,0

[Colours]
Combo1 : 240,140,140
Combo2 : 200,180,220
Combo3 : 240,200,155
Combo4 : 150,185,220

[HitObjects]
101,64,10098,5,10,0:1:0:0:
88,229,10256,1,10,0:3:0:0:
88,229,10730,6,2,B|42:144|101:63,1,176,14|8,0:3|0:2,0:1:0:0:
325,123,11203,2,0,B|321:210,1,88,2|8,0:2|0:3,0:2:0:0:
201,248,11519,2,0,B|204:160,1,88,10|8,0:3|0:2,0:2:0:0:
443,99,11835,6,2,B|486:154|466:223,1,132,10|0,0:3|0:2,0:1:0:0:
430,291,12151,2,0,L|317:300,1,88,10|8,0:3|0:2,0:2:0:0:
201,248,12467,5,8,0:3:0:0:
249,384,12625,1,2,0:2:0:0:
204,229,12782,1,8,0:3:0:0:
107,366,12940,1,8,0:2:0:0:
25,233,13098,5,8,0:3:0:0:
25,233,13177,1,8,0:3:0:0:
25,233,13256,2,2,B|65:265|65:265|127:242|123:159,1,176,10|8,0:3|0:2,0:1:0:0:
52,22,13730,2,0,B|22:58|25:116,1,88,2|8,0:2|0:3,0:2:0:0:
242,69,14046,2,0,B|225:25|174:-1,1,88,10|8,0:3|0:2,0:2:0:0:
137,196,14361,6,2,B|230:214|200:138|309:158,1,176,10|8,0:3|0:3,0:1:0:0:
443,219,14835,1,8,0:2:0:0:
384,346,14993,1,8,0:3:0:0:
350,249,15151,1,2,0:2:0:0:
480,312,15309,1,8,0:3:0:0:
295,317,15467,1,8,0:2:0:0:
378,157,15625,5,8,0:3:0:0:
378,157,15703,1,8,0:3:0:0:
378,157,15782,2,2,B|392:116|379:55,1,88,14|0,0:3|0:2,0:1:0:0:
311,0,16098,1,8,0:2:0:0:
212,108,16256,2,0,B|198:149|211:210,1,88,2|8,0:2|0:3,0:2:0:0:
329,293,16572,2,0,L|422:303,1,88,10|8,0:3|0:2,0:2:0:0:
214,357,16888,6,2,B|170:349|170:349|137:367|137:367|83:369,1,132,10|0,0:3|0:2,0:1:0:0:
25,333,17203,2,0,B|7:295|17:242,1,88,10|8,0:3|0:2,0:2:0:0:
74,78,17519,5,8,0:3:0:0:
108,209,17677,1,2,0:2:0:0:
179,26,17835,1,8,0:3:0:0:
213,157,17993,1,8,0:2:0:0:
305,11,18151,5,8,0:3:0:0:
305,11,18230,1,8,0:3:0:0:
305,11,18309,2,2,B|314:73|389:98|442:49,1,176,10|8,0:3|0:2,0:1:0:0:
312,156,18782,2,0,B|293:196|300:246,1,88,2|8,0:2|0:3,0:2:0:0:
470,356,19098,2,0,B|476:310|457:270,1,88,10|8,0:3|0:2,0:2:0:0:
293,134,19414,6,2,B|283:196|208:221|155:172,1,176,10|8,0:3|0:3,0:1:0:0:
40,84,19888,1,8,0:2:0:0:
15,294,20046,1,8,0:3:0:0:
164,180,20203,1,8,0:3:0:0:
164,180,20282,1,8,0:3:0:0:
164,180,20361,1,8,0:3:0:0:
194,278,20519,1,10,0:1:0:0:
8,191,20677,1,8,0:2:0:0:
8,191,20756,1,8,0:2:0:0:
8,191,20835,1,12,1:3:0:0:
137,331,21151,6,0,B|214:312|192:357|267:346,1,132.000005035401,10|8,0:2|0:3,0:2:0:0:
356,384,21625,2,0,B|367:355|357:306,1,66.0000025177003,10|8,0:3|0:2,0:2:0:0:
303,199,21940,2,2,B|283:262|283:262|249:282|222:250,1,132.000005035401,10|8,0:3|0:3,0:2:0:0:
153,190,22414,1,10,0:2:0:0:
153,190,22572,2,2,B|137:40,1,132.000005035401,8|8,0:3|0:3,0:2:0:0:
301,77,23046,2,0,L|309:4,1,66.0000025177003,10|8,0:2|0:3,0:2:0:0:
308,11,23282,1,8,0:3:0:0:
308,11,23361,1,10,0:3:0:0:
427,190,23677,6,0,L|506:185,1,66.0000025177003,10|0,0:2|0:2,0:2:0:0:
419,272,23993,1,10,0:3:0:0:
419,272,24151,2,0,L|495:295,1,66.0000025177003,8|8,0:3|0:2,0:2:0:0:
365,342,24467,2,2,B|311:381|232:348,1,132.000005035401,10|8,0:3|0:3,2:2:0:0:
103,375,24940,2,2,L|112:305,1,66.0000025177003,10|8,0:2|0:3,0:2:0:0:
127,231,25256,1,8,0:3:0:0:
127,231,25335,1,8,0:3:0:0:
127,231,25414,1,8,0:3:0:0:
45,268,25572,1,8,0:2:0:0:
134,148,25730,1,8,0:2:0:0:
188,287,25888,1,14,0:3:0:0:
252,78,26203,6,0,B|256:42|246:3,1,66.0000025177003,10|0,0:2|0:2,0:2:0:0:
155,75,26519,1,10,0:3:0:0:
155,75,26677,2,0,B|151:111|158:140,1,66.0000025177003,8|8,0:3|0:2,0:2:0:0:
298,180,26993,2,2,B|361:152|426:153,1,132.000005035401,10|8,0:3|0:3,0:2:0:0:
512,176,27467,1,10,0:2:0:0:
450,238,27625,1,8,0:3:0:0:
450,238,27940,1,10,0:3:0:0:
426,153,28098,1,8,0:2:0:0:
367,252,28256,1,8,0:3:0:0:
367,252,28335,1,8,0:3:0:0:
367,252,28414,1,10,0:3:0:0:
265,134,28730,6,0,B|264:100|248:67,1,66.0000025177003,10|0,0:2|0:2,0:0:0:0:
173,120,29046,1,10,0:3:0:0:
173,120,29203,2,0,B|148:96|113:84,1,66.0000025177003,8|8,0:3|0:2,0:2:0:0:
62,177,29519,2,2,B|32:206|32:206|49:314,1,132.000005035401,10|8,0:3|0:3,0:2:0:0:
122,384,29993,2,0,B|135:311,1,66.0000025177003,10|8,0:2|0:3,0:2:0:0:
228,230,30309,1,8,0:3:0:0:
228,230,30388,1,8,0:3:0:0:
228,230,30467,1,8,0:3:0:0:
342,329,30625,5,8,0:2:0:0:
366,331,30703,1,8,0:2:0:0:
391,334,30782,1,8,0:2:0:0:
415,337,30861,1,8,0:2:0:0:
440,340,30940,2,2,B|490:347|490:347|508:279|478:223,1,176,14|8,0:3|0:2,0:1:0:0:
319,52,31414,2,0,B|294:83|297:136,1,88,2|8,0:2|0:3,0:2:0:0:
409,163,31730,2,0,B|433:131|430:78,1,88,10|8,0:3|0:2,0:2:0:0:
200,171,32046,6,2,B|170:206|174:252|174:252|189:274|221:281,1,132,10|0,0:3|0:2,0:1:0:0:
286,282,32361,2,0,B|381:271,1,88,10|8,0:3|0:2,0:2:0:0:
200,152,32677,5,8,0:3:0:0:
100,293,32835,1,2,0:2:0:0:
200,134,32993,1,8,0:3:0:0:
218,325,33151,1,8,0:2:0:0:
342,200,33309,5,8,0:3:0:0:
342,200,33388,1,8,0:3:0:0:
342,200,33467,2,2,B|388:255|473:206|450:127,1,176,10|8,0:3|0:2,0:1:0:0:
336,5,33940,2,0,B|245:14,1,88,2|8,0:2|0:3,0:2:0:0:
220,182,34256,2,0,B|132:173,1,88,10|8,0:3|0:2,0:2:0:0:
21,75,34572,6,2,B|73:101|73:101|126:80|123:0,1,176,10|8,0:3|0:3,0:1:0:0:
5,89,35046,1,8,0:2:0:0:
132,173,35203,1,8,0:3:0:0:
4,236,35361,1,2,0:2:0:0:
151,164,35519,1,8,0:3:0:0:
90,328,35677,1,8,0:2:0:0:
247,243,35835,5,8,0:3:0:0:
247,243,35914,1,8,0:3:0:0:
247,243,35993,2,2,B|262:198|243:149,1,88,14|0,0:3|0:2,0:1:0:0:
170,78,36309,1,8,0:2:0:0:
50,173,36467,2,0,B|35:218|54:267,1,88,2|8,0:2|0:3,0:2:0:0:
165,373,36782,2,0,B|197:346|252:340,1,88,10|8,0:3|0:2,0:2:0:0:
438,362,37098,6,2,B|483:378|483:378|517:349|507:300,1,132,10|0,0:3|0:2,0:1:0:0:
486,230,37414,2,0,B|477:197|477:197|477:181|477:181|467:144,1,88,10|8,0:3|0:2,0:2:0:0:
367,26,37730,5,8,0:3:0:0:
340,166,37888,1,2,0:2:0:0:
200,141,38046,1,8,0:3:0:0:
226,0,38203,1,8,0:2:0:0:
302,99,38361,5,8,0:3:0:0:
302,99,38440,1,8,0:3:0:0:
302,99,38519,2,2,B|350:138|423:124|451:65,1,176,10|8,0:3|0:2,0:1:0:0:
343,199,38993,2,0,B|322:238|334:296,1,88,2|8,0:2|0:3,0:2:0:0:
217,141,39309,2,0,B|214:93|184:61,1,88,10|8,0:3|0:2,0:2:0:0:
54,191,39625,6,2,B|12:223|12:223|45:368,1,176,10|8,0:3|0:3,0:1:0:0:
195,384,40098,1,8,0:2:0:0:
210,256,40256,1,8,0:3:0:0:
127,309,40414,1,8,0:3:0:0:
127,309,40493,1,8,0:3:0:0:
127,309,40572,1,8,0:3:0:0:
279,335,40730,1,10,0:1:0:0:
223,170,40888,1,8,0:2:0:0:
223,170,40967,1,8,0:2:0:0:
223,170,41046,1,12,1:3:0:0:
127,309,41361,6,0,B|97:327|63:324,1,66.0000025177003,10|0,0:2|0:0,0:2:0:0:
75,234,41677,1,10,0:3:0:0:
75,234,41835,2,0,B|41:225|19:199,1,66.0000025177003,8|8,0:3|0:2,0:2:0:0:
135,129,42151,2,2,B|122:111|117:92|117:92|125:47|169:21,1,132.000005035401,10|8,0:3|0:3,0:2:0:0:
282,77,42625,1,10,0:2:0:0:
282,77,42782,2,2,B|308:121|292:164|292:164|278:178|258:187,1,132.000005035401,8|8,0:3|0:3,0:2:0:0:
184,244,43256,2,0,B|156:229|119:229,1,66.0000025177003,10|8,0:2|0:3,0:2:0:0:
120,229,43493,1,8,0:3:0:0:
120,229,43572,1,10,0:3:0:0:
267,356,43888,6,0,B|302:356|330:341,1,66.0000025177003,10|0,0:2|0:2,0:2:0:0:
406,275,44203,1,10,0:3:0:0:
406,275,44361,2,0,B|393:206,1,66.0000025177003,8|8,0:3|0:2,0:2:0:0:
512,138,44677,2,2,B|469:163|469:163|448:126|400:119,1,132.000005035401,10|8,0:3|0:3,2:2:0:0:
313,174,45151,2,2,B|304:208|315:247,1,66.0000025177003,10|8,0:2|0:3,0:2:0:0:
371,325,45467,1,8,0:3:0:0:
371,325,45546,1,8,0:3:0:0:
371,325,45625,1,10,0:3:0:0:
270,320,45782,1,8,0:2:0:0:
403,233,45940,1,8,0:2:0:0:
439,384,46098,1,14,0:3:0:0:
485,204,46414,6,0,B|485:171|471:140,1,66.0000025177003,10|0,0:2|0:2,0:2:0:0:
387,71,46730,1,8,0:3:0:0:
387,71,46888,2,0,B|374:140,1,66.0000025177003,10|8,0:3|0:2,0:2:0:0:
265,175,47203,2,2,B|191:162|232:116|145:112,1,132.000005035401,10|8,0:3|0:3,0:2:0:0:
53,133,47677,1,10,0:2:0:0:
125,206,47835,1,8,0:3:0:0:
125,206,48151,1,10,0:3:0:0:
154,112,48309,1,8,0:2:0:0:
225,224,48467,1,8,0:3:0:0:
225,224,48546,1,8,0:3:0:0:
225,224,48625,1,10,0:3:0:0:
34,304,48940,6,0,B|58:291|116:292,1,66.0000025177003,10|0,0:2|0:2,0:0:0:0:
169,359,49256,1,8,0:3:0:0:
169,359,49414,2,0,B|193:372|251:371,1,66.0000025177003,10|8,0:3|0:2,0:2:0:0:
330,319,49730,2,2,B|314:251|351:183,1,132.000005035401,10|8,0:3|0:3,0:2:0:0:
476,222,50203,2,0,B|475:189|462:157,1,66.0000025177003,10|8,0:2|0:3,0:2:0:0:
378,71,50519,1,8,0:3:0:0:
378,71,50598,1,8,0:3:0:0:
378,71,50677,1,10,0:3:0:0:
292,117,50835,5,8,0:2:0:0:
270,129,50914,1,8,0:2:0:0:
246,129,50993,1,8,0:2:0:0:
224,118,51072,1,8,0:2:0:0:
210,98,51151,1,14,0:3:0:0:
52,228,51467,6,0,B|63:322,1,79.1999975830079,10|0,0:2|0:2,0:2:0:0:
256,383,51782,2,0,B|268:341|245:347|256:305,1,79.1999975830079,10|0,0:2|0:2,0:2:0:0:
460,228,52098,2,0,B|449:322,1,79.1999975830079,10|0,0:3|0:2,0:2:0:0:
296,200,52414,6,0,B|340:202|373:186,1,79.1999975830079,10|8,0:2|0:3,0:2:0:0:
373,186,52651,1,8,0:3:0:0:
373,186,52730,1,10,0:3:0:0:
279,111,52888,1,8,0:2:0:0:
212,232,53046,1,10,0:3:0:0:
212,232,53125,1,8,0:3:0:0:
212,232,53203,1,8,0:3:0:0:
279,111,53361,2,0,B|298:78|296:34,1,79.1999975830079,10|0,0:2|0:3,0:0:0:0:
124,0,53677,5,14,0:3:0:0:
0,167,53993,6,0,B|83:163,1,79.1999975830079,10|0,0:2|0:2,0:2:0:0:
138,306,54309,2,0,B|220:317,1,79.1999975830079,10|0,0:2|0:2,0:2:0:0:
293,154,54625,2,0,B|377:135,1,79.1999975830079,10|8,0:3|0:2,0:2:0:0:
493,320,54940,6,0,B|502:276|486:242,1,79.1999975830079,10|8,0:3|0:3,0:0:0:0:
486,242,55177,1,8,0:3:0:0:
486,242,55256,1,8,0:3:0:0:
402,331,55414,1,8,0:2:0:0:
340,238,55572,1,10,0:3:0:0:
340,238,55651,1,8,0:3:0:0:
340,238,55730,1,8,0:3:0:0:
302,361,55888,1,8,0:2:0:0:
302,361,55967,1,8,0:2:0:0:
302,361,56046,1,8,0:2:0:0:
302,361,56125,1,8,0:2:0:0:
302,361,56203,1,14,0:3:0:0:
88,270,56519,6,0,B|50:261|6:268,1,79.1999975830079,10|0,0:2|0:2,0:2:0:0:
223,358,56835,2,0,B|261:367|305:360,1,79.1999975830079,10|0,0:2|0:2,0:2:0:0:
91,254,57151,2,0,B|53:245|9:252,1,79.1999975830079,10|0,0:3|0:2,0:2:0:0:
254,170,57467,6,0,B|294:161|325:136,1,79.1999975830079,10|8,0:2|0:3,0:2:0:0:
324,136,57703,1,8,0:3:0:0:
324,136,57782,1,10,0:3:0:0:
407,70,57940,1,8,0:2:0:0:
479,174,58098,1,8,0:3:0:0:
479,174,58177,1,8,0:3:0:0:
479,174,58256,1,8,0:3:0:0:
407,70,58414,2,0,B|392:35|397:-9,1,79.1999975830079,10|8,0:2|0:3,0:0:0:0:
323,156,58730,6,2,B|322:220|252:256|188:214,1,176,14|8,0:3|0:2,0:2:0:0:
100,269,59203,1,8,0:3:0:0:
127,94,59361,1,10,0:2:0:0:
0,192,59519,1,8,0:3:0:0:
0,192,59598,1,8,0:3:0:0:
0,192,59677,2,0,L|99:181,1,88,8|8,0:3|0:3,0:0:0:0:
230,98,59993,6,0,B|243:61|240:11,1,88,10|10,0:1|0:3,0:0:0:0:
240,11,60230,1,8,0:3:0:0:
240,11,60309,1,8,0:3:0:0:
77,95,60467,6,0,B|74:144|87:181,1,88,10|10,0:1|0:3,0:0:0:0:
87,181,60703,1,8,0:3:0:0:
87,181,60782,1,8,0:3:0:0:
206,288,60940,5,10,0:1:0:0:
234,261,61019,1,8,0:1:0:0:
271,247,61098,1,8,0:1:0:0:
311,247,61177,1,8,0:1:0:0:
347,262,61256,1,14,0:3:0:0:
472,373,61888,5,8,2:2:0:0:
472,373,61967,1,8,2:2:0:0:
472,373,62046,1,8,2:2:0:0:
472,373,62125,1,8,2:2:0:0:
472,373,62203,1,8,2:2:0:0:
472,373,62282,1,8,2:2:0:0:
472,373,62361,1,8,2:2:0:0:
472,373,62440,1,8,2:2:0:0:
472,373,62519,2,2,B|516:296|476:183,2,193.600005908203,14|8|8,0:3|0:2|0:3,0:1:0:0:
341,250,63309,5,8,0:3:0:0:
256,314,63467,1,10,0:2:0:0:
171,250,63625,1,8,0:3:0:0:
256,144,63782,6,0,B|271:102|262:47,1,96.8000029541017,2|8,0:2|0:3,0:2:0:0:
71,0,64098,1,10,0:2:0:0:
5,88,64256,2,0,B|-3:141|11:183,1,96.8000029541017,10|8,0:2|0:3,0:2:0:0:
119,340,64572,2,0,B|231:324,1,96.8000029541017,10|8,0:3|0:2,0:2:0:0:
290,375,64888,1,2,0:2:0:0:
386,162,65046,5,10,0:3:0:0:
470,266,65203,1,8,0:3:0:0:
394,139,65361,1,10,0:2:0:0:
460,287,65519,1,8,0:3:0:0:
413,120,65677,1,10,0:3:0:0:
441,306,65835,1,8,0:3:0:0:
499,114,65993,5,10,0:1:0:0:
499,114,66151,1,8,0:3:0:0:
295,201,66309,6,2,B|399:216,1,96.8000029541017,2|8,0:2|0:3,0:1:0:0:
247,19,66625,1,10,0:2:0:0:
143,119,66782,1,10,0:3:0:0:
143,119,66861,1,8,0:3:0:0:
143,119,66940,2,2,B|115:160|122:222,1,96.8000029541017,8|8,0:3|0:3,0:1:0:0:
171,348,67256,5,8,0:2:0:0:
171,348,67414,1,8,0:2:0:0:
48,311,67572,5,14,0:3:0:0:
238,241,67730,1,2,0:2:0:0:
48,311,67888,2,2,B|19:278|23:219,1,96.8000029541017,10|0,0:1|0:2,0:1:0:0:
254,154,68203,5,10,0:3:0:0:
64,84,68361,1,10,0:3:0:0:
254,154,68519,2,2,B|283:121|278:62,1,96.8000029541017,10|0,0:1|0:2,0:1:0:0:
34,212,68835,6,2,B|29:270|58:303,1,96.8000029541017,2|8,0:2|0:3,0:1:0:0:
256,384,69151,1,10,0:2:0:0:
384,338,69309,2,2,B|413:305|408:246,1,96.8000029541017,10|8,0:2|0:3,0:1:0:0:
247,42,69625,1,10,0:3:0:0:
128,161,69782,2,2,B|123:219|152:252,1,96.8000029541017,10|0,0:2|0:2,0:1:0:0:
399,350,70098,6,2,B|444:264|420:161,1,193.600005908203,10|8,0:3|0:2,0:1:0:0:
383,75,70572,1,0,0:2:0:0:
284,199,70730,2,2,L|292:307,1,96.8000029541017,10|8,0:3|0:3,0:1:0:0:
128,161,71046,2,2,L|120:269,1,96.8000029541017,10|8,0:2|0:3,0:1:0:0:
15,384,71361,5,2,0:2:0:0:
0,235,71519,1,8,0:3:0:0:
196,323,71677,1,8,0:2:0:0:
135,168,71835,1,10,0:3:0:0:
135,168,71914,1,8,0:3:0:0:
135,168,71993,1,8,0:3:0:0:
254,49,72151,5,10,0:1:0:0:
332,206,72309,1,8,0:2:0:0:
437,47,72467,1,8,0:2:0:0:
437,47,72546,1,8,0:2:0:0:
437,47,72625,2,2,B|458:121|403:152|403:152|360:136|359:93,2,193.600005908203,14|8|8,0:3|0:2|0:3,0:1:0:0:
239,0,73414,5,8,0:3:0:0:
271,108,73572,1,10,0:2:0:0:
227,212,73730,1,8,0:3:0:0:
110,141,73888,6,0,B|68:115|17:114,1,96.8000029541017,2|8,0:2|0:3,0:2:0:0:
79,289,74203,1,10,0:2:0:0:
164,358,74361,2,0,B|206:384|256:384,1,96.8000029541017,10|8,0:2|0:3,0:2:0:0:
342,203,74677,2,0,B|384:177|434:176,1,96.8000029541017,10|8,0:3|0:2,0:2:0:0:
512,232,74993,1,2,0:2:0:0:
428,92,75151,5,10,0:3:0:0:
399,283,75309,1,8,0:3:0:0:
335,89,75467,1,10,0:2:0:0:
399,283,75625,1,8,0:3:0:0:
263,141,75782,1,10,0:3:0:0:
399,283,75940,1,8,0:3:0:0:
256,368,76098,5,10,0:1:0:0:
256,368,76256,1,8,0:3:0:0:
130,291,76414,6,2,B|94:284|94:284|74:292|74:292|21:281,1,96.8000029541017,2|8,0:2|0:3,0:1:0:0:
263,141,76730,1,8,0:2:0:0:
344,257,76888,1,10,0:3:0:0:
344,257,76967,1,8,0:3:0:0:
344,257,77046,2,2,B|367:304|345:358,1,96.8000029541017,8|8,0:3|0:3,0:1:0:0:
143,195,77361,5,8,0:2:0:0:
143,195,77519,1,8,0:2:0:0:
282,116,77677,6,2,B|403:95|357:169|489:135,1,193.600005908203,14|8,0:3|0:2,0:1:0:0:
323,204,78151,1,0,0:2:0:0:
404,275,78309,2,2,B|450:299|497:293,1,96.8000029541017,10|8,0:3|0:3,0:1:0:0:
282,116,78625,2,2,B|235:91|188:97,1,96.8000029541017,10|8,0:2|0:3,0:1:0:0:
0,164,78940,5,2,0:1:0:0:
87,43,79098,1,8,0:3:0:0:
87,43,79177,1,8,0:3:0:0:
87,43,79256,1,10,0:1:0:0:
102,237,79414,1,10,0:2:0:0:
193,101,79572,1,8,0:3:0:0:
193,101,79730,1,8,0:3:0:0:
206,293,79888,1,10,0:1:0:0:
265,360,80203,6,2,B|365:385|454:344,1,193.600005908203,10|8,0:3|0:2,0:1:0:0:
379,254,80677,1,0,0:2:0:0:
512,195,80835,1,10,0:3:0:0:
420,95,80993,1,8,0:3:0:0:
420,95,81072,1,8,0:3:0:0:
420,95,81151,1,8,0:2:0:0:
287,154,81309,1,8,0:3:0:0:
146,101,81467,6,2,B|132:54|139:5,1,96.8000029541017,2|8,0:2|0:3,0:1:0:0:
287,154,81782,1,10,0:2:0:0:
176,211,81940,5,10,0:3:0:0:
162,204,82019,1,8,0:3:0:0:
149,199,82098,1,8,0:2:0:0:
134,195,82177,1,8,0:2:0:0:
120,192,82256,1,8,0:2:0:0:
105,190,82335,1,8,0:2:0:0:
91,190,82414,1,8,0:3:0:0:
77,191,82493,1,8,0:3:0:0:
62,193,82572,1,8,0:3:0:0:
48,195,82651,1,8,0:3:0:0:
34,200,82730,1,14,0:3:0:0:
0,272,83046,5,8,0:3:0:0:
42,350,83361,5,8,0:3:0:0:
159,384,83677,5,8,0:3:0:0:
302,338,83993,5,8,0:3:0:0:
382,172,84309,5,8,0:3:0:0:
256,16,84625,5,8,0:2:0:0:
246,35,84703,1,8,0:2:0:0:
243,56,84782,1,8,0:2:0:0:
245,77,84861,1,8,0:2:0:0:
255,96,84940,1,8,0:2:0:0:
263,116,85019,1,8,0:2:0:0:
268,137,85098,1,8,0:2:0:0:
267,159,85177,1,8,0:2:0:0:
260,180,85256,2,2,B|222:220|222:220|160:238|112:178,1,176,14|8,0:3|0:2,0:1:0:0:
241,297,85730,6,0,B|265:334|248:382,1,88,2|8,0:2|0:3,0:2:0:0:
115,181,86046,2,0,B|91:144|108:96,1,88,10|8,0:3|0:2,0:2:0:0:
279,17,86361,6,2,B|394:2,1,88,10|0,0:3|0:0,0:1:0:0:
424,146,86677,2,0,B|511:134,1,88,10|8,0:3|0:2,0:2:0:0:
362,26,86993,5,8,0:3:0:0:
329,195,87151,1,2,0:2:0:0:
329,99,87309,1,8,0:3:0:0:
296,268,87467,1,8,0:2:0:0:
167,166,87625,5,8,0:3:0:0:
167,166,87703,1,8,0:3:0:0:
167,166,87782,2,2,B|187:198|214:199|214:199|257:153|221:91,1,176,10|8,0:3|0:2,0:1:0:0:
77,182,88256,2,0,B|54:223|63:267,1,88,2|8,0:2|0:3,0:2:0:0:
249,170,88572,2,0,B|258:125|235:84,1,88,10|8,0:3|0:2,0:2:0:0:
355,274,88888,6,2,B|365:339|450:362|491:316,1,176,10|8,0:3|0:3,0:1:0:0:
388,187,89361,1,8,0:2:0:0:
500,125,89519,1,8,0:3:0:0:
335,108,89677,1,2,0:2:0:0:
500,125,89835,1,8,0:3:0:0:
343,28,89993,1,8,0:2:0:0:
278,182,90151,5,8,0:3:0:0:
278,182,90230,1,8,0:3:0:0:
278,182,90309,2,2,B|266:291,1,88,14|0,0:3|0:2,0:1:0:0:
147,384,90625,1,8,0:2:0:0:
55,314,90782,2,0,B|45:226,1,88,2|8,0:2|0:3,0:2:0:0:
287,280,91098,2,0,B|296:192,1,88,10|8,0:3|0:2,0:2:0:0:
236,58,91414,6,2,B|248:101|248:101|223:146|168:135,1,132,10|0,0:3|0:2,0:1:0:0:
112,96,91730,2,0,B|94:6,1,88,10|8,0:3|0:2,0:2:0:0:
0,174,92046,5,8,0:3:0:0:
167,158,92203,1,2,0:2:0:0:
3,295,92361,1,8,0:3:0:0:
170,279,92519,1,8,0:2:0:0:
315,364,92677,5,8,0:3:0:0:
315,364,92756,1,8,0:3:0:0:
315,364,92835,2,2,B|397:403|492:346,1,176,10|8,0:3|0:2,0:1:0:0:
384,177,93309,2,0,B|392:135|377:89,1,88,2|8,0:2|0:3,0:2:0:0:
256,163,93625,2,0,B|248:205|262:250,1,88,10|8,0:3|0:2,0:2:0:0:
469,214,93940,6,2,B|487:127|453:40,1,176,10|8,0:3|0:3,0:1:0:0:
297,1,94414,1,8,0:2:0:0:
377,90,94572,1,8,0:3:0:0:
193,46,94730,1,8,0:3:0:0:
193,46,94809,1,8,0:3:0:0:
193,46,94888,1,8,0:3:0:0:
256,163,95046,1,10,0:1:0:0:
304,9,95203,1,8,0:2:0:0:
304,9,95282,1,8,0:2:0:0:
304,9,95361,1,12,1:3:0:0:
465,233,95677,6,0,B|405:194|333:210,1,132.000005035401,10|8,0:2|0:3,0:2:0:0:
328,291,96151,2,0,B|300:309|264:307,1,66.0000025177003,10|8,0:3|0:2,0:2:0:0:
180,378,96467,2,2,B|169:340|169:340|179:305|179:305|160:233,1,132.000005035401,10|8,0:3|0:3,0:2:0:0:
113,168,96940,1,10,0:2:0:0:
113,168,97098,2,2,B|117:220|65:249|24:216,1,132.000005035401,8|8,0:3|0:3,0:2:0:0:
0,123,97572,2,0,B|17:59,1,66.0000025177003,10|8,0:2|0:3,0:2:0:0:
16,59,97809,1,8,0:3:0:0:
16,59,97888,1,10,0:3:0:0:
184,10,98203,6,0,B|197:98,1,66.0000025177003,10|0,0:2|0:2,0:2:0:0:
275,132,98519,1,10,0:3:0:0:
275,132,98677,2,0,B|303:113|337:111,1,66.0000025177003,8|8,0:3|0:2,0:2:0:0:
448,155,98993,2,2,B|477:174|477:174|490:122|451:79,1,132.000005035401,10|8,0:3|0:3,2:2:0:0:
375,22,99467,2,2,B|287:12,1,66.0000025177003,10|8,0:2|0:3,0:2:0:0:
198,32,99782,1,8,0:3:0:0:
198,32,99861,1,8,0:3:0:0:
198,32,99940,1,10,0:3:0:0:
268,117,100098,1,8,0:2:0:0:
143,101,100256,1,8,0:2:0:0:
267,213,100414,1,14,0:3:0:0:
129,365,100730,6,0,B|94:371|65:356,1,66.0000025177003,10|0,0:2|0:2,0:2:0:0:
11,279,101046,1,8,0:3:0:0:
11,279,101203,2,2,B|3:206,1,66.0000025177003,8|8,0:3|0:2,0:1:0:0:
42,123,101519,2,0,B|70:132|87:161|87:161|177:130,1,132.000005035401,10|8,0:3|0:3,0:2:0:0:
244,182,101993,1,10,0:2:0:0:
300,101,102151,1,8,0:3:0:0:
300,101,102467,1,10,0:3:0:0:
211,56,102625,1,8,0:2:0:0:
163,145,102782,1,8,0:3:0:0:
163,145,102861,1,8,0:3:0:0:
163,145,102940,1,10,0:3:0:0:
329,230,103256,6,0,B|411:221,1,66.0000025177003,10|0,0:2|0:2,0:0:0:0:
477,254,103572,1,8,0:3:0:0:
477,254,103730,2,2,B|487:221|470:182,1,66.0000025177003,10|8,0:3|0:2,0:1:0:0:
411,96,104046,2,0,B|369:110|369:110|320:109|294:62,1,132.000005035401,10|8,0:3|0:3,0:2:0:0:
201,57,104519,2,0,B|176:28|140:23,1,66.0000025177003,10|8,0:2|0:3,0:2:0:0:
28,100,104835,1,8,0:3:0:0:
28,100,104914,1,8,0:3:0:0:
28,100,104993,1,10,0:2:0:0:
256,192,105467,5,14,0:3:0:0:
126,268,105782,6,0,B|47:256,1,79.1999975830079,10|0,0:2|0:2,0:2:0:0:
256,192,106098,2,0,B|268:150|245:156|256:114,1,79.1999975830079,10|0,0:2|0:2,0:2:0:0:
399,237,106414,2,0,B|477:225,1,79.1999975830079,10|0,0:3|0:2,0:2:0:0:
255,114,106730,6,0,B|243:72|266:78|255:36,1,79.1999975830079,10|8,0:2|0:3,0:2:0:0:
255,36,106967,1,8,0:3:0:0:
255,36,107046,1,10,0:3:0:0:
151,110,107203,1,8,0:2:0:0:
124,9,107361,1,10,0:3:0:0:
124,9,107440,1,8,0:3:0:0:
124,9,107519,1,8,0:3:0:0:
151,110,107677,2,0,B|157:156|139:192,1,79.1999975830079,10|0,0:2|0:3,0:0:0:0:
39,312,107993,5,14,0:3:0:0:
317,375,108309,6,0,B|404:368,1,79.1999975830079,10|0,0:2|0:2,0:2:0:0:
205,287,108625,2,0,B|118:280,1,79.1999975830079,10|0,0:2|0:2,0:2:0:0:
307,177,108940,2,0,B|394:170,1,79.1999975830079,10|8,0:3|0:2,0:2:0:0:
490,78,109256,6,0,B|496:34|478:-2,1,79.1999975830079,10|8,0:3|0:3,0:0:0:0:
479,0,109493,1,8,0:3:0:0:
479,0,109572,1,8,0:3:0:0:
386,69,109730,1,8,0:2:0:0:
298,9,109888,1,10,0:3:0:0:
298,9,109967,1,8,0:3:0:0:
298,9,110046,1,8,0:3:0:0:
230,94,110203,1,8,0:2:0:0:
230,94,110282,1,8,0:2:0:0:
230,94,110361,1,8,0:2:0:0:
230,94,110440,1,8,0:2:0:0:
230,94,110519,1,14,0:3:0:0:
385,245,110835,6,0,B|424:253|464:236,1,79.1999975830079,10|0,0:2|0:2,0:2:0:0:
344,71,111151,2,0,B|331:33|296:7,1,79.1999975830079,10|0,0:2|0:2,0:2:0:0:
214,194,111467,2,0,B|187:223|182:266,1,79.1999975830079,10|0,0:3|0:2,0:2:0:0:
291,378,111782,6,0,B|376:364,1,79.1999975830079,10|8,0:2|0:3,0:2:0:0:
369,365,112019,1,8,0:3:0:0:
369,365,112098,1,10,0:3:0:0:
292,285,112256,1,8,0:2:0:0:
384,214,112414,1,8,0:3:0:0:
384,214,112493,1,8,0:3:0:0:
384,214,112572,1,8,0:3:0:0:
292,285,112730,2,0,B|252:289|207:271,1,79.1999975830079,10|8,0:2|0:3,0:0:0:0:
138,143,113046,6,2,B|181:129|196:78|178:34|178:34|110:15,1,176,14|8,0:3|0:2,0:2:0:0:
34,73,113519,1,8,0:3:0:0:
108,218,113677,1,10,0:2:0:0:
0,313,113835,1,8,0:3:0:0:
0,313,113914,1,8,0:3:0:0:
0,313,113993,2,0,B|41:300|99:302,1,88,8|8,0:3|0:3,0:0:0:0:
265,357,114309,6,0,B|306:370|351:368,1,88,10|10,0:1|0:3,0:0:0:0:
351,368,114546,1,8,0:3:0:0:
351,368,114625,1,8,0:3:0:0:
228,231,114782,6,0,B|215:190|216:144,1,88,10|10,0:1|0:3,0:0:0:0:
216,144,115019,1,8,0:3:0:0:
216,144,115098,1,8,0:3:0:0:
349,23,115256,5,10,0:1:0:0:
377,50,115335,1,8,0:1:0:0:
414,64,115414,1,8,0:1:0:0:
454,64,115493,1,8,0:1:0:0:
490,49,115572,1,14,0:3:0:0:
316,103,116203,5,8,2:2:0:0:
316,103,116282,1,8,2:2:0:0:
316,103,116361,1,8,2:2:0:0:
316,103,116440,1,8,2:2:0:0:
316,103,116519,1,8,2:2:0:0:
316,103,116598,1,8,2:2:0:0:
316,103,116677,1,8,2:2:0:0:
316,103,116756,1,8,2:2:0:0:
316,103,116835,2,2,B|368:155|354:237|354:237|317:268,2,193.600005908203,14|8|8,0:3|0:2|0:3,0:1:0:0:
172,11,117625,5,8,0:3:0:0:
137,122,117782,1,10,0:2:0:0:
26,85,117940,1,8,0:3:0:0:
58,229,118098,6,0,B|44:277|52:324,1,96.8000029541017,2|8,0:2|0:3,0:2:0:0:
260,384,118414,1,10,0:2:0:0:
347,304,118572,2,0,B|355:256|341:208,1,96.8000029541017,10|8,0:2|0:3,0:2:0:0:
137,122,118888,2,0,B|171:85|217:69,1,96.8000029541017,10|8,0:3|0:2,0:2:0:0:
354,39,119203,1,2,0:2:0:0:
481,166,119361,5,10,0:3:0:0:
343,123,119519,1,8,0:3:0:0:
426,225,119677,1,10,0:2:0:0:
395,61,119835,1,8,0:3:0:0:
344,211,119993,1,10,0:3:0:0:
477,75,120151,1,8,0:3:0:0:
309,36,120309,5,10,0:1:0:0:
309,36,120467,1,8,0:3:0:0:
422,189,120625,6,2,B|471:195|521:169,1,96.8000029541017,2|8,0:2|0:3,0:1:0:0:
309,36,120940,1,10,0:2:0:0:
225,162,121098,1,10,0:3:0:0:
225,162,121177,1,8,0:3:0:0:
225,162,121256,2,2,B|199:208|216:263,1,96.8000029541017,8|8,0:3|0:3,0:1:0:0:
322,384,121572,5,8,0:2:0:0:
322,384,121730,1,8,0:2:0:0:
315,226,121888,5,14,0:3:0:0:
109,278,122046,1,2,0:2:0:0:
315,226,122203,2,2,B|344:180|328:128,1,96.8000029541017,10|0,0:1|0:2,0:1:0:0:
19,110,122519,5,10,0:3:0:0:
225,162,122677,1,10,0:3:0:0:
19,110,122835,2,2,B|-7:64|10:9,1,96.8000029541017,10|0,0:1|0:2,0:1:0:0:
329,133,123151,6,2,B|344:180|315:226,1,96.8000029541017,2|8,0:2|0:3,0:1:0:0:
168,373,123467,1,10,0:2:0:0:
33,318,123625,2,2,B|4:272|18:225,1,96.8000029541017,10|8,0:2|0:3,0:1:0:0:
196,37,123940,1,10,0:3:0:0:
329,133,124098,2,2,B|344:180|315:226,1,96.8000029541017,10|0,0:2|0:2,0:1:0:0:
65,329,124414,6,2,B|23:277|22:200|59:146,1,193.600005908203,10|8,0:3|0:2,0:1:0:0:
214,232,124888,1,0,0:2:0:0:
329,133,125046,2,2,B|343:84|318:37,1,96.8000029541017,10|8,0:3|0:3,0:1:0:0:
129,196,125361,2,2,B|114:252|140:292,1,96.8000029541017,10|8,0:2|0:3,0:1:0:0:
320,384,125677,5,10,0:1:0:0:
320,384,125756,1,8,0:3:0:0:
320,384,125835,1,8,0:3:0:0:
371,222,125993,1,10,0:2:0:0:
504,346,126151,5,10,0:1:0:0:
504,346,126230,1,8,0:3:0:0:
504,346,126309,1,8,0:3:0:0:
504,346,126388,1,8,0:3:0:0:
504,346,126467,1,10,0:3:0:0:
385,237,126625,5,8,0:0:0:0:
385,237,126703,1,8,0:0:0:0:
385,237,126782,1,8,0:0:0:0:
385,237,126861,1,8,0:0:0:0:
385,237,126940,2,2,B|428:267|428:267|503:241|491:146,2,193.600005908203,14|8|8,0:3|0:2|0:3,0:1:0:0:
260,125,127730,5,8,0:3:0:0:
278,239,127888,1,10,0:2:0:0:
239,348,128046,1,8,0:3:0:0:
106,248,128203,6,0,B|64:226|2:231,1,96.8000029541017,2|8,0:2|0:3,0:2:0:0:
239,348,128519,1,10,0:2:0:0:
362,373,128677,2,0,B|414:377|456:355,1,96.8000029541017,10|8,0:2|0:3,0:2:0:0:
355,169,128993,2,0,B|377:127|372:75,1,96.8000029541017,10|8,0:3|0:2,0:2:0:0:
296,0,129309,1,2,0:2:0:0:
161,111,129467,5,10,0:3:0:0:
340,188,129625,1,8,0:3:0:0:
126,188,129782,1,10,0:2:0:0:
332,209,129940,1,8,0:3:0:0:
108,268,130098,1,10,0:3:0:0:
326,233,130256,1,8,0:3:0:0:
403,382,130414,5,10,0:1:0:0:
403,382,130572,1,8,0:3:0:0:
483,299,130730,6,2,B|501:253|488:198,1,96.8000029541017,2|8,0:2|0:3,0:1:0:0:
301,51,131046,1,8,0:2:0:0:
235,178,131203,1,10,0:3:0:0:
235,178,131282,1,8,0:3:0:0:
235,178,131361,2,2,B|217:224|228:273,1,96.8000029541017,8|8,0:3|0:3,0:1:0:0:
355,381,131677,5,8,0:2:0:0:
355,381,131835,1,8,0:2:0:0:
208,282,131993,6,2,B|145:270|145:270|101:299|101:299|11:284,1,193.600005908203,14|8,0:3|0:2,0:1:0:0:
149,186,132467,1,0,0:2:0:0:
36,118,132625,2,2,B|20:79|28:21,1,96.8000029541017,10|8,0:3|0:3,0:1:0:0:
230,103,132940,2,2,B|246:64|292:28,1,96.8000029541017,10|8,0:2|0:3,0:1:0:0:
512,145,133256,5,2,0:1:0:0:
406,47,133414,1,8,0:3:0:0:
406,47,133493,1,8,0:3:0:0:
406,47,133572,1,10,0:1:0:0:
461,252,133730,1,10,0:2:0:0:
355,154,133888,1,8,0:3:0:0:
355,154,134046,1,8,0:3:0:0:
410,359,134203,1,10,0:1:0:0:
322,320,134519,6,2,B|229:348|229:348|134:314,1,193.600005908203,10|8,0:3|0:2,0:1:0:0:
15,266,134993,1,0,0:2:0:0:
185,208,135151,1,10,0:3:0:0:
62,160,135309,1,8,0:3:0:0:
62,160,135388,1,8,0:3:0:0:
62,160,135467,1,8,0:2:0:0:
138,315,135625,1,8,0:3:0:0:
279,264,135782,6,2,B|298:216|285:163,1,96.8000029541017,2|8,0:2|0:3,0:1:0:0:
192,19,136098,1,10,0:2:0:0:
82,105,136256,5,10,0:3:0:0:
75,119,136335,1,8,0:3:0:0:
70,132,136414,1,8,0:2:0:0:
65,146,136493,1,8,0:2:0:0:
62,160,136572,1,8,0:2:0:0:
59,175,136651,1,8,0:2:0:0:
58,189,136730,1,8,0:3:0:0:
59,203,136809,1,8,0:3:0:0:
60,218,136888,1,8,0:3:0:0:
62,232,136967,1,8,0:3:0:0:
66,246,137046,1,14,0:3:0:0:
114,323,137361,5,8,0:3:0:0:
229,366,137677,5,8,0:3:0:0:
382,325,137993,5,8,0:3:0:0:
457,176,138309,5,8,0:3:0:0:
457,176,138467,1,8,0:0:0:0:
403,73,138625,5,8,0:3:0:0:
403,73,138782,1,8,0:0:0:0:
278,0,138940,5,8,2:2:0:0:
276,23,139019,1,8,2:2:0:0:
275,47,139098,1,8,2:2:0:0:
273,72,139177,1,8,2:2:0:0:
272,96,139256,1,8,2:2:0:0:
270,121,139335,1,8,2:2:0:0:
268,145,139414,1,8,2:2:0:0:
266,170,139493,1,8,2:2:0:0:
265,194,139572,1,14,0:1:0:0:
162,299,139730,5,10,0:3:0:0:
65,214,139888,2,2,B|58:189|58:189|63:168|63:168|51:120,1,96.8000029541017,10|0,0:2|0:2,0:1:0:0:
270,121,140203,2,2,B|277:96|277:96|272:75|272:75|283:27,1,96.8000029541017,10|8,0:3|0:3,0:1:0:0:
475,172,140519,5,10,0:1:0:0:
397,49,140677,1,10,0:1:0:0:
319,225,140835,5,2,0:2:0:0:
319,225,140914,1,2,0:2:0:0:
319,225,140993,2,2,B|304:273|304:273|317:328,1,96.8000029541017,10|8,0:1|0:2,2:1:0:0:
160,169,141309,2,0,B|174:127|174:127|162:66,2,96.8000029541017,10|2|0,0:1|0:2|0:3,0:0:0:0:
7,276,141782,5,10,0:1:0:0:
189,351,141940,1,10,0:3:0:0:
189,351,142019,1,8,0:3:0:0:
189,351,142098,1,10,0:1:0:0:
24,377,142256,1,2,0:2:0:0:
139,256,142414,1,10,0:2:0:0:
268,294,142572,5,2,0:1:0:0:
313,374,142730,1,10,0:3:0:0:
403,293,142888,1,10,0:3:0:0:
358,213,143046,1,10,0:2:0:0:
221,171,143203,5,10,0:1:0:0:
139,256,143361,1,2,0:2:0:0:
116,98,143519,1,10,0:2:0:0:
244,51,143677,5,8,0:2:0:0:
244,51,143756,1,8,0:2:0:0:
244,51,143835,2,2,B|267:79|310:74|310:74|330:36|363:26,1,145.200004431152,8|0,0:3|0:2,0:1:0:0:
440,40,144151,2,2,B|481:74|477:132,1,96.8000029541017,10|8,0:3|0:2,0:1:0:0:
387,260,144467,5,8,0:3:0:0:
387,260,144546,1,8,0:3:0:0:
387,260,144625,1,14,0:1:0:0:
422,364,144782,1,2,0:2:0:0:
495,281,144940,1,10,0:2:0:0:
367,244,145098,5,2,0:1:0:0:
374,374,145256,1,10,0:3:0:0:
484,301,145414,1,10,0:3:0:0:
352,225,145572,5,10,0:1:0:0:
319,377,145730,1,10,0:3:0:0:
469,327,145888,1,2,0:2:0:0:
335,200,146046,5,10,0:1:0:0:
248,365,146203,1,10,0:2:0:0:
438,353,146361,1,10,0:3:0:0:
318,179,146519,6,0,B|306:216|306:216|311:240|311:240|302:273,1,96.8000029541017,2|10,0:1|0:3,0:0:0:0:
150,132,146835,5,10,0:1:0:0:
173,137,146914,1,8,0:3:0:0:
197,137,146993,1,8,0:3:0:0:
220,129,147072,1,8,0:3:0:0:
240,116,147151,1,10,0:3:0:0:
122,23,147309,5,2,0:1:0:0:
57,170,147467,2,2,B|44:216|44:216|59:263,1,96.8000029541017,10|8,0:2|0:1,0:1:0:0:
99,25,147782,5,10,0:1:0:0:
34,172,147940,2,2,B|21:218|21:218|36:265,1,96.8000029541017,2|8,0:2|0:2,0:1:0:0:
240,116,148256,6,2,B|267:139|267:139|318:99|318:99|277:6,1,193.600005908203,10|8,0:1|0:1,2:1:0:0:
153,89,148730,1,8,0:2:0:0:
249,224,148888,1,8,0:3:0:0:
139,317,149046,1,8,0:3:0:0:
139,317,149125,1,8,0:3:0:0:
139,317,149203,1,8,0:3:0:0:
212,384,149361,1,8,0:2:0:0:
289,346,149519,5,8,0:3:0:0:
289,346,149598,1,8,0:3:0:0:
289,346,149677,2,0,B|343:286|322:189|281:226|259:97|303:37|303:37|297:98|327:110|301:152,1,440,14|0,0:3|0:2,0:2:0:0:
303,149,151572,2,0,L|206:142,1,88,2|0,0:2|0:2,0:2:0:0:
151,97,152046,5,2,0:2:0:0:
151,97,152125,1,2,0:2:0:0:
151,97,152203,2,0,B|136:60|94:43|94:43|25:102|13:227|86:300,1,352,2|0,0:0|0:0,0:0:0:0:
75,288,153782,2,0,B|184:267|144:339|247:324,1,176,2|0,0:0|0:0,0:0:0:0:
327,373,154572,5,2,0:2:0:0:
327,373,154651,1,2,0:2:0:0:
327,373,154730,2,0,B|366:324|356:258|356:258|287:154|373:54|373:54|370:111|419:151,1,440,2|0,0:0|0:0,0:0:0:0:
406,139,156625,2,0,L|313:127,1,88,2|0,0:0|0:0,0:0:0:0:
251,77,157098,5,2,0:2:0:0:
251,77,157177,1,2,0:2:0:0:
251,77,157256,2,0,B|196:22|112:40|82:118|82:118|201:190|180:313,1,440,2|0,0:0|0:0,0:0:0:0:
37,358,159151,5,8,2:2:0:0:
80,261,159309,1,8,2:2:0:0:
80,261,159388,1,8,2:2:0:0:
80,261,159467,1,8,2:2:0:0:
134,384,159625,1,8,2:2:0:0:
194,214,159782,1,14,2:3:0:0:
395,360,160098,6,0,B|473:369,1,79.1999975830079,10|0,0:2|0:2,0:2:0:0:
315,210,160414,2,0,B|393:200,1,79.1999975830079,10|0,0:2|0:2,0:2:0:0:
213,342,160730,2,0,B|291:351,1,79.1999975830079,10|0,0:3|0:2,0:2:0:0:
183,188,161046,6,0,B|204:148|203:112,1,79.1999975830079,10|8,0:2|0:3,0:2:0:0:
203,112,161282,1,8,0:3:0:0:
203,112,161361,1,10,0:3:0:0:
305,192,161519,1,8,0:2:0:0:
329,72,161677,1,10,0:3:0:0:
329,72,161756,1,8,0:3:0:0:
329,72,161835,1,8,0:3:0:0:
305,192,161993,2,0,B|304:228|325:267,1,79.1999975830079,10|0,0:2|0:3,0:0:0:0:
426,384,162309,5,14,0:3:0:0:
447,204,162625,6,0,B|455:120,1,79.1999975830079,10|0,0:2|0:2,0:2:0:0:
256,128,162940,2,0,B|256:32,1,79.1999975830079,10|0,0:2|0:2,0:2:0:0:
65,204,163256,2,0,B|57:120,1,79.1999975830079,10|8,0:3|0:2,0:2:0:0:
147,260,163572,6,0,B|183:234|227:239,1,79.1999975830079,10|8,0:3|0:3,0:0:0:0:
221,238,163809,1,8,0:3:0:0:
221,238,163888,1,8,0:3:0:0:
307,338,164046,1,8,0:2:0:0:
374,250,164203,1,10,0:3:0:0:
374,250,164282,1,8,0:3:0:0:
374,250,164361,1,8,0:3:0:0:
433,384,164519,1,8,0:2:0:0:
433,384,164598,1,8,0:2:0:0:
433,384,164677,1,8,0:2:0:0:
433,384,164756,1,8,0:2:0:0:
433,384,164835,1,14,0:3:0:0:
484,169,165151,6,0,B|490:131|480:89,1,79.1999975830079,10|0,0:2|0:2,0:2:0:0:
304,213,165467,2,0,B|333:237|375:249,1,79.1999975830079,10|0,0:2|0:2,0:2:0:0:
355,35,165782,2,0,B|319:48|287:78,1,79.1999975830079,10|0,0:3|0:2,0:2:0:0:
496,172,166098,6,0,B|502:134|492:92,1,79.1999975830079,10|8,0:2|0:3,0:2:0:0:
492,93,166335,1,8,0:3:0:0:
492,93,166414,1,10,0:3:0:0:
399,136,166572,1,8,0:2:0:0:
363,42,166730,1,8,0:3:0:0:
363,42,166809,1,8,0:3:0:0:
363,42,166888,1,8,0:3:0:0:
399,136,167046,2,0,B|408:176|402:214,1,79.1999975830079,10|8,0:2|0:3,0:0:0:0:
278,96,167361,6,2,B|243:130|194:114|194:114|177:69|122:58,1,176,14|8,0:3|0:2,0:2:0:0:
0,118,167835,1,8,0:3:0:0:
136,216,167993,1,10,0:2:0:0:
44,279,168151,1,8,0:3:0:0:
44,279,168230,1,8,0:3:0:0:
44,279,168309,2,0,L|57:182,1,88,8|8,0:3|0:3,0:0:0:0:
159,55,168625,6,0,B|198:79|258:68,1,88,10|8,0:1|0:3,0:0:0:0:
243,70,168861,1,8,0:3:0:0:
243,70,168940,1,8,0:3:0:0:
366,191,169098,6,0,B|327:167|267:178,1,88,10|8,0:1|0:3,0:0:0:0:
281,175,169335,1,8,0:3:0:0:
281,175,169414,1,8,0:3:0:0:
183,270,169572,5,10,0:1:0:0:
246,383,169730,1,8,0:3:0:0:
246,383,169809,1,8,0:3:0:0:
246,383,169888,1,12,0:2:0:0:
378,301,170046,5,8,0:3:0:0:
378,301,170125,1,8,0:3:0:0:
378,301,170203,2,0,B|399:255|383:209,1,88,8|8,0:3|0:1,0:0:0:0:
311,73,170519,5,8,0:3:0:0:
311,73,170598,1,8,0:3:0:0:
311,73,170677,1,8,0:3:0:0:
216,142,170835,5,8,0:3:0:0:
194,156,170914,1,8,0:3:0:0:
170,162,170993,1,8,0:3:0:0:
145,159,171072,1,8,0:3:0:0:
123,147,171151,2,0,L|108:45,1,88,14|8,0:1|0:1,0:0:0:0:
110,59,171388,1,8,0:1:0:0:
110,59,171467,1,8,0:1:0:0:
298,160,171625,6,0,L|313:58,1,88,10|8,0:1|0:3,0:0:0:0:
310,72,171861,1,8,0:3:0:0:
310,72,171940,1,8,0:3:0:0:
416,194,172098,5,10,0:1:0:0:
442,216,172177,1,8,0:2:0:0:
478,213,172256,1,8,0:2:0:0:
502,187,172335,1,8,0:2:0:0:
500,151,172414,1,14,0:3:0:0:
206,29,173046,5,8,0:2:0:0:
206,29,173125,1,8,0:2:0:0:
206,29,173203,1,8,0:2:0:0:
206,29,173282,1,8,0:2:0:0:
206,29,173361,1,8,0:2:0:0:
206,29,173440,1,8,0:2:0:0:
206,29,173519,1,8,0:2:0:0:
206,29,173598,1,8,0:2:0:0:
206,29,173677,2,2,B|149:120|169:232,2,211.199993554688,14|8|8,0:3|0:2|0:3,0:1:0:0:
272,150,174467,5,8,0:3:0:0:
371,89,174625,1,10,0:2:0:0:
477,133,174782,1,8,0:3:0:0:
433,261,174940,6,0,B|448:315|434:366,1,105.599996777344,2|8,0:2|0:3,0:2:0:0:
233,262,175256,1,10,0:2:0:0:
155,175,175414,2,0,B|141:124|156:70,1,105.599996777344,10|8,0:2|0:3,0:2:0:0:
329,250,175730,2,0,B|344:304|330:355,1,105.599996777344,10|8,0:3|0:2,0:2:0:0:
200,384,176046,1,2,0:2:0:0:
78,246,176203,5,10,0:3:0:0:
73,375,176361,1,8,0:3:0:0:
155,175,176519,1,10,0:2:0:0:
149,316,176677,1,8,0:3:0:0:
244,98,176835,1,10,0:3:0:0:
237,253,176993,1,8,0:3:0:0:
381,336,177151,5,10,0:1:0:0:
381,336,177309,1,8,0:3:0:0:
489,221,177467,6,2,B|507:167|487:114,1,105.599996777344,2|8,0:2|0:3,0:1:0:0:
330,35,177782,1,10,0:2:0:0:
236,122,177940,1,10,0:3:0:0:
236,122,178019,1,8,0:3:0:0:
236,122,178098,2,2,B|212:172|227:240,1,105.599996777344,8|8,0:3|0:3,0:1:0:0:
287,376,178414,5,8,0:2:0:0:
287,376,178572,1,8,0:2:0:0:
144,326,178730,5,14,0:3:0:0:
345,271,178888,1,2,0:2:0:0:
144,326,179046,2,2,B|120:276|125:211,1,105.599996777344,10|0,0:1|0:2,0:1:0:0:
361,123,179361,5,10,0:3:0:0:
148,69,179519,1,10,0:3:0:0:
361,123,179677,2,2,B|385:73|380:8,1,105.599996777344,10|0,0:1|0:2,0:1:0:0:
209,165,179993,6,2,B|204:217|228:267,1,105.599996777344,2|8,0:2|0:3,0:1:0:0:
384,384,180309,1,10,0:2:0:0:
456,297,180467,2,2,B|480:247|475:194,1,105.599996777344,10|8,0:2|0:3,0:1:0:0:
228,267,180782,1,10,0:3:0:0:
127,218,180940,2,2,B|103:168|107:115,1,105.599996777344,10|0,0:2|0:2,0:1:0:0:
324,12,181256,6,2,B|395:24|395:24|433:71|433:71|515:98,1,211.199993554688,10|8,0:3|0:2,0:1:0:0:
332,138,181730,1,0,0:2:0:0:
411,239,181888,2,2,B|461:268|512:244,1,105.599996777344,10|8,0:3|0:3,0:1:0:0:
318,121,182203,2,2,B|273:84|218:99,1,105.599996777344,10|8,0:2|0:3,0:1:0:0:
1,199,182519,5,2,0:2:0:0:
87,45,182677,1,8,0:3:0:0:
126,268,182835,1,8,0:2:0:0:
226,106,182993,1,10,0:3:0:0:
226,106,183072,1,8,0:3:0:0:
226,106,183151,1,8,0:3:0:0:
251,335,183309,5,10,0:1:0:0:
352,174,183467,1,8,0:2:0:0:
469,316,183625,1,8,0:2:0:0:
469,316,183703,1,8,0:2:0:0:
469,316,183782,2,2,B|434:359|434:359|347:363|308:259,2,211.199993554688,14|8|8,0:3|0:2|0:3,0:1:0:0:
512,130,184572,5,8,0:3:0:0:
397,148,184730,1,10,0:2:0:0:
321,59,184888,1,8,0:3:0:0:
158,138,185046,6,0,B|130:185|141:239,1,105.599996777344,2|8,0:2|0:3,0:2:0:0:
302,384,185361,1,10,0:2:0:0:
409,340,185519,2,0,B|436:292|425:238,1,105.599996777344,10|8,0:2|0:3,0:2:0:0:
145,123,185835,2,0,B|117:170|128:224,1,105.599996777344,10|8,0:3|0:2,0:2:0:0:
326,194,186151,1,2,0:2:0:0:
225,80,186309,5,10,0:3:0:0:
266,253,186467,1,8,0:3:0:0:
225,80,186625,1,10,0:2:0:0:
195,300,186782,1,8,0:3:0:0:
225,80,186940,1,10,0:3:0:0:
108,306,187098,1,8,0:3:0:0:
24,105,187256,5,10,0:1:0:0:
24,105,187414,1,8,0:3:0:0:
199,169,187572,6,2,B|253:178|299:140,1,105.599996777344,2|8,0:2|0:3,0:1:0:0:
119,16,187888,1,8,0:2:0:0:
34,115,188046,1,10,0:3:0:0:
34,115,188125,1,8,0:3:0:0:
34,115,188203,2,2,B|11:162|37:218,1,105.599996777344,8|8,0:3|0:3,0:1:0:0:
116,353,188519,5,8,0:2:0:0:
116,353,188677,1,8,0:2:0:0:
266,250,188835,6,2,B|319:163|205:151|266:48,1,211.199993554688,14|8,0:3|0:2,0:1:0:0:
376,187,189309,1,0,0:2:0:0:
497,112,189467,2,2,B|513:64|488:8,1,105.599996777344,10|8,0:3|0:3,0:1:0:0:
376,187,189782,2,2,B|360:235|384:290,1,105.599996777344,10|8,0:2|0:3,0:1:0:0:
512,380,190098,5,2,0:1:0:0:
384,289,190256,1,8,0:3:0:0:
384,289,190335,1,8,0:3:0:0:
384,289,190414,1,10,0:1:0:0:
282,384,190572,1,10,0:2:0:0:
372,170,190730,1,8,0:3:0:0:
372,170,190888,1,8,0:3:0:0:
394,299,191046,1,10,0:1:0:0:
272,373,191361,6,2,B|155:323|186:416|65:366,1,211.199993554688,10|8,0:3|0:2,0:1:0:0:
169,259,191835,1,0,0:2:0:0:
69,157,191993,1,10,0:3:0:0:
150,40,192151,1,8,0:3:0:0:
150,40,192230,1,8,0:3:0:0:
150,40,192309,1,8,0:2:0:0:
250,142,192467,1,8,0:3:0:0:
411,97,192625,6,2,B|430:54|413:-10,1,105.599996777344,2|8,0:2|0:3,0:1:0:0:
250,142,192940,1,10,0:2:0:0:
370,236,193098,5,10,0:3:0:0:
384,229,193177,1,8,0:3:0:0:
397,224,193256,1,8,0:2:0:0:
412,220,193335,1,8,0:2:0:0:
426,217,193414,1,8,0:2:0:0:
441,215,193493,1,8,0:2:0:0:
455,215,193572,1,8,0:3:0:0:
469,216,193651,1,8,0:3:0:0:
484,218,193730,1,8,0:3:0:0:
498,220,193809,1,8,0:3:0:0:
512,225,193888,1,14,0:3:0:0:
487,327,194203,5,8,0:3:0:0:
376,382,194519,5,8,0:3:0:0:
233,365,194835,5,8,0:3:0:0:
119,253,195151,5,8,0:3:0:0:
142,61,195467,5,8,0:3:0:0:
350,0,195782,5,8,0:2:0:0:
350,0,195940,1,8,0:2:0:0:
398,202,196414,6,0,L|411:132,1,70.4,6|0,0:1|0:2,0:0:0:0:
511,138,196730,2,0,L|497:207,1,70.4,0|0,0:2|0:2,0:0:0:0:
298,197,197046,2,0,L|311:127,1,70.4,10|0,0:2|0:2,0:0:0:0:
411,133,197361,2,0,L|397:202,1,70.4,0|0,0:2|0:2,0:0:0:0:
334,310,197677,6,0,B|302:293|263:296,1,70.4,2|0,0:1|0:2,0:0:0:0:
168,342,197993,5,2,0:2:0:0:
168,342,198151,1,0,0:2:0:0:
73,286,198309,5,10,0:2:0:0:
73,286,198467,1,0,0:2:0:0:
100,183,198625,5,2,0:2:0:0:
100,183,198782,1,0,0:2:0:0:
220,137,198940,6,0,B|234:106|229:67,1,70.4,2|0,0:1|0:2,0:2:0:0:
152,20,199256,2,0,B|138:51|142:89,1,70.4,0|0,0:2|0:2,0:2:0:0:
303,164,199572,2,0,B|317:133|312:94,1,70.4,8|0,0:2|0:2,0:2:0:0:
141,181,199888,5,0,0:2:0:0:
141,181,200046,1,0,0:2:0:0:
240,278,200203,5,2,0:1:0:0:
240,278,200361,1,0,0:2:0:0:
240,278,200519,2,0,L|322:269,1,70.4,0|0,0:2|0:2,0:0:0:0:
408,378,200835,5,10,0:2:0:0:
408,378,200993,1,0,0:2:0:0:
408,378,201151,2,0,L|399:296,1,70.4,0|0,0:2|0:2,0:0:0:0:
466,197,201467,6,0,L|457:115,1,70.4,6|0,0:1|0:2,0:0:0:0:
365,133,201782,2,0,L|373:203,1,70.4,0|0,0:2|0:2,0:0:0:0:
275,96,202098,2,0,L|266:14,1,70.4,8|0,0:2|0:2,0:0:0:0:
174,32,202414,2,0,L|181:101,1,70.4,0|0,0:2|0:2,0:0:0:0:
163,207,202730,6,0,B|132:187|96:190,1,70.4,2|0,0:1|0:2,0:0:0:0:
10,257,203046,5,2,0:2:0:0:
10,257,203203,1,0,0:2:0:0:
46,361,203361,5,10,0:2:0:0:
46,361,203519,1,0,0:2:0:0:
151,328,203677,5,2,0:2:0:0:
151,328,203835,1,0,0:2:0:0:
262,361,203993,6,0,B|297:367|339:355,1,70.4,2|0,0:1|0:2,0:2:0:0:
321,264,204309,2,0,B|354:251|384:220,1,70.4,0|0,0:2|0:2,0:2:0:0:
182,190,204625,2,0,B|159:162|148:120,1,70.4,8|0,0:2|0:2,0:2:0:0:
232,79,204940,2,0,B|226:44|238:2,1,70.4,0|0,0:2|0:2,0:2:0:0:
406,67,205256,6,0,B|412:102|400:144,1,70.4,2|0,0:1|0:2,0:2:0:0:
398,150,205493,1,0,0:2:0:0:
392,162,205572,2,0,B|359:173|319:162,1,70.4,0|0,0:2|0:2,0:2:0:0:
150,127,205888,5,10,0:1:0:0:
150,127,206046,1,0,0:2:0:0:
187,250,206203,1,0,0:2:0:0:
322,162,206361,1,8,0:2:0:0:
425,326,206519,6,0,B|465:333|492:312,1,70.4,6|0,0:1|0:2,0:0:0:0:
472,233,206835,2,0,B|432:226|404:246,1,70.4,0|0,0:2|0:2,0:0:0:0:
289,362,207151,2,0,B|249:369|221:348,1,70.4,8|0,0:2|0:2,0:0:0:0:
242,269,207467,2,0,B|282:262|309:282,1,70.4,0|0,0:2|0:2,0:0:0:0:
425,326,207782,6,0,B|465:333|492:312,1,70.4,2|0,0:1|0:2,0:0:0:0:
512,199,208098,5,2,0:2:0:0:
512,199,208256,1,0,0:2:0:0:
449,113,208414,5,10,0:2:0:0:
449,113,208572,1,0,0:2:0:0:
350,161,208730,5,2,0:2:0:0:
350,161,208888,1,0,0:2:0:0:
255,91,209046,6,0,L|246:10,1,70.4,2|0,0:1|0:2,0:2:0:0:
178,127,209361,2,0,L|169:46,1,70.4,0|0,0:2|0:2,0:2:0:0:
17,189,209677,2,0,L|26:108,1,70.4,8|0,0:2|0:2,0:2:0:0:
94,224,209993,2,0,L|103:143,1,70.4,0|0,0:2|0:2,0:2:0:0:
253,232,210309,5,2,0:1:0:0:
253,232,210467,1,0,0:2:0:0:
253,232,210625,2,0,B|262:268|251:326,1,70.4,0|0,0:2|0:2,0:0:0:0:
107,379,210940,5,10,0:2:0:0:
107,379,211098,1,0,0:2:0:0:
107,379,211256,2,0,B|99:345|108:309,1,70.4,0|0,0:2|0:2,0:0:0:0:
253,232,211572,6,0,B|286:247|341:237,1,70.4,6|0,0:1|0:2,0:2:0:0:
287,151,211888,2,0,B|254:136|199:146,1,70.4,0|0,0:2|0:2,0:2:0:0:
288,320,212203,2,0,B|321:335|376:325,1,70.4,8|0,0:2|0:2,0:2:0:0:
322,239,212519,2,0,B|289:224|234:234,1,70.4,0|0,0:2|0:2,0:2:0:0:
115,295,212835,6,0,B|82:307|46:305,1,70.4,2|0,0:1|0:2,0:0:0:0:
115,197,213151,2,0,B|83:182|59:155,1,70.4,0|0,0:2|0:2,0:0:0:0:
259,88,213467,2,0,B|247:54|249:19,1,70.4,8|0,0:2|0:2,0:0:0:0:
362,98,213782,2,0,B|376:66|403:42,1,70.4,0|0,0:2|0:2,0:0:0:0:
493,204,214098,6,0,B|509:311,1,79.1999975830079,10|0,0:1|0:2,0:2:0:0:
429,383,214414,2,0,B|417:304,1,79.1999975830079,0|0,0:2|0:2,0:2:0:0:
264,202,214730,2,0,B|280:309,1,79.1999975830079,8|0,0:2|0:2,0:2:0:0:
200,381,215046,2,0,B|188:302,1,79.1999975830079,0|0,0:2|0:2,0:2:0:0:
126,180,215361,5,14,0:1:0:0:
24,259,215519,1,8,0:3:0:0:
24,259,215598,1,8,0:3:0:0:
24,259,215677,1,8,0:3:0:0:
38,100,215835,1,8,0:3:0:0:
133,200,215993,5,14,0:2:0:0:
223,63,216151,1,8,0:3:0:0:
306,224,216309,2,0,B|277:217|277:217|257:225|257:225|205:213,1,79.1999975830079,10|8,0:2|0:3,0:2:0:0:
55,258,216625,6,0,B|30:209|48:154,1,105.599996777344,14|10,0:1|0:3,0:0:0:0:
223,63,216940,1,10,0:2:0:0:
237,226,217098,1,10,0:3:0:0:
237,226,217177,1,8,0:3:0:0:
237,226,217256,1,10,0:1:0:0:
385,145,217414,1,10,0:3:0:0:
463,273,217572,2,0,B|476:328|456:376,1,105.599996777344,10|8,0:2|0:3,0:2:0:0:
250,316,217888,5,10,0:1:0:0:
250,316,218046,1,10,0:3:0:0:
375,154,218203,1,10,0:2:0:0:
370,323,218361,1,10,0:3:0:0:
370,323,218440,1,8,0:3:0:0:
370,323,218519,1,10,0:1:0:0:
252,155,218677,1,10,0:3:0:0:
250,316,218835,1,10,0:2:0:0:
382,162,218993,5,8,0:3:0:0:
382,162,219072,1,8,0:3:0:0:
382,162,219151,2,0,B|400:113|386:57,1,105.599996777344,10|10,0:1|0:3,0:0:0:0:
241,0,219467,1,10,0:2:0:0:
180,137,219625,1,10,0:3:0:0:
180,137,219703,1,8,0:3:0:0:
180,137,219782,1,10,0:1:0:0:
104,6,219940,1,10,0:3:0:0:
20,150,220098,2,0,B|6:205|24:254,1,105.599996777344,10|8,0:2|0:3,0:2:0:0:
145,364,220414,5,10,0:1:0:0:
145,364,220572,1,10,0:3:0:0:
200,229,220730,1,10,0:2:0:0:
267,370,220888,1,10,0:3:0:0:
267,370,220967,1,8,0:3:0:0:
267,370,221046,1,10,0:1:0:0:
327,226,221203,1,10,0:3:0:0:
386,375,221361,1,10,0:2:0:0:
500,270,221519,5,8,0:3:0:0:
500,270,221598,1,8,0:3:0:0:
500,270,221677,2,2,B|512:221|507:151,1,105.599996777344,14|8,0:1|0:3,0:1:0:0:
242,104,221993,2,2,B|230:153|234:208,1,105.599996777344,10|8,0:1|0:3,0:1:0:0:
430,137,222309,2,2,B|434:81|422:32,1,105.599996777344,10|8,0:1|0:3,0:1:0:0:
147,146,222625,2,2,B|142:201|154:250,1,105.599996777344,10|8,0:1|0:3,0:1:0:0:
290,383,222940,5,10,0:1:0:0:
290,383,223098,1,8,0:3:0:0:
92,325,223256,5,10,0:1:0:0:
92,325,223414,1,8,0:3:0:0:
326,207,223572,5,10,0:1:0:0:
326,207,223730,1,8,0:3:0:0:
147,146,223888,5,10,0:1:0:0:
190,302,224046,1,8,0:3:0:0:
326,207,224203,6,2,B|319:101,1,105.599996777344,10|8,0:1|0:3,0:1:0:0:
50,196,224519,2,2,B|56:90,1,105.599996777344,10|8,0:1|0:3,0:1:0:0:
422,142,224835,2,2,B|415:36,1,105.599996777344,10|8,0:1|0:3,0:1:0:0:
147,146,225151,2,2,B|153:40,1,105.599996777344,10|8,0:1|0:3,0:1:0:0:
326,207,225467,5,10,0:1:0:0:
161,269,225625,1,8,0:3:0:0:
161,269,225703,1,8,0:3:0:0:
161,269,225782,1,10,0:1:0:0:
302,368,225940,1,8,0:3:0:0:
302,368,226019,1,8,0:3:0:0:
302,368,226098,1,10,0:1:0:0:
333,214,226256,1,8,0:3:0:0:
333,214,226335,1,8,0:3:0:0:
333,214,226414,1,10,0:1:0:0:
168,155,226572,5,8,0:3:0:0:
168,155,226651,1,8,0:3:0:0:
168,155,226730,2,0,B|128:152|128:152|103:164|103:164|43:159,1,114.399994763184,14|10,0:1|0:3,0:0:0:0:
264,45,227046,1,10,0:2:0:0:
338,220,227203,1,10,0:3:0:0:
338,220,227282,1,8,0:3:0:0:
338,220,227361,1,10,0:1:0:0:
223,316,227519,1,10,0:3:0:0:
395,366,227677,2,0,B|435:363|435:363|460:375|460:375|520:370,1,114.399994763184,10|8,0:2|0:3,0:2:0:0:
338,220,227993,5,10,0:1:0:0:
201,351,228151,1,10,0:3:0:0:
232,164,228309,1,10,0:2:0:0:
320,337,228467,1,10,0:3:0:0:
320,337,228546,1,8,0:3:0:0:
320,337,228625,1,10,0:1:0:0:
148,245,228782,1,10,0:3:0:0:
338,220,228940,1,10,0:2:0:0:
402,128,229098,5,8,0:3:0:0:
402,128,229177,1,8,0:3:0:0:
402,128,229256,2,0,B|419:63|385:10,1,114.399994763184,10|10,0:1|0:3,0:0:0:0:
232,164,229572,1,10,0:2:0:0:
182,25,229730,1,10,0:3:0:0:
182,25,229809,1,8,0:3:0:0:
182,25,229888,1,10,0:1:0:0:
232,164,230046,1,10,0:3:0:0:
107,233,230203,2,0,B|46:243|3:192,1,114.399994763184,10|8,0:2|0:3,0:2:0:0:
182,25,230519,5,10,0:1:0:0:
240,181,230677,1,10,0:3:0:0:
305,9,230835,1,10,0:2:0:0:
360,184,230993,1,10,0:3:0:0:
360,184,231072,1,8,0:3:0:0:
360,184,231151,1,10,0:1:0:0:
426,6,231309,1,10,0:3:0:0:
478,177,231467,1,8,0:2:0:0:
302,100,231625,5,8,0:3:0:0:
302,100,231703,1,8,0:3:0:0:
302,100,231782,2,0,B|247:78|172:92,1,114.399994763184,14|8,0:1|0:3,0:0:0:0:
293,302,232098,2,0,B|348:324|423:310,1,114.399994763184,10|8,0:1|0:3,0:0:0:0:
186,202,232414,5,10,0:1:0:0:
120,380,232572,1,8,0:3:0:0:
0,235,232730,1,10,0:1:0:0:
99,84,232888,5,8,0:3:0:0:
99,84,232967,1,8,0:3:0:0:
99,84,233046,1,14,0:1:0:0:
88,274,233203,1,8,0:3:0:0:
207,76,233361,5,10,0:1:0:0:
214,296,233519,1,8,0:3:0:0:
321,69,233677,5,10,0:1:0:0:
338,310,233835,1,8,0:3:0:0:
431,61,233993,5,10,0:1:0:0:
463,319,234151,1,8,0:3:0:0:
512,192,234309,5,14,0:1:0:0:
440,156,234467,5,8,0:3:0:0:
440,156,234546,1,8,0:3:0:0:
440,156,234625,1,10,0:1:0:0:
368,216,234782,5,8,0:3:0:0:
368,216,234861,1,8,0:3:0:0:
368,216,234940,1,10,0:1:0:0:
293,147,235098,5,8,0:3:0:0:
293,147,235177,1,8,0:3:0:0:
293,147,235256,1,10,0:1:0:0:
240,230,235414,5,8,0:3:0:0:
240,230,235493,1,8,0:3:0:0:
240,230,235572,1,14,0:1:0:0:
176,132,235730,5,8,0:3:0:0:
176,132,235809,1,8,0:3:0:0:
176,132,235888,1,10,0:1:0:0:
121,233,236046,5,8,0:3:0:0:
121,233,236125,1,8,0:3:0:0:
121,233,236203,1,10,0:1:0:0:
61,111,236361,5,8,0:3:0:0:
61,111,236440,1,8,0:3:0:0:
61,111,236519,1,10,0:1:0:0:
0,192,236677,5,8,0:3:0:0:
0,192,236756,1,8,0:3:0:0:
0,192,236835,1,14,0:3:0:0:
