osu file format v14

[General]
AudioFilename: audio.mp3
AudioLeadIn: 0
PreviewTime: 61848
Countdown: 0
SampleSet: Soft
StackLeniency: 0.7
Mode: 0
LetterboxInBreaks: 0
WidescreenStoryboard: 1

[Editor]
DistanceSpacing: 1.1
BeatDivisor: 4
GridSize: 32
TimelineZoom: 2.1

[Metadata]
Title:one
TitleUnicode:one
Artist:Yousei Teikoku
ArtistUnicode:妖精帝國
Creator:Lasse
Version:Easy
Source:クイーンズブレイド スパイラルカオス
Tags:Yōsei Japanese Rock gothic lolita agitator lantis Queen's Blade: Spiral Chaos opening video game
BeatmapID:2464762
BeatmapSetID:1182149

[Difficulty]
HPDrainRate:2.4
CircleSize:3
OverallDifficulty:3.6
ApproachRate:4.6
SliderMultiplier:0.799999999999999
SliderTickRate:1

[Events]
//Background and Video events
0,0,"q1.jpg",0,0
//Break Periods
2,85456,94429
2,149877,157903
//Storyboard Layer 0 (Background)
//Storyboard Layer 1 (Fail)
//Storyboard Layer 2 (Pass)
//Storyboard Layer 3 (Foreground)
//Storyboard Layer 4 (Overlay)
//Storyboard Sound Samples

[TimingPoints]
625,315.789473684211,4,1,1,60,1,0
10730,-100,4,1,1,67,0,0
20835,-100,4,1,1,60,0,0
21151,-111.111111111111,4,2,1,58,0,0
30625,-111.111111111111,4,2,1,62,0,0
30940,-100,4,1,1,67,0,0
41046,-100,4,1,1,60,0,0
41361,-111.111111111111,4,2,1,58,0,0
50835,-111.111111111111,4,2,1,62,0,0
51151,-99.9999999999999,4,1,1,64,0,0
58730,-100,4,1,1,66,0,0
61888,-100,4,2,1,48,0,0
61967,-100,4,2,1,50,0,0
62046,-100,4,2,1,52,0,0
62125,-100,4,2,1,54,0,0
62203,-100,4,2,1,56,0,0
62282,-100,4,2,1,58,0,0
62361,-100,4,2,1,60,0,0
62440,-100,4,2,1,62,0,0
62519,-90.9090909090909,4,1,1,70,0,1
72151,-90.9090909090909,4,1,2,70,0,0
72625,-90.9090909090909,4,1,1,70,0,1
81940,-90.9090909090909,4,1,1,68,0,1
82098,-90.9090909090909,4,1,1,66,0,1
82414,-90.9090909090909,4,1,1,64,0,1
82730,-111.111111111111,4,1,1,60,0,0
83046,-111.111111111111,4,1,1,58,0,0
84625,-111.111111111111,4,2,1,62,0,0
84940,-111.111111111111,4,2,1,64,0,0
85256,-100,4,1,1,67,0,0
95361,-100,4,1,1,60,0,0
95677,-111.111111111111,4,2,1,58,0,0
105151,-111.111111111111,4,2,1,62,0,0
105467,-100,4,1,1,64,0,0
113046,-100,4,1,1,66,0,0
116203,-100,4,2,1,50,0,0
116282,-100,4,2,1,52,0,0
116361,-100,4,2,1,54,0,0
116440,-100,4,2,1,56,0,0
116519,-100,4,2,1,58,0,0
116598,-100,4,2,1,60,0,0
116677,-100,4,2,1,62,0,0
116756,-100,4,2,1,64,0,0
116835,-90.9090909090909,4,1,1,70,0,1
125677,-90.9090909090909,4,1,2,70,0,1
125756,-90.9090909090909,4,1,1,70,0,1
126151,-90.9090909090909,4,1,2,70,0,1
126230,-90.9090909090909,4,1,1,70,0,1
126467,-90.9090909090909,4,1,1,70,0,0
126940,-90.9090909090909,4,1,1,70,0,1
136256,-90.9090909090909,4,1,1,68,0,1
136414,-90.9090909090909,4,1,1,66,0,1
136730,-90.9090909090909,4,1,1,64,0,1
137046,-111.111111111111,4,1,1,60,0,0
137361,-111.111111111111,4,1,1,58,0,0
138309,-99.9999999999999,4,1,1,60,0,0
138940,-100,4,2,1,62,0,0
139256,-100,4,2,1,64,0,0
139572,-90.9090909090909,4,1,2,70,0,0
139730,-90.9090909090909,4,1,1,70,0,0
140993,-90.9090909090909,4,1,2,70,0,0
141151,-90.9090909090909,4,1,1,70,0,0
141309,-90.9090909090909,4,1,2,70,0,0
141467,-90.9090909090909,4,1,1,70,0,0
142098,-90.9090909090909,4,1,2,70,0,0
142256,-90.9090909090909,4,1,1,70,0,0
143203,-90.9090909090909,4,1,2,70,0,0
143361,-90.9090909090909,4,1,1,70,0,0
144625,-90.9090909090909,4,1,2,70,0,0
144782,-90.9090909090909,4,1,1,70,0,0
146046,-90.9090909090909,4,1,2,70,0,0
146203,-90.9090909090909,4,1,1,70,0,0
147782,-90.9090909090909,4,1,2,70,0,0
147940,-90.9090909090909,4,1,1,70,0,0
148256,-90.9090909090909,4,1,2,70,0,0
148572,-90.9090909090909,4,1,1,68,0,0
149046,-90.9090909090909,4,1,1,66,0,0
149361,-90.9090909090909,4,1,1,64,0,0
149519,-90.9090909090909,4,2,1,60,0,0
149598,-90.9090909090909,4,2,1,58,0,0
149677,-200,4,2,1,56,0,0
149756,-200,4,2,1,50,0,0
159151,-111.111111111111,4,1,1,56,0,0
159782,-100,4,1,1,64,0,0
160098,-99.9999999999999,4,1,1,64,0,0
167361,-99.9999999999999,4,1,1,66,0,0
171151,-99.9999999999999,4,1,1,68,0,0
173046,-99.9999999999999,4,2,1,52,0,0
173125,-99.9999999999999,4,2,1,54,0,0
173203,-99.9999999999999,4,2,1,56,0,0
173282,-99.9999999999999,4,2,1,58,0,0
173361,-99.9999999999999,4,2,1,60,0,0
173440,-99.9999999999999,4,2,1,62,0,0
173519,-99.9999999999999,4,2,1,64,0,0
173598,-99.9999999999999,4,2,1,66,0,0
173677,-90.9090909090909,4,1,1,72,0,1
183309,-90.9090909090909,4,1,2,72,0,0
183782,-90.9090909090909,4,1,1,72,0,1
193098,-90.9090909090909,4,1,1,70,0,1
193256,-90.9090909090909,4,1,1,68,0,1
193572,-90.9090909090909,4,1,1,66,0,1
193888,-111.111111111111,4,1,1,60,0,0
194203,-111.111111111111,4,1,1,58,0,0
195782,-111.111111111111,4,1,1,62,0,0
196414,-111.111111111111,4,1,1,60,0,0
214098,-111.111111111111,4,1,1,62,0,0
215361,-100,4,1,1,64,0,0
216309,-133.333333333333,4,1,1,65,0,0
216625,-90.9090909090909,4,1,1,72,0,1
226098,-90.9090909090909,4,1,1,72,0,0
226730,-90.9090909090909,4,1,1,74,0,1
234309,-90.9090909090909,4,1,1,76,0,1
236677,-90.9090909090909,4,1,1,74,0,1
236756,-90.9090909090909,4,1,1,72,0,1
236835,-100,4,1,99,70,0,0

[Colours]
Combo1 : 240,140,140
Combo2 : 200,180,220
Combo3 : 240,200,155
Combo4 : 150,185,220

[HitObjects]
96,159,10098,5,10,0:1:0:0:
229,247,10730,6,2,B|287:264|353:243,1,120,14|2,0:3|0:2,0:1:0:0:
431,218,11519,1,10,0:3:0:0:
473,140,11835,2,2,B|472:94|454:62,1,79.9999999999999,10|10,0:3|0:3,0:1:0:0:
334,7,12625,1,2,0:2:0:0:
218,71,13098,6,0,B|179:145|281:152|234:229,1,160,8|2,0:3|0:2,0:0:0:0:
200,298,14046,1,10,0:3:0:0:
131,352,14361,2,2,B|92:360|52:343,1,79.9999999999999,10|8,0:3|0:3,0:1:0:0:
1,271,14993,1,10,0:3:0:0:
77,64,15782,6,2,B|120:45|209:48,1,120,14|2,0:3|0:2,0:1:0:0:
283,51,16572,1,10,0:3:0:0:
319,131,16888,2,2,B|311:217,1,79.9999999999999,10|10,0:3|0:3,0:1:0:0:
382,321,17677,1,2,0:2:0:0:
490,244,18151,6,0,B|516:166|484:80,1,160,8|2,0:3|0:2,0:0:0:0:
417,32,19098,1,10,0:3:0:0:
343,79,19414,2,2,B|298:85|264:70,1,79.9999999999999,10|8,0:3|0:3,0:1:0:0:
186,29,20046,1,10,0:3:0:0:
118,86,20361,2,0,B|80:136|87:199,1,120,10|12,0:3|1:3,0:0:0:0:
135,272,21151,6,0,B|216:269,1,71.9999978027344,10|8,0:2|0:3,0:2:0:0:
289,355,21940,2,2,L|447:367,1,143.999995605469,10|8,0:3|0:3,0:2:0:0:
486,302,22888,2,0,B|503:254|486:188,1,107.999996704102,8|10,0:3|0:3,0:0:0:0:
439,128,23677,6,0,B|401:137|367:123,1,71.9999978027344,10|10,0:2|0:3,0:2:0:0:
251,80,24467,2,2,B|189:46|113:45,1,143.999995605469,10|8,0:3|0:3,2:2:0:0:
55,242,25888,1,14,0:3:0:0:
133,267,26203,6,0,B|214:264,1,71.9999978027344,10|10,0:2|0:3,0:2:0:0:
289,355,26993,2,2,L|447:367,1,143.999995605469,10|8,0:3|0:3,0:2:0:0:
486,302,27940,2,0,B|503:254|486:188,1,107.999996704102,10|10,0:3|0:3,0:0:0:0:
439,128,28730,6,0,B|401:137|367:123,1,71.9999978027344,10|10,0:2|0:3,0:0:0:0:
251,80,29519,2,2,B|189:46|113:45,1,143.999995605469,10|8,0:3|0:3,0:2:0:0:
15,242,30940,6,2,B|13:304|13:304|81:332,1,120,14|2,0:3|0:2,0:1:0:0:
150,354,31730,1,10,0:3:0:0:
222,303,32046,2,2,B|243:226,1,79.9999999999999,10|10,0:3|0:3,0:1:0:0:
177,111,32835,1,2,0:2:0:0:
285,32,33309,6,0,B|363:13|445:52,1,160,8|2,0:3|0:2,0:0:0:0:
495,119,34256,1,10,0:3:0:0:
493,206,34572,2,2,B|476:295,1,79.9999999999999,10|8,0:3|0:3,0:1:0:0:
427,357,35203,1,10,0:3:0:0:
277,196,35993,6,2,B|254:163|254:163|254:129|254:129|222:77,1,120,14|2,0:3|0:2,0:1:0:0:
175,20,36782,1,10,0:3:0:0:
88,36,37098,2,2,B|64:75|59:119,1,79.9999999999999,10|10,0:3|0:3,0:1:0:0:
53,242,37888,1,2,0:2:0:0:
139,339,38361,6,0,B|220:368|297:335,1,160,8|2,0:3|0:2,0:0:0:0:
368,286,39309,1,10,0:3:0:0:
308,221,39625,2,2,B|290:180|289:135,1,79.9999999999999,10|8,0:3|0:3,0:1:0:0:
331,65,40256,1,10,0:3:0:0:
417,49,40572,2,0,B|459:61|484:90|483:141,1,120,10|12,0:3|1:3,0:0:0:0:
438,213,41361,6,0,L|358:203,1,71.9999978027344,10|10,0:2|0:3,0:2:0:0:
256,151,42151,2,2,B|275:122|275:122|276:59|213:35,1,143.999995605469,10|8,0:3|0:3,0:2:0:0:
141,67,43098,2,0,B|102:116|125:180,1,107.999996704102,8|10,0:3|0:3,0:0:0:0:
184,221,43888,6,0,B|260:208,1,71.9999978027344,10|10,0:2|0:3,0:2:0:0:
362,269,44677,2,2,B|384:323|343:374|293:361,1,143.999995605469,10|8,0:3|0:3,2:2:0:0:
91,327,46098,1,14,0:3:0:0:
30,271,46414,6,0,B|37:191,1,71.9999978027344,10|8,0:2|0:3,0:2:0:0:
95,91,47203,2,2,B|182:66|149:123|233:107,1,143.999995605469,10|8,0:3|0:3,0:2:0:0:
305,70,48151,2,0,B|354:40|413:54,1,107.999996704102,10|10,0:3|0:3,0:0:0:0:
479,106,48940,6,0,B|494:145|499:177,1,71.9999978027344,10|8,0:2|0:3,0:0:0:0:
472,295,49730,2,2,B|413:261|324:275,1,143.999995605469,10|8,0:3|0:3,0:2:0:0:
114,355,51151,1,14,0:3:0:0:
47,293,51467,6,0,B|35:254|34:207,2,79.9999999999999,10|10|10,0:2|0:2|0:3,0:2:0:0:
105,364,52414,1,10,0:2:0:0:
283,339,53046,2,0,B|340:330|340:330|380:364|451:361,1,160,10|14,0:3|0:3,0:0:0:0:
494,296,53993,6,0,B|504:265|485:244|500:199,2,79.9999999999999,10|10|10,0:2|0:2|0:3,0:2:0:0:
435,361,54940,1,10,0:3:0:0:
368,303,55256,2,0,B|311:223|410:144|350:70,1,240,10|14,0:3|0:3,0:0:0:0:
272,36,56519,6,0,L|188:29,2,79.9999999999999,10|10|10,0:2|0:2|0:3,0:2:0:0:
359,26,57467,1,10,0:2:0:0:
487,146,58098,1,8,0:3:0:0:
510,230,58414,1,10,0:2:0:0:
466,306,58730,6,2,B|431:319|431:319|383:305,1,79.9999999999999,14|8,0:3|0:2,0:2:0:0:
335,237,59361,2,0,B|349:204|341:146,1,79.9999999999999,10|8,0:2|0:3,0:0:0:0:
295,83,59993,2,0,B|248:41|183:50,1,120,10|10,0:1|0:1,0:0:0:0:
57,89,60940,1,10,0:1:0:0:
30,173,61256,1,14,0:3:0:0:
201,357,62519,6,2,B|275:348|275:348|300:357|300:357|374:349,1,176.000005371094,14|8,0:3|0:3,0:1:0:0:
460,368,63467,1,10,0:2:0:0:
495,287,63782,2,0,B|501:216|476:150,1,132.00000402832,2|10,0:2|0:2,0:2:0:0:
439,77,64572,1,10,0:3:0:0:
309,105,65046,6,2,B|247:88|247:88|221:51|221:51|140:27,1,176.000005371094,10|10,0:3|0:3,0:1:0:0:
72,55,65993,1,10,0:1:0:0:
25,130,66309,2,2,B|5:199|41:267,2,132.00000402832,2|10|8,0:2|0:3|0:2,0:1:0:0:
83,52,67572,5,14,0:3:0:0:
225,183,68203,1,10,0:3:0:0:
367,314,68835,2,2,B|425:352|493:338,2,132.00000402832,2|10|10,0:2|0:2|0:2,0:1:0:0:
279,273,70098,5,10,0:3:0:0:
420,140,70730,1,10,0:3:0:0:
252,43,71361,2,0,B|190:21|103:34,1,132.00000402832,2|10,0:2|0:3,0:0:0:0:
30,66,72151,1,10,0:1:0:0:
19,210,72625,6,2,B|10:291|58:323|58:323|107:315,1,176.000005371094,14|8,0:3|0:3,0:1:0:0:
204,309,73572,1,10,0:2:0:0:
258,229,73888,2,0,B|270:184|270:184|264:154|264:154|280:90,1,132.00000402832,2|10,0:2|0:2,0:2:0:0:
351,37,74677,1,10,0:3:0:0:
474,113,75151,6,2,B|512:195|486:285,1,176.000005371094,10|10,0:3|0:3,0:1:0:0:
432,365,76098,1,10,0:1:0:0:
339,337,76414,2,2,B|274:311|203:326,2,132.00000402832,2|10|8,0:2|0:3|0:2,0:1:0:0:
423,383,77677,5,14,0:3:0:0:
504,207,78309,1,10,0:3:0:0:
380,57,78940,2,0,B|319:24|252:29,2,132.00000402832,2|10|10,0:1|0:2|0:1,0:0:0:0:
462,107,80203,5,10,0:3:0:0:
436,299,80835,1,10,0:3:0:0:
251,357,81467,2,2,B|182:367|122:337,1,132.00000402832,2|10,0:2|0:3,0:1:0:0:
20,236,82414,1,8,0:3:0:0:
17,147,82730,6,0,B|12:92|12:92|29:43|83:40,1,143.999995605469,14|8,0:3|0:3,0:0:0:0:
210,126,83993,2,0,L|235:275,2,143.999995605469,8|8|14,0:3|0:2|0:3,0:0:0:0:
201,244,95677,6,0,L|185:321,1,71.9999978027344,10|10,0:2|0:3,0:2:0:0:
77,371,96467,2,2,B|40:333|31:282|61:233,1,143.999995605469,10|8,0:3|0:3,0:2:0:0:
97,166,97414,2,0,B|111:136|111:136|108:107|108:107|129:59,1,107.999996704102,8|10,0:3|0:3,0:0:0:0:
205,32,98203,6,0,B|244:34|267:68,1,71.9999978027344,10|10,0:2|0:3,0:2:0:0:
289,187,98993,2,2,B|263:266|319:332,1,143.999995605469,10|8,0:3|0:3,2:2:0:0:
494,224,100414,1,14,0:3:0:0:
466,145,100730,6,0,B|444:65,1,71.9999978027344,10|8,0:2|0:3,0:2:0:0:
328,39,101519,2,0,B|247:19|276:83|196:76,1,143.999995605469,10|8,0:3|0:3,0:2:0:0:
116,96,102467,2,0,B|84:152|105:199,1,107.999996704102,10|10,0:3|0:3,0:0:0:0:
171,248,103256,6,0,B|258:243,1,71.9999978027344,10|8,0:2|0:3,0:0:0:0:
364,216,104046,2,0,B|407:165|483:205|470:287|422:329,1,215.999993408203,10|10,0:3|0:2,0:2:0:0:
292,367,105467,1,14,0:3:0:0:
220,307,105782,6,0,B|208:272|207:221,2,79.9999999999999,10|10|10,0:2|0:2|0:3,0:2:0:0:
278,373,106730,1,10,0:2:0:0:
427,281,107361,2,0,B|451:211|435:121,1,160,10|14,0:3|0:3,0:0:0:0:
370,62,108309,6,0,B|323:56|287:36,2,79.9999999999999,10|10|10,0:2|0:2|0:3,0:2:0:0:
453,32,109256,1,10,0:3:0:0:
493,109,109572,2,0,B|522:188|483:285|385:276,1,240,10|14,0:3|0:3,0:0:0:0:
316,223,110835,6,0,B|307:196|307:196|306:178|306:178|295:144,2,79.9999999999999,10|10|10,0:2|0:2|0:3,0:2:0:0:
306,310,111782,1,10,0:2:0:0:
145,381,112414,1,8,0:3:0:0:
60,354,112730,1,10,0:2:0:0:
13,279,113046,6,2,B|7:241|23:199,1,79.9999999999999,14|8,0:3|0:2,0:2:0:0:
81,135,113677,2,0,B|117:136|165:114,1,79.9999999999999,10|8,0:2|0:3,0:0:0:0:
234,72,114309,2,0,B|285:35|363:37,1,120,10|10,0:1|0:1,0:0:0:0:
476,59,115256,1,10,0:1:0:0:
495,144,115572,1,14,0:3:0:0:
347,345,116835,6,2,B|314:360|314:360|263:324|263:324|274:238,1,176.000005371094,14|8,0:3|0:3,0:1:0:0:
282,159,117782,1,10,0:2:0:0:
240,81,118098,2,0,B|186:39|104:58,1,132.00000402832,2|10,0:2|0:2,0:2:0:0:
34,92,118888,1,10,0:3:0:0:
9,221,119361,6,2,B|12:264|49:283|49:283|164:264,1,176.000005371094,10|10,0:3|0:3,0:1:0:0:
232,252,120309,1,10,0:1:0:0:
299,195,120625,2,2,B|319:126|283:58,2,132.00000402832,2|10|8,0:2|0:3|0:2,0:1:0:0:
274,279,121888,5,14,0:3:0:0:
429,360,122519,1,10,0:3:0:0:
475,190,123151,2,2,B|492:130|492:130|471:63,2,132.00000402832,2|10|10,0:2|0:2|0:2,0:1:0:0:
430,266,124414,5,10,0:3:0:0:
277,177,125046,1,10,0:3:0:0:
184,326,125677,2,0,B|127:358|127:358|74:311,1,132.00000402832,10|10,0:1|0:1,0:0:0:0:
20,246,126467,1,10,0:3:0:0:
21,113,126940,6,2,B|29:52|85:32|85:32|155:57,1,176.000005371094,14|8,0:3|0:3,0:1:0:0:
228,89,127888,1,10,0:2:0:0:
259,171,128203,2,0,B|272:218|272:218|262:252|262:252|281:310,1,132.00000402832,2|10,0:2|0:2,0:2:0:0:
335,363,128993,1,10,0:3:0:0:
464,336,129467,6,2,B|504:301|504:301|464:167,1,176.000005371094,10|10,0:3|0:3,0:1:0:0:
428,104,130414,1,10,0:1:0:0:
364,43,130730,2,2,B|302:18|228:32,2,132.00000402832,2|10|8,0:2|0:3|0:2,0:1:0:0:
438,89,131993,5,14,0:3:0:0:
364,248,132625,1,10,0:3:0:0:
207,166,133256,2,0,B|146:139|146:139|79:146,2,132.00000402832,2|10|10,0:1|0:2|0:1,0:0:0:0:
264,232,134519,5,10,0:3:0:0:
386,358,135151,1,10,0:3:0:0:
472,204,135782,2,2,B|487:143|464:65,1,132.00000402832,2|10,0:2|0:3,0:1:0:0:
344,21,136730,1,8,0:3:0:0:
284,88,137046,6,0,B|252:148|330:168|289:223,1,143.999995605469,14|8,0:3|0:3,0:0:0:0:
182,336,138309,2,0,B|94:375|38:305,1,160,8|8,0:3|2:2,0:0:0:0:
25,130,139572,6,0,B|22:87|22:87|38:45,1,88.0000026855468,14|10,0:1|0:2,0:0:0:0:
123,24,140203,1,10,0:3:0:0:
192,78,140519,1,10,0:1:0:0:
275,50,140835,2,0,B|360:30|360:30|452:63,1,176.000005371094,2|2,0:2|0:2,0:0:0:0:
494,131,141782,1,10,0:1:0:0:
439,200,142098,6,0,B|374:218|374:218|308:195,1,132.00000402832,10|2,0:1|0:1,0:0:0:0:
237,151,142888,1,10,0:3:0:0:
163,103,143203,2,0,B|104:66|104:66|12:139|67:237,1,264.000008056641,10|10,0:1|0:3,0:0:0:0:
156,335,144625,6,0,B|207:328|207:328|224:338|224:338|289:329,1,132.00000402832,14|2,0:1|0:1,0:0:0:0:
406,379,145572,1,10,0:1:0:0:
492,278,146046,1,10,0:1:0:0:
412,172,146519,1,2,0:1:0:0:
286,222,146993,2,0,B|222:241|222:241|161:214,1,132.00000402832,8|10,0:3|0:2,0:0:0:0:
85,171,147782,1,10,0:1:0:0:
159,61,148256,6,2,B|214:31|214:31|254:103|338:103|338:103|369:49|436:47|436:47|463:74|449:126,1,396.000012084961,10|14,0:1|0:3,2:1:0:0:
483,265,159151,6,0,B|495:320|457:358|457:358|407:353,1,143.999995605469,8|14,2:2|2:3,0:0:0:0:
343,291,160098,6,0,B|350:268|350:268|346:243|346:243|357:206,2,79.9999999999999,10|10|10,0:2|0:2|0:3,0:2:0:0:
285,358,161046,1,10,0:2:0:0:
140,256,161677,2,0,B|100:185|132:100,1,160,10|14,0:3|0:3,0:0:0:0:
207,56,162625,6,0,B|245:52|282:29,2,79.9999999999999,10|10|10,0:2|0:2|0:3,0:2:0:0:
122,80,163572,1,10,0:3:0:0:
72,153,163888,2,0,B|17:245|51:320|51:320|114:351,1,240,8|14,0:3|0:3,0:0:0:0:
196,357,165151,6,0,L|281:350,2,79.9999999999999,10|10|10,0:2|0:2|0:3,0:2:0:0:
108,366,166098,1,10,0:2:0:0:
203,218,166730,1,8,0:3:0:0:
286,246,167046,1,10,0:2:0:0:
367,211,167361,6,2,B|382:174|382:174|374:130,1,79.9999999999999,14|8,0:3|0:2,0:2:0:0:
313,71,167993,2,0,B|270:69|222:51,1,79.9999999999999,10|8,0:2|0:3,0:0:0:0:
149,33,168625,2,0,B|110:23|110:23|67:37|58:98,1,120,10|10,0:1|0:1,0:0:0:0:
29,209,169572,1,10,0:1:0:0:
66,289,169888,2,0,B|110:333|181:315,2,120,12|8|8,0:2|0:1|0:3,0:0:0:0:
29,209,171151,6,0,B|26:145|75:103,1,120,14|10,0:1|0:1,0:0:0:0:
189,36,172098,1,10,0:1:0:0:
258,90,172414,1,14,0:3:0:0:
460,368,173677,6,2,B|483:284|467:193,1,176.000005371094,14|8,0:3|0:3,0:1:0:0:
442,109,174625,1,10,0:2:0:0:
357,131,174940,2,0,B|288:143|221:117,1,132.00000402832,2|10,0:2|0:2,0:2:0:0:
147,80,175730,1,10,0:3:0:0:
30,141,176203,6,2,B|6:224|22:315,1,176.000005371094,10|10,0:3|0:3,0:1:0:0:
93,366,177151,1,10,0:1:0:0:
176,337,177467,2,2,B|243:312|323:329,2,132.00000402832,2|10|8,0:2|0:3|0:2,0:1:0:0:
97,377,178730,5,14,0:3:0:0:
15,220,179361,1,10,0:3:0:0:
112,73,179993,2,2,B|159:28|159:28|231:36,2,132.00000402832,2|10|10,0:2|0:2|0:2,0:1:0:0:
55,140,181256,5,10,0:3:0:0:
186,257,181888,1,10,0:3:0:0:
290,115,182519,2,0,B|343:67|415:86,1,132.00000402832,2|10,0:2|0:3,0:0:0:0:
480,141,183309,1,10,0:1:0:0:
465,272,183782,6,2,B|442:352|442:352|385:375|356:330,1,176.000005371094,14|8,0:3|0:3,0:1:0:0:
298,271,184730,1,10,0:2:0:0:
354,204,185046,2,0,B|381:179|381:179|393:123|365:76,1,132.00000402832,2|10,0:2|0:2,0:2:0:0:
307,24,185835,1,10,0:3:0:0:
220,123,186309,6,2,B|181:196|249:220|208:295,1,176.000005371094,10|10,0:3|0:3,0:1:0:0:
142,350,187256,1,10,0:1:0:0:
65,306,187572,2,2,B|37:247|54:170,2,132.00000402832,2|10|8,0:2|0:3|0:2,0:1:0:0:
123,371,188835,5,14,0:3:0:0:
231,232,189467,1,10,0:3:0:0:
380,324,190098,2,0,B|439:351|439:351|508:320,2,132.00000402832,2|10|10,0:1|0:2|0:1,0:0:0:0:
300,287,191361,5,10,0:3:0:0:
402,144,191993,1,10,0:3:0:0:
255,47,192625,2,2,B|196:14|120:33,1,132.00000402832,2|10,0:2|0:3,0:1:0:0:
9,90,193572,1,8,0:3:0:0:
13,178,193888,6,0,B|25:237|75:239|75:239|135:221,1,143.999995605469,14|8,0:3|0:3,0:0:0:0:
234,113,195151,2,0,B|246:54|296:52|296:52|356:70,1,143.999995605469,8|8,0:3|0:2,0:0:0:0:
454,178,196414,6,0,B|479:320,2,143.999995605469,6|10|2,0:1|0:2|0:1,0:0:0:0:
409,107,197993,1,2,0:2:0:0:
329,131,198309,1,10,0:2:0:0:
183,53,198940,6,0,B|137:34|137:34|86:52|76:104,1,143.999995605469,2|8,0:1|0:2,0:2:0:0:
65,182,199888,1,0,0:2:0:0:
96,258,200203,2,0,B|156:301|236:284,1,143.999995605469,2|10,0:1|0:2,0:0:0:0:
372,194,201467,2,0,B|389:144|389:144|385:114|385:114|406:52,2,143.999995605469,6|8|2,0:1|0:2|0:1,0:0:0:0:
338,269,203046,5,2,0:2:0:0:
267,311,203361,1,10,0:2:0:0:
113,248,203993,2,0,B|82:218|82:218|70:165|118:119,1,143.999995605469,2|8,0:1|0:2,0:2:0:0:
229,11,205256,5,2,0:1:0:0:
385,65,205888,1,10,0:1:0:0:
314,214,206519,2,0,B|287:290|294:370,2,143.999995605469,6|8|2,0:1|0:2|0:1,0:0:0:0:
353,141,208098,5,2,0:2:0:0:
343,58,208414,1,10,0:2:0:0:
181,21,209046,2,0,B|100:13|49:93|87:167,1,215.999993408203,2|0,0:1|0:2,0:2:0:0:
125,241,210309,1,2,0:1:0:0:
269,161,210940,1,10,0:2:0:0:
379,284,211572,6,0,B|434:331|434:331|489:282,1,143.999995605469,6|8,0:1|0:2,0:2:0:0:
432,127,212835,2,0,B|365:80|288:111,1,143.999995605469,2|8,0:1|0:2,0:0:0:0:
206,248,214098,6,0,B|148:294|148:294|83:255,1,143.999995605469,10|8,0:1|0:2,0:2:0:0:
3,94,215361,1,14,0:1:0:0:
177,34,215993,2,0,B|225:26|271:39,1,79.9999999999999,14|10,0:2|0:2,0:0:0:0:
344,86,216625,6,0,B|367:115|367:115|368:157|368:157|407:209,2,132.00000402832,14|10|10,0:1|0:3|0:2,0:0:0:0:
259,48,217888,2,0,L|119:37,1,132.00000402832,10|10,0:1|0:3,0:0:0:0:
32,138,218835,1,10,0:2:0:0:
86,212,219151,6,0,B|146:234|223:195,1,132.00000402832,10|10,0:1|0:3,0:0:0:0:
323,115,220098,1,10,0:2:0:0:
404,158,220414,2,0,B|449:214|428:285,1,132.00000402832,10|10,0:1|0:3,0:0:0:0:
325,362,221361,1,10,0:2:0:0:
250,305,221677,6,2,B|237:263|237:263|257:204,1,88.0000026855468,14|10,0:1|0:1,0:1:0:0:
324,172,222309,2,2,B|338:130|338:130|325:88,1,88.0000026855468,10|10,0:1|0:1,0:1:0:0:
256,33,222940,2,0,B|196:30|196:30|156:57|156:57|76:48,1,176.000005371094,10|10,0:1|0:1,0:0:0:0:
20,211,224203,6,2,B|16:262|44:312,1,88.0000026855468,10|10,0:1|0:1,0:1:0:0:
96,361,224835,1,10,0:1:0:0:
175,323,225151,2,2,B|320:267|285:384|431:359,1,264.000008056641,10|10,0:1|0:1,0:1:0:0:
477,192,226730,6,0,B|486:52,2,132.00000402832,14|10|10,0:1|0:3|0:2,0:0:0:0:
456,277,227993,2,0,B|395:301|395:301|315:279,1,132.00000402832,10|10,0:1|0:3,0:0:0:0:
206,238,228940,1,10,0:2:0:0:
257,166,229256,6,0,B|294:105|251:27,1,132.00000402832,10|10,0:1|0:3,0:0:0:0:
127,13,230203,1,10,0:2:0:0:
58,68,230519,2,0,B|21:129|64:207,1,132.00000402832,10|10,0:1|0:3,0:0:0:0:
150,287,231467,1,8,0:2:0:0:
229,249,231782,6,0,B|331:243|289:314|380:324,1,176.000005371094,14|0,0:1|0:0,0:0:0:0:
463,300,232730,1,10,0:1:0:0:
486,215,233046,2,2,B|498:171|486:127,1,88.0000026855468,14|10,0:1|0:1,0:1:0:0:
430,60,233677,2,2,L|331:52,1,88.0000026855468,10|10,0:1|0:1,0:1:0:0:
240,33,234309,5,14,0:1:0:0:
256,192,234467,12,14,236835,0:3:0:0:
