osu file format v14

[General]
AudioFilename: audio.mp3
AudioLeadIn: 0
PreviewTime:90201
Countdown: 0
SampleSet: Soft
StackLeniency: 0.7
Mode: 0
LetterboxInBreaks: 0
WidescreenStoryboard: 1

[Editor]
Bookmarks: 10616,30512,40460,60357,70305,80253,90201,112585,122533,132481,142429,164813,184709,204605,224502,244398
DistanceSpacing: 1
BeatDivisor: 4
GridSize: 32
TimelineZoom: 1.7

[Metadata]
Title:last moment
TitleUnicode:last moment
Artist:Yousei Teikoku
ArtistUnicode:妖精帝國
Creator:IsomirDiAngelo
Version:normal
Source:舞-HiME 運命の系統樹
Tags:shirahane suou net0 luscent 404 aimnotfound shirohamymommy delis meiikyuu mai-hime mai hime unmei no keitouju original soundtrack ost ps2 japanese rock jrock j-rock video game anime mecha gothic lolita propaganda yui itsuki fairy empire das feenreich
BeatmapID:2455268
BeatmapSetID:1172342

[Difficulty]
HPDrainRate:4
CircleSize:3
OverallDifficulty:5
ApproachRate:6
SliderMultiplier:0.999999999999999
SliderTickRate:1

[Events]
//Background and Video events
0,0,"bglastmoment.jpg"
//Break Periods
2,60556,64281
2,112785,121483
2,165013,183659
//Storyboard Layer 0 (Background)
//Storyboard Layer 1 (Fail)
//Storyboard Layer 2 (Pass)
//Storyboard Layer 3 (Foreground)
//Storyboard Layer 4 (Overlay)
//Storyboard Sound Samples

[TimingPoints]
668,310.880829015544,4,1,1,80,1,0
745,-100,4,1,1,50,0,0
5331,-100,4,1,1,80,0,0
5719,-100,4,1,1,50,0,0
10305,-100,4,1,1,80,0,0
10771,-100,4,2,2,80,0,0
15279,-100,4,2,1,80,0,0
15745,-100,4,2,2,80,0,0
20253,-100,4,2,1,80,0,0
20719,-100,4,2,2,80,0,0
25227,-100,4,2,1,80,0,0
25693,-100,4,2,2,80,0,0
29890,-100,4,1,1,80,0,0
30201,-100,4,1,1,80,0,0
30512,-100,4,1,1,80,0,0
40460,-100,4,1,1,60,0,0
40616,-100,4,2,2,60,0,0
60046,-100,4,2,1,60,0,0
60357,-100,4,1,1,80,0,0
70305,-100,4,1,1,80,0,0
70460,-100,4,2,2,60,0,0
80253,-100,4,2,2,60,0,0
80331,-100,4,2,2,30,0,0
82740,-100,4,2,2,60,0,0
82818,-100,4,2,2,30,0,0
84605,-100,4,2,2,60,0,0
88958,-100,4,2,2,60,0,0
89035,-100,4,2,2,30,0,0
89269,-100,4,2,2,60,0,0
89346,-100,4,2,2,40,0,0
89579,-100,4,2,2,60,0,0
89657,-100,4,2,2,50,0,0
89890,-100,4,2,2,60,0,0
90201,-100,4,1,2,80,0,0
111341,-100,4,1,2,80,0,0
111419,-100,4,1,2,50,0,0
111652,-100,4,1,2,80,0,0
111730,-100,4,1,2,60,0,0
111963,-100,4,1,2,80,0,0
112041,-100,4,1,2,70,0,0
112274,-100,4,1,1,80,0,0
112585,-100,4,1,1,80,0,0
122533,-100,4,1,1,80,0,0
122688,-100,4,2,2,80,0,0
132481,-100,4,2,2,80,0,0
141186,-100,4,2,2,80,0,0
141730,-100,4,2,2,5,0,0
141807,-100,4,2,2,80,0,0
142429,-100,4,1,2,80,0,0
163569,-100,4,1,2,60,0,0
163647,-100,4,1,2,30,0,0
163880,-100,4,1,2,60,0,0
163958,-100,4,1,2,40,0,0
164191,-100,4,1,2,60,0,0
164269,-100,4,1,2,50,0,0
164502,-100,4,1,2,60,0,0
164813,-100,4,2,2,60,0,0
184709,-100,4,1,2,80,0,0
190771,-100,4,1,2,80,0,0
194657,-100,4,1,2,80,0,0
203362,-100,4,1,1,80,0,0
204528,-100,4,1,2,5,0,0
204605,-100,4,1,2,80,0,0
222015,-100,4,1,2,80,0,0
222092,-100,4,1,2,40,0,0
222326,-100,4,1,2,80,0,0
222403,-100,4,1,2,40,0,0
222636,-100,4,1,2,80,0,0
222714,-100,4,1,2,40,0,0
222947,-100,4,1,2,80,0,0
223025,-100,4,1,2,50,0,0
223258,-100,4,1,2,80,0,0
223336,-100,4,1,2,60,0,0
223569,-100,4,1,2,80,0,0
223647,-100,4,1,2,70,0,0
223880,-100,4,1,2,80,0,0
224191,-100,4,1,2,90,0,0
224502,-100,4,1,2,80,0,1
233206,-100,4,1,2,100,0,1
234450,-100,4,1,2,80,0,0
241911,-100,4,1,2,80,0,0
241989,-100,4,1,2,40,0,0
242222,-100,4,1,2,80,0,0
242300,-100,4,1,2,50,0,0
242533,-100,4,1,2,80,0,0
242611,-100,4,1,2,60,0,0
242844,-100,4,1,2,80,0,0
242921,-100,4,1,2,60,0,0
243155,-100,4,1,2,80,0,0
243232,-100,4,1,2,70,0,0
243465,-100,4,1,2,80,0,0
243776,-100,4,1,2,90,0,0
244087,-100,4,1,2,100,0,0
244398,-100,4,2,4,60,0,0
244476,-100,4,1,2,50,0,0
247973,-100,4,1,2,5,0,0
248206,-100,4,2,4,60,0,0
249372,-100,4,2,2,5,0,0

[Colours]
Combo1 : 65,171,68
Combo2 : 245,31,31
Combo3 : 220,207,44

[HitObjects]
256,192,668,12,0,4398,0:0:0:0:
255,193,5331,5,0,3:0:0:0:
256,192,5642,12,0,9372,0:0:0:0:
255,191,10305,5,0,3:0:0:0:
154,191,10616,6,0,P|95:188|42:179,1,99.9999999999999,6|2,3:1|3:1,0:0:0:0:
68,82,11237,2,0,P|127:85|180:94,1,99.9999999999999,0|0,3:0|3:0,0:0:0:0:
241,23,11859,2,0,P|264:77|257:150,3,99.9999999999999,2|2|2|2,3:1|3:1|3:1|3:1,0:0:0:0:
359,151,13103,6,0,L|338:272,1,99.9999999999999,2|2,3:1|3:1,0:0:0:0:
353,350,13724,2,0,L|232:329,1,99.9999999999999,0|0,3:0|3:0,0:0:0:0:
193,253,14346,1,2,3:1:0:0:
150,343,14657,1,2,3:1:0:0:
99,256,14968,1,2,3:1:0:0:
47,341,15279,1,2,3:1:0:0:
3,251,15590,6,0,P|6:196|19:121,1,99.9999999999999,6|2,3:1|3:1,0:0:0:0:
112,157,16212,2,0,P|108:102|96:27,1,99.9999999999999,0|0,3:0|3:0,0:0:0:0:
195,23,16833,2,0,P|229:57|307:78,3,99.9999999999999,2|2|2|2,3:1|3:1|3:1|3:1,0:0:0:0:
290,176,18077,6,0,P|275:233|264:299,1,99.9999999999999,2|2,3:1|3:1,0:0:0:0:
167,281,18699,2,0,P|182:338|193:404,1,99.9999999999999,0|0,3:0|3:0,0:0:0:0:
286,354,19320,1,2,3:1:0:0:
385,361,19631,1,2,3:1:0:0:
484,366,19942,1,2,3:1:0:0:
486,265,20253,1,2,3:1:0:0:
385,263,20564,6,0,P|330:263|282:244,1,99.9999999999999,6|2,3:1|3:1,0:0:0:0:
239,159,21186,2,0,P|174:159|119:184,1,99.9999999999999,0|0,3:0|3:0,0:0:0:0:
60,112,21807,2,0,L|78:-6,3,99.9999999999999,2|2|2|2,3:1|3:1|3:1|3:1,0:0:0:0:
175,16,23051,6,0,P|218:49|297:58,1,99.9999999999999,2|2,3:1|3:1,0:0:0:0:
339,124,23673,2,0,P|382:91|460:82,1,99.9999999999999,0|0,3:0|3:0,0:0:0:0:
501,146,24294,1,2,3:1:0:0:
499,246,24605,1,2,3:1:0:0:
406,289,24916,1,2,3:1:0:0:
327,227,25227,1,2,3:1:0:0:
311,325,25538,6,0,P|243:335|184:348,1,99.9999999999999,6|2,3:1|3:1,0:0:0:0:
161,255,26160,2,0,P|111:245|62:238,1,99.9999999999999,0|0,3:1|3:0,0:1:0:0:
32,142,26781,2,0,P|44:91|110:44,3,99.9999999999999,2|2|2|2,3:1|3:1|3:1|3:1,0:0:0:0:
174,40,28025,6,0,P|218:46|294:65,1,99.9999999999999,2|2,3:1|3:1,0:0:0:0:
347,124,28647,2,0,P|391:117|467:99,1,99.9999999999999,0|0,3:0|3:0,0:0:0:0:
503,186,29269,1,2,3:1:0:0:
464,277,29579,1,2,3:1:0:0:
421,367,29890,2,0,L|486:383,2,50,2|2|2,3:1|3:1|3:1,0:0:0:0:
356,289,30512,6,0,P|293:298|226:314,1,99.9999999999999,6|0,3:1|0:0,0:0:0:0:
179,368,31134,2,0,P|170:305|154:238,1,99.9999999999999,2|0,0:0|0:0,0:0:0:0:
100,190,31756,2,0,P|163:181|230:165,1,99.9999999999999,2|0,0:0|0:0,0:0:0:0:
274,108,32377,2,0,P|283:171|299:238,1,99.9999999999999,2|2,0:0|0:0,0:0:0:0:
388,228,32999,6,0,P|434:230|490:188,1,99.9999999999999,2|0,0:0|0:0,0:0:0:0:
506,106,33621,2,0,P|478:59|401:35,1,99.9999999999999,2|0,0:0|0:0,0:0:0:0:
339,27,34243,1,2,0:0:0:0:
261,89,34554,1,0,0:0:0:0:
182,27,34864,1,2,0:0:0:0:
95,76,35175,1,2,3:1:0:0:
173,137,35486,6,0,L|156:275,1,99.9999999999999,6|0,3:1|0:0,0:0:0:0:
65,268,36108,2,0,L|77:367,1,99.9999999999999,2|0,0:0|0:0,0:0:0:0:
169,328,36730,2,0,P|225:318|292:309,1,99.9999999999999,2|0,0:0|0:0,0:0:0:0:
276,212,37351,2,0,P|332:222|399:231,1,99.9999999999999,2|2,0:0|0:0,0:0:0:0:
425,314,37973,5,2,0:0:0:0:
477,228,38284,1,0,0:0:0:0:
441,134,38595,2,0,P|378:124|321:114,1,99.9999999999999,2|0,0:0|0:0,0:0:0:0:
242,129,39217,6,0,B|314:152|314:152|326:274,2,150,14|8|8,0:0|0:0|3:1,0:0:0:0:
217,27,40460,6,0,P|159:44|114:35,1,99.9999999999999,6|10,3:2|0:0,0:0:0:0:
24,66,41082,2,0,L|65:271,1,200,2|2,0:0|3:2,0:0:0:0:
127,347,42015,1,8,0:0:0:0:
127,347,42170,2,0,P|201:335|298:321,1,150,2|8,0:0|0:0,0:0:0:0:
352,260,42947,6,0,P|374:309|363:373,1,99.9999999999999,2|8,3:2|0:0,0:0:0:0:
469,370,43569,2,0,P|475:316|517:267,1,99.9999999999999,2|8,0:0|0:0,0:0:0:0:
440,199,44191,2,0,B|356:231|336:127|228:169,1,200,2|2,3:2|0:0,0:0:0:0:
218,200,44968,2,0,L|234:321,1,99.9999999999999,8|8,3:0|3:0,0:0:0:0:
203,340,45434,6,0,P|149:359|97:341,1,99.9999999999999,2|10,3:2|0:0,0:0:0:0:
36,279,46056,2,0,L|57:62,1,200,2|2,0:0|3:2,0:0:0:0:
122,5,46989,1,8,0:0:0:0:
122,5,47144,2,0,P|187:29|200:106,1,150,2|8,0:0|0:0,0:0:0:0:
226,198,47921,6,0,P|157:190|65:180,2,150,2|2|10,3:2|0:0|0:0,0:0:0:0:
200,295,49165,2,0,P|269:287|361:277,1,150,2|0,3:2|0:0,0:0:0:0:
423,345,49942,2,0,P|396:300|405:246,1,99.9999999999999,8|8,3:0|3:0,0:0:0:0:
445,232,50408,6,0,L|459:121,1,99.9999999999999,2|10,3:2|0:0,0:0:0:0:
389,58,51030,2,0,P|282:31|220:109,1,200,2|2,0:0|3:2,0:0:0:0:
178,178,51963,1,8,0:0:0:0:
178,178,52118,2,0,L|21:192,1,150,2|8,0:0|0:0,0:0:0:0:
36,293,52895,6,0,P|72:326|131:333,1,99.9999999999999,2|8,3:2|0:0,0:0:0:0:
220,323,53517,2,0,P|265:291|277:235,1,99.9999999999999,2|8,0:0|0:0,0:0:0:0:
226,163,54139,2,0,L|445:182,1,200,2|0,3:2|0:0,0:0:0:0:
470,159,54916,2,0,P|490:106|471:49,1,99.9999999999999,8|8,3:0|3:0,0:0:0:0:
440,35,55383,6,0,L|334:40,1,99.9999999999999,2|10,3:2|0:0,0:0:0:0:
247,1,56004,2,0,P|252:96|257:210,1,200,2|2,0:2|3:2,0:0:0:0:
259,305,56937,1,0,0:0:0:0:
259,305,57092,2,0,P|214:329|132:269,1,150,2|8,0:0|3:0,0:0:0:0:
55,223,57870,6,0,L|43:59,2,150,2|2|10,3:2|0:0|0:0,0:0:0:0:
152,201,59113,5,2,3:2:0:0:
251,209,59424,1,8,0:0:0:0:
350,220,59735,1,0,3:0:0:0:
449,226,60046,2,0,L|511:233,2,50,8|8|6,3:0|3:0|3:1,0:0:0:0:
256,192,65331,12,14,69061,0:0:0:0:
295,123,70305,6,0,P|353:140|398:131,1,99.9999999999999,6|10,3:2|0:0,0:0:0:0:
488,66,70927,2,0,L|447:271,1,200,2|2,0:0|3:2,0:0:0:0:
380,340,71859,1,0,0:0:0:0:
380,340,72015,2,0,P|306:328|209:314,1,150,2|8,0:0|0:0,0:0:0:0:
154,384,72792,6,0,P|132:335|143:271,1,99.9999999999999,2|8,3:2|0:0,0:0:0:0:
49,236,73414,2,0,P|82:199|129:183,1,99.9999999999999,2|8,0:0|0:0,0:0:0:0:
104,86,74036,2,0,B|188:54|208:158|316:116,1,200,2|2,3:2|0:0,0:0:0:0:
334,94,74813,2,0,L|318:215,1,99.9999999999999,8|8,3:0|3:0,0:0:0:0:
357,227,75279,6,0,P|411:246|463:228,1,99.9999999999999,2|10,3:2|0:0,0:0:0:0:
509,317,75901,2,0,L|292:296,1,200,2|2,0:0|3:2,0:0:0:0:
237,365,76833,1,0,0:0:0:0:
237,365,76989,2,0,P|172:341|159:264,1,150,2|8,0:0|0:0,0:0:0:0:
151,168,77766,6,0,P|82:160|-10:150,2,150,2|2|10,3:2|0:0|0:0,0:0:0:0:
187,74,79010,2,0,P|256:66|348:56,1,150,2|0,3:2|0:0,0:0:0:0:
418,114,79787,2,0,P|411:169|403:229,1,99.9999999999999,8|8,3:0|3:0,0:0:0:0:
256,192,80253,12,2,82740,3:2:0:0:
256,192,82818,12,8,84605,0:0:0:0:
367,87,85227,6,0,L|256:82,1,99.9999999999999,4|0,3:1|3:0,0:0:0:0:
176,126,85849,2,0,L|58:126,2,99.9999999999999,8|0|0,0:0|3:0|3:0,0:0:0:0:
209,162,86626,2,0,P|221:213|207:277,1,99.9999999999999
241,301,87092,2,0,L|356:310,1,99.9999999999999,8|0,0:0|3:0,0:0:0:0:
422,251,87714,6,0,L|444:98,2,150,0|0|0,3:0|0:0|3:0,0:0:0:0:
438,350,88958,1,8,0:0:0:0:
197,352,90201,6,0,L|187:231,1,99.9999999999999,6|8,0:0|0:0,0:0:0:0:
145,226,90668,2,0,P|146:155|221:97,1,150,2|10,0:0|0:0,0:0:0:0:
256,20,91445,5,2,0:0:0:0:
355,31,91756,1,8,0:0:0:0:
338,129,92066,1,2,0:0:0:0:
238,116,92377,1,8,0:0:0:0:
270,210,92688,6,0,P|343:226|422:197,2,150,2|2|10,0:0|0:0|0:0,0:0:0:0:
184,263,93932,2,0,L|163:374,1,99.9999999999999,2|8,0:0|0:0,0:0:0:0:
65,372,94554,1,0,0:0:0:0:
13,286,94864,1,8,0:0:0:0:
28,187,95175,6,0,P|81:182|135:178,1,99.9999999999999,2|8,0:0|0:0,0:0:0:0:
152,134,95642,2,0,P|249:135|325:139,1,150,2|10,0:0|0:0,0:0:0:0:
374,68,96419,5,2,0:0:0:0:
452,129,96730,1,8,0:0:0:0:
452,229,97041,1,2,0:0:0:0:
408,318,97351,1,8,0:0:0:0:
311,292,97662,6,0,B|223:317|224:214|112:238,1,200,2|0,0:0|0:0,0:0:0:0:
33,201,98595,2,0,P|35:177|40:145,1,50,10|2,0:0|0:0,0:0:0:0:
13,108,98906,6,0,P|38:49|135:31,1,150,2|2,0:1|0:1,0:0:0:0:
146,64,99528,1,2,0:0:0:0:
343,36,100149,6,0,P|377:40|443:48,1,99.9999999999999,6|8,0:0|0:0,0:0:0:0:
480,15,100616,2,0,L|448:180,1,150,2|10,0:0|0:0,0:0:0:0:
468,260,101393,5,2,0:0:0:0:
417,346,101704,1,8,0:0:0:0:
320,319,102015,1,2,0:0:0:0:
372,233,102326,1,8,0:0:0:0:
272,225,102636,6,0,B|197:237|197:237|155:313,2,150,2|2|10,0:0|0:0|0:0,0:0:0:0:
331,144,103880,2,0,P|305:41|217:37,1,200,2|0,0:0|0:0,0:0:0:0:
135,79,104813,1,8,0:0:0:0:
39,48,105123,6,0,L|54:165,1,99.9999999999999,2|8,0:0|0:0,0:0:0:0:
21,187,105590,2,0,P|82:210|104:293,1,150,2|10,0:0|0:0,0:0:0:0:
190,339,106367,2,0,L|24:363,2,150,2|2|10,0:0|0:0|0:0,0:0:0:0:
289,349,107611,5,2,0:0:0:0:
256,192,107688,12,8,112585,0:0:0:0:
275,24,122533,6,0,L|289:135,1,99.9999999999999,6|10,3:2|0:0,0:0:0:0:
224,201,123155,2,0,P|118:169|105:70,1,200,2|2,0:0|3:2,0:0:0:0:
12,138,124087,1,0,0:0:0:0:
12,138,124243,2,0,L|6:298,1,150,2|8,0:0|0:0,0:0:0:0:
100,325,125020,6,0,P|136:358|195:365,1,99.9999999999999,2|8,3:2|0:0,0:0:0:0:
283,347,125642,2,0,P|328:315|340:259,1,99.9999999999999,2|8,0:0|0:0,0:0:0:0:
421,213,126264,2,0,L|221:195,1,200,2|2,3:2|0:0,0:0:0:0:
176,217,127041,2,0,P|156:164|175:107,1,99.9999999999999,8|8,3:0|3:0,0:0:0:0:
135,82,127508,6,0,L|241:87,1,99.9999999999999,2|10,3:2|0:0,0:0:0:0:
312,23,128129,2,0,P|344:93|459:81,1,200,2|2,0:0|3:2,0:0:0:0:
477,188,129061,1,0,0:0:0:0:
477,188,129217,2,0,L|449:338,1,150,2|8,0:0|0:0,0:0:0:0:
349,336,129995,6,0,P|278:377|207:355,2,150,2|2|10,0:0|0:0|0:0,0:0:0:0:
308,245,131237,2,0,P|302:169|296:87,1,150,2|0,0:0|0:0,0:0:0:0:
213,38,132015,2,0,P|163:28|116:54,1,99.9999999999999,8|8,3:0|3:0,0:0:0:0:
70,45,132481,6,0,L|86:161,1,99.9999999999999,6|2,3:2|3:2,0:0:0:0:
57,240,133103,1,2,3:2:0:0:
218,347,133724,2,0,P|281:333|380:306,1,150,2|2,3:2|0:2,0:0:0:0:
484,161,134968,5,2,3:2:0:0:
285,181,135590,1,2,3:2:0:0:
401,343,136212,1,2,3:2:0:0:
484,161,136833,1,2,3:2:0:0:
302,77,137455,6,0,P|250:75|191:69,1,99.9999999999999,2|2,3:2|3:2,0:0:0:0:
112,24,138077,1,2,3:2:0:0:
25,204,138699,2,0,L|45:366,1,150,2|2,3:2|0:2,0:0:0:0:
270,314,139942,6,0,L|424:332,2,150,2|2|2,3:2|0:2|3:2,0:0:0:0:
182,265,141186,1,2,3:2:0:0:
343,348,142429,6,0,P|377:344|443:336,1,99.9999999999999,6|8,0:0|0:0,0:0:0:0:
480,369,142896,2,0,L|448:204,1,150,2|10,0:0|0:0,0:0:0:0:
460,122,143673,5,2,0:0:0:0:
409,36,143984,1,8,0:0:0:0:
312,63,144294,1,2,0:0:0:0:
364,149,144606,1,8,0:0:0:0:
294,220,144916,6,0,B|266:380,2,150,2|2|8,0:0|0:0|0:0,0:0:0:0:
219,153,146160,2,0,P|193:50|105:46,1,200,2|0,0:0|0:0,0:0:0:0:
12,44,147093,1,8,0:0:0:0:
58,132,147403,6,0,L|48:253,1,99.9999999999999,2|8,0:0|0:0,0:0:0:0:
6,258,147870,2,0,P|7:329|82:387,1,150,2|10,0:0|0:0,0:0:0:0:
159,364,148647,5,2,0:0:0:0:
258,353,148958,1,8,0:0:0:0:
246,253,149268,1,2,0:0:0:0:
146,263,149579,1,8,0:0:0:0:
82,185,149890,6,0,P|46:113|120:33,1,200,2|0,0:0|0:0,0:0:0:0:
217,28,150823,2,0,L|209:88,1,50,10|2,0:0|0:0,0:0:0:0:
237,119,151134,6,0,L|394:93,1,150,2|2,0:0|0:0,0:0:0:0:
426,122,151756,1,2,0:0:0:0:
371,314,152377,6,0,P|318:309|264:305,1,99.9999999999999,6|8,0:0|0:0,0:0:0:0:
247,261,152844,2,0,P|150:262|74:266,1,150,2|10,0:0|0:0,0:0:0:0:
39,182,153621,5,2,0:0:0:0:
34,82,153932,1,8,0:0:0:0:
121,32,154243,1,2,0:0:0:0:
211,74,154553,1,8,0:0:0:0:
233,171,154864,6,0,P|221:227|208:336,2,150,2|2|10,0:0|0:0|0:0,0:0:0:0:
304,100,156108,2,0,P|348:103|425:119,1,99.9999999999999,2|8,0:0|0:0,0:0:0:0:
483,52,156730,1,0,0:0:0:0:
502,150,157041,1,8,0:0:0:0:
474,245,157351,6,0,L|366:253,1,99.9999999999999,2|8,0:0|0:0,0:0:0:0:
333,222,157818,2,0,P|275:244|236:334,1,150,2|10,0:0|0:0,0:0:0:0:
145,275,158595,2,0,L|130:168,1,99.9999999999999,2|8,0:0|0:0,0:0:0:0:
86,152,159061,2,0,L|66:-6,1,150,2|10,0:0|0:0,0:0:0:0:
167,9,159838,5,2,0:0:0:0:
256,192,159916,12,6,164813,3:2:0:0:
405,34,184709,6,0,P|412:90|418:146,1,99.9999999999999,6|8,0:0|0:0,0:0:0:0:
492,199,185331,2,0,P|485:255|479:311,1,99.9999999999999,0|8,0:0|0:0,0:0:0:0:
380,310,185952,2,0,P|313:318|263:321,1,99.9999999999999,2|8,0:0|0:0,0:0:0:0:
191,366,186574,6,0,L|139:355,1,50,2|2,0:0|0:0,0:0:0:0:
109,317,186885,1,10,0:2:0:0:
78,221,187196,6,0,L|65:100,1,99.9999999999999,2|8,0:0|0:0,0:0:0:0:
164,98,187818,2,0,L|153:-1,1,99.9999999999999,2|8,0:0|0:0,0:0:0:0:
250,25,188440,2,0,P|315:37|363:30,1,99.9999999999999,2|8,0:0|0:0,0:0:0:0:
400,118,189061,2,0,P|465:106|513:113,1,99.9999999999999,2|10,0:0|0:0,0:0:0:0:
476,207,189683,6,0,L|463:312,1,99.9999999999999,2|10,0:0|0:0,0:0:0:0:
381,363,190305,1,2,0:0:0:0:
282,345,190616,1,10,0:0:0:0:
244,312,190771,6,0,P|234:241|225:153,1,150,2|10,0:0|0:0,0:0:0:0:
265,132,191393,2,0,L|252:17,1,99.9999999999999,2|2,0:0|0:0,0:0:0:0:
208,11,191859,1,0,0:0:0:0:
108,22,192170,6,0,P|100:72|99:134,1,99.9999999999999,2|10,0:0|0:0,0:0:0:0:
15,178,192792,2,0,P|23:228|24:290,1,99.9999999999999,2|10,0:0|0:0,0:0:0:0:
103,338,193414,6,0,L|169:335,1,50,2|2,0:0|0:0,0:0:0:0:
188,300,193724,1,10,0:0:0:0:
237,294,193880,2,0,P|279:317|302:375,2,99.9999999999999,2|2|2,0:0|0:0|0:0,0:0:0:0:
251,245,194657,6,0,L|231:34,1,200,6|0,0:0|0:0,0:0:0:0:
322,1,195590,1,10,0:0:0:0:
420,20,195901,5,2,0:0:0:0:
460,49,196056,2,0,L|455:210,1,150,2|2,0:0|0:0,0:0:0:0:
416,231,196678,2,0,P|417:283|420:339,1,99.9999999999999,2|2,0:0|0:0,0:0:0:0:
377,358,197144,6,0,P|322:358|282:313,1,99.9999999999999,2|8,0:0|0:0,0:0:0:0:
191,307,197766,2,0,L|218:91,1,200,2|2,0:0|0:0,0:0:0:0:
143,38,198699,2,0,P|78:39|29:47,2,99.9999999999999,10|2|10,0:0|0:0|0:0,0:0:0:0:
239,13,199631,5,2,0:0:0:0:
285,33,199787,2,0,P|331:40|396:43,1,99.9999999999999,2|2,0:0|0:0,0:0:0:0:
431,25,200253,2,0,P|423:82|419:136,1,99.9999999999999,2|10,0:0|0:0,0:0:0:0:
451,163,200719,5,2,0:0:0:0:
472,260,201030,2,0,L|464:320,1,50,2|10,0:0|0:0,0:0:0:0:
427,342,201341,1,2,0:0:0:0:
337,298,201652,2,0,L|344:236,1,50,2|10,0:0|0:0,0:0:0:0:
317,204,201963,6,0,P|224:193|155:193,1,150,2|8,0:0|0:0,0:0:0:0:
75,152,202740,1,0,0:0:0:0:
154,91,203051,1,10,0:2:0:0:
245,130,203362,5,6,3:1:0:0:
417,29,204605,6,0,L|407:150,1,99.9999999999999,2|8,0:0|0:0,0:0:0:0:
365,155,205072,2,0,P|366:226|441:284,1,150,2|10,0:0|0:0,0:0:0:0:
364,361,205849,5,2,0:0:0:0:
264,351,206160,1,8,0:0:0:0:
229,257,206470,1,2,0:0:0:0:
129,248,206781,1,8,0:0:0:0:
63,172,207092,6,0,P|47:99|76:20,2,150,2|2|10,0:0|0:0|0:0,0:0:0:0:
161,154,208336,2,0,P|205:157|274:158,1,99.9999999999999,2|8,0:0|0:0,0:0:0:0:
307,69,208958,1,0,0:0:0:0:
372,144,209268,1,8,0:0:0:0:
467,115,209579,6,0,P|472:168|476:222,1,99.9999999999999,2|8,0:0|0:0,0:0:0:0:
452,259,210046,2,0,P|355:258|279:254,1,150,2|10,0:0|0:0,0:0:0:0:
215,204,210823,5,2,0:0:0:0:
139,270,211134,1,8,0:0:0:0:
47,230,211445,1,2,0:0:0:0:
122,164,211755,1,8,0:0:0:0:
201,103,212066,6,0,B|289:128|288:25|400:49,1,200,2|0,0:0|0:0,0:0:0:0:
458,114,212999,2,0,P|460:138|465:170,1,50,10|2,0:0|0:0,0:0:0:0:
426,197,213310,6,0,P|367:222|349:319,1,150,2|2,0:0|0:0,0:0:0:0:
376,336,213932,1,2,0:0:0:0:
176,341,214553,6,0,P|142:337|76:329,1,99.9999999999999,6|8,0:0|0:0,0:0:0:0:
39,362,215020,2,0,L|71:197,1,150,2|10,0:0|0:0,0:0:0:0:
7,134,215797,5,2,0:0:0:0:
64,51,216108,1,8,0:0:0:0:
160,25,216419,1,2,0:0:0:0:
242,81,216730,1,8,0:0:0:0:
339,103,217040,6,0,B|414:91|414:91|456:15,2,150,2|2|10,0:0|0:0|0:0,0:0:0:0:
271,177,218284,2,0,P|297:280|385:284,1,200,2|0,0:0|0:0,0:0:0:0:
430,375,219217,1,8,0:0:0:0:
330,381,219527,6,0,L|213:366,1,99.9999999999999,2|8,0:0|0:0,0:0:0:0:
181,378,219994,2,0,P|120:355|98:272,1,150,2|10,0:0|0:0,0:0:0:0:
42,194,220771,2,0,P|88:189|158:184,1,99.9999999999999,2|8,0:0|0:0,0:0:0:0:
161,139,221237,2,0,L|278:126,1,99.9999999999999,2|0,0:0|0:0,0:0:0:0:
291,167,221704,1,10,0:0:0:0:
371,107,222015,6,0,B|426:110|426:110|466:154,1,99.9999999999999,0|8,0:0|0:0,0:0:0:0:
498,233,222636,2,0,B|495:288|495:288|451:328,1,99.9999999999999,0|8,0:0|0:0,0:0:0:0:
375,384,223258,5,8,0:0:0:0:
339,290,223569,1,8,0:0:0:0:
307,195,223880,1,8,0:0:0:0:
271,101,224191,1,8,0:0:0:0:
185,49,224502,6,0,P|142:79|120:127,1,99.9999999999999,6|8,0:0|0:0,0:0:0:0:
74,138,224968,2,0,P|65:189|83:238,1,99.9999999999999,2|0,0:0|0:0,0:0:0:0:
62,280,225434,1,10,0:0:0:0:
149,328,225745,5,2,0:0:0:0:
248,315,226056,1,8,0:0:0:0:
271,217,226367,1,2,0:0:0:0:
369,201,226678,1,8,0:0:0:0:
437,273,226989,6,0,P|433:326|421:390,1,99.9999999999999,2|8,0:0|0:0,0:0:0:0:
371,367,227455,2,0,P|283:359|242:296,1,150,2|10,0:0|0:0,0:0:0:0:
151,285,228232,6,0,L|158:167,1,99.9999999999999,2|0,0:0|0:0,0:0:0:0:
81,119,228854,1,0,0:0:0:0:
173,80,229165,1,8,0:0:0:0:
249,144,229476,6,0,P|296:143|366:141,1,99.9999999999999,2|8,0:0|0:0,0:0:0:0:
394,119,229942,2,0,P|395:166|397:236,1,99.9999999999999,2|0,0:0|0:0,0:0:0:0:
437,247,230408,1,10,0:0:0:0:
407,342,230719,5,2,0:0:0:0:
306,340,231030,1,8,0:0:0:0:
206,337,231341,1,2,0:0:0:0:
106,333,231652,1,8,0:0:0:0:
65,241,231963,5,10,0:0:0:0:
165,245,232274,1,10,0:0:0:0:
265,248,232585,1,8,0:0:0:0:
366,250,232895,2,0,P|368:225|377:182,1,50,10|10,0:0|0:0,0:0:0:0:
414,172,233206,6,0,L|511:184,2,74.9999999999999,10|10|10,0:0|0:0|0:0,0:0:0:0:
398,124,233828,2,0,P|347:111|324:64,1,99.9999999999999,8|8,0:0|0:0,0:0:0:0:
230,38,234450,6,0,L|116:44,1,99.9999999999999,6|8,0:0|0:0,0:0:0:0:
83,23,234916,2,0,P|38:89|42:175,1,150,2|10,0:0|0:0,0:0:0:0:
133,181,235693,5,2,0:0:0:0:
163,276,236004,1,8,0:0:0:0:
68,307,236315,1,2,0:0:0:0:
35,212,236626,1,8,0:0:0:0:
133,181,236937,6,0,P|181:184|246:178,1,99.9999999999999,2|8,0:0|0:0,0:0:0:0:
257,136,237403,2,0,L|274:299,1,150,2|10,0:0|0:0,0:0:0:0:
362,329,238180,6,0,P|443:320|483:214,1,200,2|0,0:0|0:0,0:0:0:0:
454,123,239113,1,8,0:0:0:0:
356,145,239424,6,0,L|234:137,1,99.9999999999999,2|8,0:0|0:0,0:0:0:0:
227,97,239890,2,0,L|105:105,1,99.9999999999999,2|0,0:0|0:0,0:0:0:0:
92,66,240357,1,10,0:0:0:0:
20,135,240667,6,0,P|28:188|40:247,1,99.9999999999999,2|8,0:0|0:0,0:0:0:0:
83,253,241134,2,0,P|81:305|78:364,1,99.9999999999999,2|0,0:0|0:0,0:0:0:0:
124,373,241600,1,10,0:0:0:0:
223,360,241911,6,0,L|330:371,1,99.9999999999999,8|8,0:0|0:0,0:0:0:0:
402,309,242533,2,0,L|413:202,1,99.9999999999999,8|8,0:0|0:0,0:0:0:0:
354,127,243155,2,0,L|247:116,1,99.9999999999999,8|8,0:0|0:0,0:0:0:0:
175,177,243777,2,0,L|164:284,1,99.9999999999999,8|8,0:0|0:0,0:0:0:0:
289,249,244398,5,4,0:0:0:0:
256,192,244476,12,4,248206,0:0:0:0:
