osu file format v14

[General]
AudioFilename: audio.mp3
AudioLeadIn: 0
PreviewTime:90201
Countdown: 0
SampleSet: None
StackLeniency: 0.7
Mode: 0
LetterboxInBreaks: 0
WidescreenStoryboard: 1

[Editor]
Bookmarks: 10616,30512,40460,60357,70305,80253,90201,112585,122533,132481,142429,164813,184709,204605,224502,241600,244398
DistanceSpacing: 1
BeatDivisor: 4
GridSize: 4
TimelineZoom: 1.7

[Metadata]
Title:last moment
TitleUnicode:last moment
Artist:Yousei Teikoku
ArtistUnicode:妖精帝國
Creator:IsomirDiAngelo
Version:meiikyuu's insane
Source:舞-HiME 運命の系統樹
Tags:shirahane suou net0 luscent 404 aimnotfound shirohamymommy delis meiikyuu mai-hime mai hime unmei no keitouju original soundtrack ost ps2 japanese rock jrock j-rock video game anime mecha gothic lolita propaganda yui itsuki fairy empire das feenreich
BeatmapID:2612500
BeatmapSetID:1172342

[Difficulty]
HPDrainRate:5
CircleSize:4
OverallDifficulty:7
ApproachRate:9
SliderMultiplier:1.7
SliderTickRate:1

[Events]
//Background and Video events
0,0,"bglastmoment.jpg"
//Break Periods
2,112785,121933
//Storyboard Layer 0 (Background)
//Storyboard Layer 1 (Fail)
//Storyboard Layer 2 (Pass)
//Storyboard Layer 3 (Foreground)
//Storyboard Layer 4 (Overlay)
//Storyboard Sound Samples

[TimingPoints]
668,310.880829015544,4,1,1,80,1,0
668,-125,4,1,1,80,0,0
745,-125,4,2,1,50,0,0
5331,-125,4,1,1,80,0,0
5719,-125,4,2,1,50,0,0
10305,-125,4,1,1,80,0,0
10616,-111.111111111111,4,1,1,80,0,0
10771,-111.111111111111,4,2,2,80,0,0
15279,-111.111111111111,4,2,1,80,0,0
15745,-111.111111111111,4,2,2,80,0,0
20253,-111.111111111111,4,2,1,80,0,0
20719,-111.111111111111,4,2,2,80,0,0
25227,-111.111111111111,4,2,1,80,0,0
25693,-111.111111111111,4,2,2,80,0,0
29890,-111.111111111111,4,1,1,80,0,0
40460,-125,4,1,1,60,0,0
40616,-125,4,2,2,60,0,0
60046,-111.111111111111,4,2,1,60,0,0
60357,-111.111111111111,4,1,1,80,0,0
70305,-125,4,1,1,80,0,0
70460,-125,4,2,2,60,0,0
89269,-111.111111111111,4,2,2,60,0,0
89346,-111.111111111111,4,2,2,40,0,0
89579,-111.111111111111,4,2,2,60,0,0
89657,-111.111111111111,4,2,2,50,0,0
89890,-111.111111111111,4,2,2,60,0,0
90201,-100,4,1,2,80,0,0
111419,-100,4,1,2,50,0,0
111652,-100,4,1,2,80,0,0
111730,-100,4,1,2,60,0,0
111963,-100,4,1,2,80,0,0
112041,-100,4,1,2,70,0,0
112274,-100,4,1,1,80,0,0
112585,-111.111111111111,4,1,1,80,0,0
122688,-111.111111111111,4,2,2,80,0,0
131393,-125,4,2,2,80,0,0
132481,-111.111111111111,4,2,2,80,0,0
141186,-142.857142857143,4,2,2,80,0,0
141730,-111.111111111111,4,2,2,5,0,0
141807,-111.111111111111,4,2,2,80,0,0
142429,-100,4,1,2,80,0,0
163569,-100,4,1,2,60,0,0
163647,-100,4,1,2,30,0,0
163880,-100,4,1,2,60,0,0
163958,-100,4,1,2,40,0,0
164191,-100,4,1,2,60,0,0
164269,-100,4,1,2,50,0,0
164502,-100,4,1,2,60,0,0
164813,-111.111111111111,4,2,2,60,0,0
184709,-100,4,1,2,80,0,0
203362,-142.857142857143,4,1,1,80,0,0
204528,-111.111111111111,4,1,2,5,0,0
204605,-100,4,1,2,80,0,0
222092,-100,4,1,2,40,0,0
222326,-100,4,1,2,80,0,0
222403,-100,4,1,2,40,0,0
222636,-100,4,1,2,80,0,0
222714,-100,4,1,2,40,0,0
222947,-100,4,1,2,80,0,0
223025,-100,4,1,2,50,0,0
223258,-100,4,1,2,80,0,0
223336,-100,4,1,2,60,0,0
223569,-100,4,1,2,80,0,0
223647,-100,4,1,2,70,0,0
223880,-100,4,1,2,80,0,0
224191,-100,4,1,2,90,0,0
224502,-100,4,1,2,80,0,0
233206,-100,4,1,2,100,0,0
234450,-100,4,1,2,80,0,0
241989,-100,4,1,2,40,0,0
242222,-100,4,1,2,80,0,0
242300,-100,4,1,2,50,0,0
242533,-100,4,1,2,80,0,0
242611,-100,4,1,2,60,0,0
242844,-100,4,1,2,80,0,0
242921,-100,4,1,2,60,0,0
243155,-100,4,1,2,80,0,0
243232,-100,4,1,2,70,0,0
243465,-100,4,1,2,80,0,0
243776,-100,4,1,2,90,0,0
244087,-100,4,1,2,100,0,0
244398,-100,4,2,4,60,0,0
244476,-100,4,1,2,50,0,0
247973,-100,4,1,2,5,0,0
248129,-100,4,2,4,60,0,0
249372,-100,4,2,2,5,0,0

[Colours]
Combo1 : 65,171,68
Combo2 : 245,31,31
Combo3 : 220,207,44

[HitObjects]
64,160,668,6,0,L|70:304,1,136,4|0,3:1|0:0,0:0:0:0:
256,240,1289,2,0,L|264:104,1,136
421,339,1911,2,0,L|416:204,2,136
456,60,2844,2,0,P|452:100|440:132,1,68
336,296,3155,6,0,L|331:161,1,136
112,328,3776,2,0,B|180:344|180:344|260:336,1,136
68,116,4398,2,0,B|48:184|48:184|52:252,2,136
260,364,5331,2,0,L|264:292,1,68,0|0,3:0|0:0,0:0:0:0:
51,249,5642,6,0,B|99:241|144:268|203:257,1,136,4|0,3:1|0:0,0:0:0:0:
461,135,6263,2,0,B|413:143|368:116|309:127,1,136
80,44,6885,2,0,L|64:184,1,136
316,340,7507,2,0,L|300:204,1,136
444,60,8129,6,0,L|436:132,1,68
300,204,8440,2,0,L|307:136,1,68
184,200,8750,2,0,L|168:348,1,136
392,328,9372,1,0,0:0:0:0:
256,140,9683,1,0,0:0:0:0:
120,328,9994,1,0,0:0:0:0:
108,352,10305,2,0,P|152:356|196:348,1,68,0|0,3:0|0:0,0:0:0:0:
296,204,10616,6,0,L|292:288,1,76.4999976654053,6|0,3:1|0:0,0:0:0:0:
400,356,10927,2,0,P|448:352|480:336,1,76.4999976654053,0|0,3:1|0:0,0:0:0:0:
380,144,11237,2,0,L|376:228,1,76.4999976654053,2|0,3:1|0:1,0:0:0:0:
292,68,11548,1,0,3:0:0:0:
248,216,11704,1,0,0:0:0:0:
380,144,11859,2,0,P|344:144|300:160,1,76.4999976654053,2|0,3:1|0:0,0:0:0:0:
344,312,12170,2,0,P|400:312|460:276,1,114.749996498108,0|0,3:1|0:0,0:0:0:0:
472,260,12481,2,0,L|484:344,1,76.4999976654053,2|0,3:1|0:1,0:0:0:0:
352,112,12792,2,0,L|341:187,1,76.4999976654053,2|0,3:1|0:0,0:0:0:0:
192,320,13103,6,0,L|276:312,1,76.4999976654053,2|0,3:1|0:0,0:0:0:0:
124,156,13414,1,0,3:1:0:0:
136,256,13569,1,0,0:0:0:0:
256,160,13724,2,0,L|272:32,1,114.749996498108,2|0,3:1|0:0,0:0:0:0:
268,16,14035,2,0,P|316:44|348:48,1,76.4999976654053,0|0,3:0|0:0,0:0:0:0:
256,248,14346,2,0,P|212:236|172:240,1,76.4999976654053,2|0,3:1|0:0,0:0:0:0:
392,352,14657,2,0,P|392:276|424:200,1,152.999995330811,2|2,3:1|3:1,0:0:0:0:
268,352,15123,1,0,0:1:0:0:
268,352,15201,1,0,0:0:0:0:
268,352,15279,2,0,L|184:360,1,76.4999976654053,0|0,3:1|0:0,0:0:0:0:
32,240,15590,6,0,L|192:260,1,152.999995330811,6|0,3:1|3:1,0:0:0:0:
336,168,16056,1,0,0:0:0:0:
264,275,16212,2,0,L|268:359,1,76.4999976654053,2|0,3:1|0:1,0:0:0:0:
408,264,16522,2,0,P|420:220|416:184,1,76.4999976654053,0|0,3:0|0:0,0:0:0:0:
232,104,16833,2,0,P|220:148|224:184,1,76.4999976654053,2|0,3:1|0:0,0:0:0:0:
312,312,17144,2,0,P|368:296|436:304,1,114.749996498108,0|0,3:1|0:0,0:0:0:0:
444,324,17455,2,0,B|448:252|448:252|460:216|460:216|464:168,1,152.999995330811,2|2,3:1|3:1,0:0:0:0:
308,240,17921,1,0,0:0:0:0:
308,240,17999,1,0,0:0:0:0:
308,240,18077,6,0,L|304:160,1,76.4999976654053,2|0,3:1|0:0,0:0:0:0:
188,328,18388,2,0,L|164:252,1,76.4999976654053,0|0,3:1|0:0,0:0:0:0:
392,260,18699,2,0,P|372:304|264:312,1,152.999995330811,2|0,3:1|3:0,0:0:0:0:
388,156,19165,1,0,0:0:0:0:
220,184,19320,2,0,L|240:96,1,76.4999976654053,2|0,3:1|0:0,0:0:0:0:
352,272,19631,2,0,L|428:300,1,76.4999976654053,2|0,3:1|0:1,0:0:0:0:
192,296,19942,2,0,L|72:328,1,114.749996498108,2|0,3:1|0:0,0:0:0:0:
52,340,20253,2,0,P|48:284|40:248,1,76.4999976654053,0|0,3:1|0:0,0:0:0:0:
128,72,20564,6,0,P|124:136|152:224,1,152.999995330811,6|0,3:1|3:1,0:0:0:0:
267,307,21030,1,0,0:0:0:0:
349,220,21186,2,0,P|345:176|357:132,1,76.4999976654053,2|0,3:1|0:1,0:0:0:0:
203,59,21497,2,0,P|160:72|111:71,1,76.4999976654053,0|0,3:0|0:0,0:0:0:0:
264,212,21807,2,0,L|268:116,1,76.4999976654053,2|0,3:1|0:0,0:0:0:0:
440,308,22118,2,0,P|376:296|308:308,1,114.749996498108,0|0,3:1|0:0,0:0:0:0:
296,292,22429,2,0,P|288:336|296:372,1,76.4999976654053,2|0,3:1|0:1,0:0:0:0:
388,128,22740,2,0,P|396:172|388:208,1,76.4999976654053,2|0,3:1|0:0,0:0:0:0:
228,44,23051,6,0,L|312:56,1,76.4999976654053,2|0,3:1|0:0,0:0:0:0:
200,184,23362,2,0,L|184:264,1,76.4999976654053,0|0,3:1|0:0,0:0:0:0:
332,128,23673,2,0,L|456:144,1,114.749996498108,2|0,3:1|0:0,0:0:0:0:
472,128,23984,2,0,L|480:208,1,76.4999976654053,0|0,3:0|0:0,0:0:0:0:
360,332,24294,2,0,P|364:292|384:248,1,76.4999976654053,2|0,3:1|0:0,0:0:0:0:
308,120,24605,2,0,P|248:148|156:128,1,152.999995330811,2|2,3:1|3:1,0:0:0:0:
256,276,25072,1,0,0:1:0:0:
256,276,25149,1,0,0:0:0:0:
256,276,25227,2,0,L|252:356,1,76.4999976654053,2|0,3:1|0:0,0:0:0:0:
164,133,25538,6,0,L|156:53,1,76.4999976654053,6|0,3:1|0:0,0:0:0:0:
164,240,25849,1,0,3:1:0:0:
268,152,26004,1,0,0:0:0:0:
368,244,26160,2,0,L|360:324,1,76.4999976654053,2|0,3:1|0:1,0:1:0:0:
164,240,26471,2,0,L|172:320,1,76.4999976654053,0|0,3:0|0:0,0:0:0:0:
360,320,26781,2,0,P|440:312|504:352,1,152.999995330811,2|0,3:1|3:1,0:0:0:0:
264,352,27248,1,0,0:1:0:0:
332,240,27403,2,0,P|336:196|336:156,1,76.4999976654053,2|0,3:1|0:1,0:0:0:0:
200,80,27714,2,0,P|196:124|196:164,1,76.4999976654053,2|0,3:1|0:0,0:0:0:0:
412,64,28025,6,0,B|368:24|308:48|308:48|268:32,1,152.999995330811,2|0,3:1|3:1,0:0:0:0:
424,148,28491,1,0,0:0:0:0:
424,148,28569,1,0,0:0:0:0:
424,148,28647,2,0,P|464:136|492:100,1,76.4999976654053,2|0,3:1|0:1,0:0:0:0:
344,244,28958,2,0,P|380:265|425:260,1,76.4999976654053,0|0,3:0|0:0,0:0:0:0:
224,220,29269,2,0,P|220:276|252:348,1,114.749996498108,2|0,3:1|0:0,0:0:0:0:
260,352,29579,2,0,L|180:376,1,76.4999976654053,2|0,3:1|0:1,0:0:0:0:
40,260,29890,5,2,3:1:0:0:
144,280,30046,1,0,3:1:0:0:
188,176,30201,2,0,L|196:52,1,114.749996498108,0|0,3:1|2:0,2:0:0:0:
208,28,30512,6,0,L|284:36,1,76.4999976654053,6|0,3:1|0:0,0:0:0:0:
356,160,30823,1,0,0:0:0:0:
384,60,30978,1,0,0:0:0:0:
260,168,31134,2,0,P|256:216|260:252,1,76.4999976654053,2|0,0:0|0:0,0:0:0:0:
356,325,31445,2,0,P|399:328|435:320,1,76.4999976654053
418,128,31756,2,0,B|381:172|381:172|369:212|369:212|332:255,1,152.999995330811,2|0,0:0|0:0,0:0:0:0:
177,204,32222,1,0,0:0:0:0:
177,204,32300,1,0,0:0:0:0:
177,204,32377,2,0,P|181:245|178:289,1,76.4999976654053,2|2,0:0|0:0,0:0:0:0:
103,345,32688,2,0,L|15:357,1,76.4999976654053,2|2,0:0|0:0,0:0:0:0:
250,146,32999,6,0,P|263:203|262:305,1,152.999995330811,2|0,0:0|0:0,0:0:0:0:
180,352,33465,1,0,0:0:0:0:
359,332,33621,2,0,P|357:255|372:180,1,152.999995330811,2|0,0:0|0:0,0:0:0:0:
443,289,34087,1,0,0:0:0:0:
256,264,34243,2,0,P|207:268|175:267,1,76.4999976654053,2|0,0:0|0:0,0:0:0:0:
52,160,34554,2,0,P|136:156|212:176,1,152.999995330811,0|2,0:0|0:0,0:0:0:0:
344,264,35020,1,2,0:0:0:0:
344,264,35098,1,0,0:0:0:0:
344,264,35175,2,0,P|388:260|432:244,1,76.4999976654053,2|0,3:1|0:0,0:0:0:0:
296,80,35486,6,0,L|288:160,1,76.4999976654053,6|0,3:1|0:0,0:0:0:0:
236,352,35797,2,0,P|224:296|192:232,1,114.749996498108,0|0,0:0|2:0,0:0:0:0:
200,204,36108,2,0,P|160:212|116:212,1,76.4999976654053,2|0,0:0|0:0,0:0:0:0:
312,288,36419,2,0,P|352:280|396:280,1,76.4999976654053
192,127,36730,2,0,L|200:211,1,76.4999976654053,2|0,0:0|0:0,0:0:0:0:
328,152,37041,2,0,L|336:24,1,114.749996498108,0|0,0:0|2:0,0:0:0:0:
360,64,37351,2,0,L|436:80,1,76.4999976654053,2|2,0:0|0:0,0:0:0:0:
274,218,37662,2,0,L|198:202,1,76.4999976654053,2|2,0:0|0:0,0:0:0:0:
312,296,37973,5,2,0:0:0:0:
388,172,38129,1,0,0:0:0:0:
404,296,38284,1,0,0:0:0:0:
312,144,38440,1,0,0:0:0:0:
220,296,38595,2,0,B|160:284|160:284|124:264|124:264|72:252,1,152.999995330811,2|0,0:0|0:0,0:0:0:0:
144,360,39061,1,0,0:0:0:0:
184,200,39217,6,0,L|192:120,1,76.4999976654053,14|0,0:0|0:0,0:0:0:0:
280,240,39528,1,0,0:0:0:0:
124,52,39683,2,0,L|104:208,1,152.999995330811,12|0,0:0|0:0,0:0:0:0:
60,352,40149,2,0,L|104:340,3,38.2499988327027,8|0|0|0,3:1|0:0|0:0|0:0,0:0:0:0:
128,308,40460,6,0,P|184:328|260:332,2,136,6|10|2,3:2|0:0|0:0,0:0:0:0:
250,264,41237,1,0,3:0:0:0:
250,264,41393,2,0,P|258:304|258:348,1,68,8|0,0:0|0:0,0:0:0:0:
328,180,41704,2,0,P|328:136|336:104,2,68,2|0|8,3:2|0:0|0:0,0:0:0:0:
344,316,42170,2,0,P|396:300|480:320,1,136,2|0,0:0|3:0,0:0:0:0:
440,136,42636,1,8,0:0:0:0:
436,224,42792,1,0,0:0:0:0:
352,152,42947,6,0,B|364:88|364:88|356:8,1,136,2|8,3:2|0:0,0:0:0:0:
288,240,43414,1,0,0:0:0:0:
288,240,43569,2,0,L|360:256,1,68,2|0,0:0|3:0,0:0:0:0:
452,96,43880,2,0,L|436:168,1,68,8|0,0:0|0:0,0:0:0:0:
312,328,44191,2,0,P|384:336|452:356,1,136,2|8,3:2|0:0,0:0:0:0:
212,360,44657,2,0,L|204:220,1,136,0|8,0:0|3:0,0:0:0:0:
136,328,45123,1,8,3:0:0:0:
280,236,45279,1,8,3:0:0:0:
120,244,45434,6,0,P|124:208|144:164,1,68,2|0,3:2|0:0,0:0:0:0:
220,40,45745,2,0,P|244:84|252:172,1,136,10|2,0:0|0:0,0:0:0:0:
208,264,46212,1,0,3:0:0:0:
344,172,46367,2,0,P|384:156|412:152,1,68,8|0,0:0|0:0,0:0:0:0:
464,284,46678,2,0,P|432:268|408:244,2,68,2|0|8,3:2|0:0|0:0,0:0:0:0:
480,176,47144,2,0,L|488:40,1,136,2|0,0:0|3:0,0:0:0:0:
372,168,47611,1,8,0:0:0:0:
364,256,47766,1,0,0:0:0:0:
356,344,47921,6,0,L|216:336,1,136,2|8,3:2|0:0,0:0:0:0:
104,252,48388,2,0,L|176:256,2,68,2|0|0,0:0|0:0|3:0,0:0:0:0:
256,216,48854,2,0,P|268:184|272:136,1,68,10|0,0:0|0:0,0:0:0:0:
364,120,49165,1,2,3:2:0:0:
320,268,49320,1,0,0:0:0:0:
420,184,49476,1,8,0:0:0:0:
256,216,49631,2,0,P|216:204|112:208,1,136,0|8,0:0|3:0,0:0:0:0:
168,284,50098,1,8,3:0:0:0:
224,132,50253,1,8,3:0:0:0:
256,292,50408,6,0,P|296:304|400:300,2,136,2|10|2,3:2|0:0|0:0,0:0:0:0:
360,220,51186,1,0,3:0:0:0:
380,132,51341,2,0,L|396:64,1,68,8|0,0:0|0:0,0:0:0:0:
448,228,51652,2,0,L|460:300,2,68,2|0|8,3:2|0:0|0:0,0:0:0:0:
324,348,52118,2,0,P|336:280|332:212,1,136,2|0,0:0|3:0,0:0:0:0:
224,312,52585,2,0,B|188:304|188:304|164:316|164:316|120:308,1,102,8|0,0:0|0:0,0:0:0:0:
100,288,52895,6,0,L|80:364,1,68,2|0,3:2|0:0,0:0:0:0:
176,212,53206,2,0,L|152:76,1,136,8|2,0:0|0:0,0:0:0:0:
248,136,53673,1,0,3:0:0:0:
80,196,53828,2,0,P|80:236|72:268,1,68,8|0,0:0|0:0,0:0:0:0:
204,304,54139,2,0,P|252:284|344:292,1,136,2|8,3:2|0:0,0:0:0:0:
432,344,54605,1,0,0:0:0:0:
432,344,54761,2,0,P|448:304|452:268,1,68,0|8,0:0|3:0,0:0:0:0:
372,188,55072,2,0,P|356:148|352:112,1,68,8|8,3:0|3:0,0:0:0:0:
232,32,55383,6,0,L|228:112,1,68,2|0,3:2|0:0,0:0:0:0:
216,252,55693,1,10,0:0:0:0:
260,176,55849,1,0,0:0:0:0:
312,248,56004,2,0,P|324:296|324:320,1,68,2|0,0:2|3:0,0:0:0:0:
188,340,56315,2,0,P|148:332|104:332,1,68,8|0,0:0|0:0,0:0:0:0:
89,190,56626,2,0,P|91:151|86:114,2,68,2|0|8,3:2|0:0|0:0,0:0:0:0:
169,253,57092,2,0,P|248:244|309:259,1,136,2|8,0:0|3:0,0:0:0:0:
370,341,57559,1,8,3:0:0:0:
370,341,57870,5,2,3:2:0:0:
357,183,58025,1,0,0:0:0:0:
284,295,58180,1,8,0:0:0:0:
437,267,58336,2,0,B|449:229|440:199|440:199|449:122,1,136,2|0,0:0|3:0,0:0:0:0:
336,39,58802,2,0,L|344:108,1,68,10|0,0:0|3:0,0:0:0:0:
217,237,59113,2,0,L|357:208,1,136,2|8,3:2|0:0,0:0:0:0:
303,306,59579,1,0,0:0:0:0:
224,152,59735,2,0,L|149:170,1,68,0|0,3:0|0:0,0:0:0:0:
316,92,60046,2,0,L|320:8,1,76.4999976654053,8|8,3:0|3:0,0:0:0:0:
136,200,60357,6,0,B|144:284|144:284|192:344,1,152.999995330811,6|8,3:1|0:0,0:0:0:0:
256,268,60823,1,0,0:0:0:0:
376,200,60978,2,0,B|368:284|368:284|325:337,1,152.999995330811,2|8,0:0|0:0,0:0:0:0:
448,132,61445,1,0,0:0:0:0:
460,232,61600,2,0,L|464:312,1,76.4999976654053,2|0,0:0|0:0,0:0:0:0:
296,200,61911,2,0,L|299:123,1,76.4999976654053,8|0,0:0|0:0,0:0:0:0:
152,260,62222,2,0,L|156:340,1,76.4999976654053,2|2,0:0|0:0,0:0:0:0:
296,200,62533,2,0,P|266:176|244:146,1,76.4999976654053,10|2,0:0|0:0,0:0:0:0:
264,352,62844,6,0,P|320:328|424:344,1,152.999995330811,2|8,0:0|0:0,0:0:0:0:
416,156,63310,1,0,0:0:0:0:
496,216,63465,2,0,L|492:300,1,76.4999976654053,2|0,0:0|0:0,0:0:0:0:
312,184,63776,2,0,L|315:107,1,76.4999976654053,8|0,0:0|0:0,0:0:0:0:
228,312,64087,2,0,P|296:336|380:320,2,152.999995330811,2|8|2,0:0|0:0|0:0,0:0:0:0:
212,152,64864,1,2,0:0:0:0:
212,152,64942,1,0,0:0:0:0:
212,152,65020,2,0,P|212:196|204:236,1,76.4999976654053,10|0,3:1|0:0,0:0:0:0:
392,236,65331,6,0,P|400:192|416:160,1,76.4999976654053,6|0,3:1|0:0,0:0:0:0:
292,52,65642,2,0,L|212:60,1,76.4999976654053,8|0,0:0|0:0,0:0:0:0:
315,243,65952,2,0,L|391:235,1,76.4999976654053,2|0,0:0|0:0,0:0:0:0:
144,132,66263,2,0,L|152:260,1,114.749996498108,8|0,0:0|2:0,0:0:0:0:
172,280,66574,2,0,P|128:288|96:308,1,76.4999976654053,2|0,0:0|0:0,0:0:0:0:
288,344,66885,2,0,P|332:336|364:316,1,76.4999976654053,8|0,0:0|0:0,0:0:0:0:
236,124,67196,2,0,L|232:208,1,76.4999976654053,2|2,0:0|0:0,0:0:0:0:
384,244,67507,2,0,L|456:280,1,76.4999976654053,10|2,0:0|0:0,0:0:0:0:
320,136,67818,5,2,0:0:0:0:
300,260,67973,1,0,0:0:0:0:
432,168,68129,2,0,L|440:88,1,76.4999976654053,8|0,0:0|0:0,0:0:0:0:
232,224,68440,2,0,P|176:228|112:256,1,114.749996498108,2|0,0:0|2:0,0:0:0:0:
92,272,68750,2,0,P|80:224|60:196,1,76.4999976654053,8|0,0:0|0:0,0:0:0:0:
216,52,69061,5,14,0:0:0:0:
244,180,69217,1,0,0:0:0:0:
138,84,69372,1,0,0:0:0:0:
160,200,69528,1,8,0:0:0:0:
160,200,69838,5,0,0:0:0:0:
296,56,69994,2,0,L|340:60,3,38.2499988327027,8|0|0|0,3:1|0:0|0:0|0:0,0:0:0:0:
348,89,70305,6,0,P|408:83|491:90,1,136,6|10,3:2|0:0,0:0:0:0:
409,170,70771,1,0,0:0:0:0:
491,252,70927,2,0,P|448:262|411:263,2,68,2|0|8,0:0|3:0|0:0,0:0:0:0:
295,185,71393,1,0,0:0:0:0:
295,185,71471,1,0,0:0:0:0:
295,185,71548,2,0,P|302:230|304:262,1,68,2|0,3:2|0:0,0:0:0:0:
215,325,71859,1,8,0:0:0:0:
100,303,72015,2,0,P|91:237|100:166,1,136,2|0,0:0|3:0,0:0:0:0:
188,52,72481,1,8,0:0:0:0:
180,172,72636,1,0,0:0:0:0:
296,24,72792,6,0,B|284:96|284:96|296:172,1,136,2|8,3:2|0:0,0:0:0:0:
400,316,73258,1,0,0:0:0:0:
400,316,73414,2,0,L|412:236,1,68,2|0,0:0|3:0,0:0:0:0:
316,272,73724,1,8,0:0:0:0:
352,148,73880,1,0,0:0:0:0:
212,164,74035,2,0,B|220:236|220:236|212:308,1,136,2|8,3:2|0:0,0:0:0:0:
300,344,74502,1,0,0:0:0:0:
288,204,74657,1,2,0:0:0:0:
144,244,74813,2,0,L|136:320,2,68,8|8|8,3:0|3:0|3:0,0:0:0:0:
68,88,75279,6,0,P|120:116|204:112,1,136,2|10,3:2|0:0,0:0:0:0:
256,192,75745,1,0,0:0:0:0:
388,92,75901,2,0,P|348:72|312:72,1,68,2|0,0:0|3:0,0:0:0:0:
343,255,76212,2,0,P|348:221|348:188,1,68,8|0,0:0|0:0,0:0:0:0:
176,232,76522,2,0,P|170:265|171:299,2,68,2|0|8,3:2|0:0|0:0,0:0:0:0:
304,360,76989,2,0,P|352:340|448:344,1,136,2|0,0:0|3:0,0:0:0:0:
444,236,77455,1,8,0:0:0:0:
308,280,77611,1,0,0:0:0:0:
380,184,77766,6,0,P|388:128|372:40,1,136,2|8,3:2|0:0,0:0:0:0:
255,240,78232,2,0,P|287:272|311:280,1,68,2|0,0:0|0:0,0:0:0:0:
216,116,78543,1,0,3:0:0:0:
136,208,78699,2,0,P|128:248|132:280,1,68,10|0,0:0|0:0,0:0:0:0:
312,336,79009,2,0,P|304:276|320:200,1,136,2|8,3:2|0:0,0:0:0:0:
408,324,79476,1,0,0:0:0:0:
408,324,79554,1,0,0:0:0:0:
408,324,79631,1,0,0:0:0:0:
220,304,79787,2,0,L|148:320,2,68,8|8|8,3:0|3:0|3:0,0:0:0:0:
284,80,80253,6,0,L|272:228,1,136,6|2,3:2|0:2,0:0:0:0:
408,352,80719,1,0,0:0:0:0:
408,352,80875,2,0,P|344:324|268:320,1,136,10|0,0:2|0:0,0:0:0:0:
124,332,81341,1,0,0:0:0:0:
172,236,81497,2,0,P|180:188|180:156,2,68,2|0|0,0:0|0:0|0:0,0:0:0:0:
208,352,81963,1,2,0:0:0:0:
284,232,82118,2,0,P|276:176|300:96,1,136,8|0,0:0|0:0,0:0:0:0:
328,316,82585,1,0,0:0:0:0:
328,316,82740,6,0,P|384:276|468:276,1,136,2|0,3:2|0:0,0:0:0:0:
192,268,83206,1,0,0:0:0:0:
192,268,83362,2,0,P|136:308|52:308,1,136,10|0,0:0|0:0,0:0:0:0:
80,96,83828,1,0,0:0:0:0:
80,96,83984,2,0,B|92:164|92:164|84:240,1,136,2|0,0:0|0:0,0:0:0:0:
196,176,84450,1,0,0:0:0:0:
292,284,84605,2,0,L|284:216,1,68,8|8,0:0|3:0,0:0:0:0:
360,80,84916,2,0,L|352:147,1,68,8|8,3:0|3:0,0:0:0:0:
404,336,85227,6,0,L|420:264,1,68,4|0,3:1|0:0,0:0:0:0:
460,144,85538,2,0,L|448:64,1,68,0|0,3:0|0:0,0:0:0:0:
264,172,85849,2,0,L|332:176,1,68,8|0,0:0|0:0,0:0:0:0:
168,68,86160,2,0,P|160:112|160:152,1,68,0|0,3:0|0:0,0:0:0:0:
256,256,86471,1,0,3:0:0:0:
224,364,86626,1,0,0:0:0:0:
176,224,86781,1,0,3:0:0:0:
304,328,86937,2,0,B|348:312|412:344|456:328,1,136
448,224,87403,2,0,P|444:184|448:148,1,68,0|0,3:0|0:0,0:0:0:0:
304,328,87714,6,0,P|316:256|304:180,1,136,0|0,3:0|3:0,0:0:0:0:
416,56,88180,1,0,0:0:0:0:
416,56,88258,1,0,0:0:0:0:
416,56,88336,2,0,P|360:64|328:64,1,68,8|0,0:0|0:0,0:0:0:0:
188,132,88647,2,0,P|240:152|300:152,1,102,0|0,3:0|0:0,0:0:0:0:
320,148,88958,6,0,L|312:196,3,34,8|8|8|8,0:0|0:0|0:0|0:0,0:0:0:0:
348,200,89269,2,0,L|356:248,3,38.2499988327027,8|8|8|8,0:0|0:0|0:0|0:0,0:0:0:0:
402,137,89579,6,0,L|375:96,3,38.2499988327027,8|8|8|8,0:0|0:0|0:0|0:0,0:0:0:0:
379,66,89890,2,8,L|335:43,3,38.2499988327027
312,112,90201,6,0,B|299:202|299:202|308:231|308:231|296:294,1,170,6|8,0:0|0:0,0:0:0:0:
396,150,90668,1,2,0:0:0:0:
396,150,90745,1,0,0:0:0:0:
396,150,90823,2,0,L|410:52,1,85
220,246,91134,2,0,P|168:254|124:246,1,85,10|0,0:0|0:0,0:0:0:0:
208,46,91445,2,0,L|222:144,1,85,2|0,0:0|0:0,0:0:0:0:
64,276,91756,2,0,P|68:224|76:184,1,85,8|0,0:0|0:0,0:0:0:0:
292,208,92066,2,0,P|296:252|292:292,1,85,2|0,0:0|0:0,0:0:0:0:
96,342,92377,2,0,P|160:334|236:346,1,127.5,8|0,0:0|2:0,0:0:0:0:
220,298,92688,6,0,P|212:254|208:206,1,85,2|0,0:0|0:0,0:0:0:0:
300,82,92999,1,8,0:0:0:0:
352,218,93155,1,2,0:0:0:0:
216,122,93310,2,0,P|172:106|128:102,1,85
364,134,93621,2,0,P|412:138|452:126,1,85,10|0,0:0|0:0,0:0:0:0:
248,298,93932,2,0,P|256:238|284:162,1,127.5,2|0,0:0|2:0,0:0:0:0:
312,198,94243,1,8,0:0:0:0:
168,214,94398,1,0,0:0:0:0:
264,334,94554,2,0,P|212:334|172:342,1,85
48,278,94864,1,8,0:0:0:0:
60,242,94942,1,8,0:0:0:0:
64,202,95020,1,8,0:0:0:0:
60,162,95098,1,8,0:0:0:0:
48,126,95175,6,0,P|96:134|140:126,1,85,2|0,0:0|0:0,0:0:0:0:
296,38,95486,2,0,P|216:18|128:54,1,170,8|0,0:0|0:0,0:0:0:0:
300,206,95952,1,0,0:0:0:0:
300,206,96030,1,0,0:0:0:0:
300,206,96108,2,0,P|308:150|304:118,1,85,10|0,0:0|0:0,0:0:0:0:
132,128,96419,2,0,P|124:208|144:296,1,170,2|8,0:0|0:0,0:0:0:0:
248,322,96885,1,0,0:0:0:0:
48,342,97041,2,0,P|56:290|52:254,1,85,2|0,0:0|0:0,0:0:0:0:
132,128,97351,2,0,P|176:136|216:132,1,85,8|0,0:0|0:0,0:0:0:0:
328,32,97662,6,0,L|336:172,1,127.5,10|0,0:0|2:0,0:0:0:0:
328,200,97973,2,0,P|380:200|416:212,1,85,8|0,0:0|0:0,0:0:0:0:
208,328,98284,2,0,L|220:240,1,85,8|0,0:0|0:0,0:0:0:0:
200,112,98595,1,10,0:0:0:0:
132,244,98750,1,2,0:0:0:0:
300,284,98906,2,0,B|368:296|368:296|432:336,2,127.5,2|2|2,0:1|0:1|0:1,0:0:0:0:
464,248,99528,2,0,P|472:200|472:156,1,85,2|2,0:0|0:2,0:0:0:0:
284,208,99838,1,10,0:2:0:0:
284,208,99916,1,2,0:2:0:0:
284,208,99994,1,2,0:2:0:0:
284,208,100072,1,2,0:2:0:0:
284,208,100149,6,0,P|276:148|280:108,1,85,6|0,0:0|0:0,0:0:0:0:
464,56,100460,2,0,B|424:84|424:84|352:100|312:40,1,170,8|0,0:0|0:0,0:0:0:0:
184,168,100927,1,0,0:0:0:0:
372,180,101082,2,0,L|360:272,1,85,10|0,0:0|0:0,0:0:0:0:
176,288,101393,2,0,P|220:288|260:304,1,85,2|0,0:0|0:0,0:0:0:0:
424,352,101704,2,0,P|464:312|448:240,1,127.5,8|0,0:0|2:0,0:0:0:0:
468,208,102015,2,0,L|452:112,1,85,2|0,0:0|0:0,0:0:0:0:
364,24,102326,1,8,0:0:0:0:
312,176,102481,1,0,0:0:0:0:
152,92,102636,6,0,B|204:76|264:112|320:96,1,170,2|8,0:0|0:0,0:0:0:0:
444,120,103103,1,2,0:0:0:0:
444,120,103180,1,0,0:0:0:0:
444,120,103258,2,0,L|436:208,1,85
312,324,103569,2,0,L|319:239,1,85,10|0,0:0|0:0,0:0:0:0:
404,288,103880,1,2,0:0:0:0:
316,148,104035,1,0,0:0:0:0:
220,272,104191,1,8,0:0:0:0:
316,148,104346,1,0,0:0:0:0:
404,288,104502,2,0,L|411:203,1,85
220,272,104813,2,0,P|168:264|128:268,1,85,8|0,0:0|0:0,0:0:0:0:
64,140,105123,6,0,B|48:220|48:220|60:312,1,170,2|8,0:0|0:0,0:0:0:0:
256,348,105590,2,0,B|267:260|267:260|251:180,1,170,2|0,0:0|0:0,0:0:0:0:
60,308,106056,2,0,L|144:296,1,85,10|0,0:0|0:0,0:0:0:0:
360,308,106367,2,0,P|288:308|208:372,1,170,2|8,0:0|0:0,0:0:0:0:
360,200,106833,1,2,0:0:0:0:
240,96,106989,2,0,L|228:184,1,85
116,232,107300,2,0,L|140:324,1,85,10|0,0:0|0:0,0:0:0:0:
272,344,107611,5,2,0:0:0:0:
287,221,107766,1,0,0:0:0:0:
409,236,107921,1,8,0:0:0:0:
394,359,108077,1,0,0:0:0:0:
356,178,108232,2,0,L|368:86,1,85
208,248,108543,2,0,P|204:196|212:156,1,85,8|0,0:0|0:0,0:0:0:0:
376,316,108854,2,0,P|336:344|292:356,1,85
328,176,109165,2,0,L|500:208,1,170,8|2,0:0|0:2,0:0:0:0:
457,296,109631,1,2,0:2:0:0:
457,296,109709,1,2,0:2:0:0:
457,296,109787,1,10,0:2:0:0:
436,120,109942,1,2,0:2:0:0:
328,176,110098,6,0,P|328:228|332:264,1,85
236,336,110408,1,8,0:0:0:0:
224,200,110564,1,0,0:0:0:0:
136,300,110719,2,0,P|112:224|140:128,1,170,0|8,0:0|0:0,0:0:0:0:
232,56,111186,1,0,0:0:0:0:
344,120,111341,6,0,L|332:168,3,42.5,8|8|8|8,0:0|0:0|0:0|0:0,0:0:0:0:
292,172,111652,2,0,L|304:224,3,42.5,8|8|8|8,0:0|0:0|0:0|0:0,0:0:0:0:
332,240,111963,1,8,0:0:0:0:
329,252,112040,1,8,0:0:0:0:
327,265,112118,1,8,0:0:0:0:
325,277,112196,1,8,0:0:0:0:
322,290,112273,1,8,3:1:0:0:
320,302,112351,1,8,0:0:0:0:
318,315,112429,1,8,0:0:0:0:
316,328,112507,1,8,0:0:0:0:
315,340,112585,1,4,3:2:0:0:
153,143,122533,6,0,L|160:225,1,76.4999976654053,6|0,3:2|0:0,0:0:0:0:
312,192,122844,2,0,L|298:274,1,76.4999976654053,10|0,0:0|0:0,0:0:0:0:
139,314,123155,2,0,P|172:351|275:341,1,152.999995330811,2|8,0:0|0:0,0:0:0:0:
371,275,123621,1,0,0:0:0:0:
334,108,123776,2,0,L|253:113,2,76.4999976654053,2|0|8,3:2|0:0|0:0,0:0:0:0:
436,212,124243,2,0,B|420:140|420:140|424:60,1,152.999995330811,2|0,0:0|3:0,0:0:0:0:
296,28,124709,2,0,L|216:20,1,76.4999976654053,8|0,0:0|0:0,0:0:0:0:
96,144,125020,6,0,P|168:128|260:136,1,152.999995330811,2|8,3:2|0:0,0:0:0:0:
256,248,125486,1,0,0:0:0:0:
368,312,125642,2,0,P|388:268|392:224,2,76.4999976654053,2|0|8,0:0|3:0|0:0,0:0:0:0:
256,288,126108,1,0,0:0:0:0:
144,312,126263,2,0,P|124:268|120:224,1,76.4999976654053,2|0,3:2|0:0,0:0:0:0:
256,116,126574,2,0,L|256:196,1,76.4999976654053,8|0,0:0|0:0,0:0:0:0:
216,352,126885,2,0,P|268:336|376:344,1,152.999995330811,2|8,0:0|3:0,0:0:0:0:
328,224,127351,1,8,3:0:0:0:
160,276,127507,6,0,L|168:196,1,76.4999976654053,2|0,3:2|0:0,0:0:0:0:
328,224,127818,2,0,L|320:144,1,76.4999976654053,10|0,0:0|0:0,0:0:0:0:
140,120,128129,2,0,P|156:72|160:36,1,76.4999976654053,2|0,0:0|3:0,0:0:0:0:
296,72,128440,1,8,0:0:0:0:
200,184,128595,1,0,0:0:0:0:
356,144,128750,2,0,L|432:164,2,76.4999976654053,2|0|8,3:2|0:0|0:0,0:0:0:0:
369,287,129217,2,0,P|417:251|425:151,1,152.999995330811,2|0,0:0|3:0,0:0:0:0:
232,180,129683,2,0,P|272:192|304:216,1,76.4999976654053,8|0,0:0|0:0,0:0:0:0:
120,272,129994,6,0,P|116:212|144:104,1,152.999995330811,2|8,0:0|0:0,0:0:0:0:
332,56,130460,2,0,P|350:129|347:206,1,152.999995330811,2|0,0:0|3:0,0:0:0:0:
200,280,130927,1,10,0:0:0:0:
336,312,131082,1,0,0:0:0:0:
236,176,131237,2,0,P|232:132|240:88,2,76.4999976654053,2|0|8,0:0|0:0|0:0,0:0:0:0:
360,264,131704,2,0,L|436:260,1,68
464,356,132015,1,8,3:0:0:0:
436,208,132170,1,8,3:0:0:0:
464,356,132326,1,8,3:0:0:0:
336,232,132481,6,0,P|264:240|180:224,1,152.999995330811,6|2,3:2|3:2,0:0:0:0:
332,80,132947,1,0,0:0:0:0:
332,80,133025,1,0,0:0:0:0:
332,80,133103,2,0,P|344:124|348:172,1,76.4999976654053,2|0,3:2|3:0,0:0:0:0:
176,148,133414,2,0,P|181:110|191:73,1,76.4999976654053,0|0,3:0|0:0,0:0:0:0:
296,240,133724,2,0,P|248:240|204:228,1,76.4999976654053,2|0,3:2|0:0,0:0:0:0:
436,160,134035,2,0,P|428:204|428:240,1,76.4999976654053,0|2,3:0|0:2,0:0:0:0:
228,309,134346,2,0,P|227:270|219:233,1,76.4999976654053,0|0,3:0|0:0,0:0:0:0:
300,72,134657,1,0,3:0:0:0:
312,180,134813,1,0,0:0:0:0:
328,284,134968,6,0,L|404:300,1,76.4999976654053,2|0,3:2|0:0,0:0:0:0:
212,188,135279,2,0,L|140:216,1,76.4999976654053,0|0,3:0|0:0,0:0:0:0:
404,152,135590,2,0,L|420:68,1,76.4999976654053,2|0,3:2|3:0,0:0:0:0:
172,40,135901,2,0,L|186:115,1,76.4999976654053,0|0,3:0|0:0,0:0:0:0:
256,260,136212,1,2,3:2:0:0:
304,152,136367,1,0,0:0:0:0:
368,292,136522,1,0,3:0:0:0:
428,200,136678,1,0,0:0:0:0:
304,152,136833,2,0,P|304:96|336:44,1,114.749996498108,2|0,3:2|0:0,0:0:0:0:
336,20,137144,2,0,P|380:36|424:44,1,76.4999976654053,0|0,3:0|0:0,0:0:0:0:
284,240,137455,6,0,P|240:224|196:216,1,76.4999976654053,2|0,3:2|0:0,0:0:0:0:
328,328,137766,1,2,3:2:0:0:
400,224,137921,1,0,0:0:0:0:
464,332,138077,1,2,3:2:0:0:
324,248,138232,1,0,0:0:0:0:
440,112,138388,2,0,P|404:132|352:140,1,76.4999976654053,0|0,3:0|0:0,0:0:0:0:
252,36,138699,2,0,L|256:120,2,76.4999976654053,2|0|0,3:2|0:0|3:0,0:0:0:0:
140,160,139165,2,0,P|160:220|164:312,1,152.999995330811,2|0,0:2|0:0,0:0:0:0:
320,348,139631,2,0,P|320:304|332:272,1,76.4999976654053,0|0,3:0|0:0,0:0:0:0:
376,84,139942,6,0,P|384:124|376:176,1,76.4999976654053,2|0,3:2|0:0,0:0:0:0:
220,184,140253,2,0,L|304:196,1,76.4999976654053,0|2,3:0|0:2,0:0:0:0:
480,248,140564,2,0,L|404:237,1,76.4999976654053,0|0,3:0|0:0,0:0:0:0:
225,108,140875,2,0,P|225:152|217:192,1,76.4999976654053,2|0,3:2|0:0,0:0:0:0:
116,328,141186,6,0,L|296:332,1,178.499994552612,2|0,3:2|0:0,0:0:0:0:
324,348,141807,6,0,L|316:304,3,38.2499988327027,2|0|0|0,0:2|0:0|0:0|0:0,0:0:0:0:
388,264,142118,2,0,L|388:308,3,38.2499988327027,2|2|2|2,0:2|0:2|0:2|0:2,0:0:0:0:
456,224,142429,6,0,B|440:140|440:140|464:44,1,170,6|8,0:0|0:0,0:0:0:0:
336,28,142895,1,2,0:0:0:0:
336,28,142973,1,0,0:0:0:0:
336,28,143051,2,0,P|340:80|336:120,1,85
168,192,143362,2,0,P|165:149|169:107,1,85,10|0,0:0|0:0,0:0:0:0:
256,284,143673,2,0,P|336:304|420:260,1,170,2|8,0:0|0:0,0:0:0:0:
292,104,144139,1,0,0:0:0:0:
426,185,144294,2,0,P|422:237|410:273,1,85,2|0,0:0|0:0,0:0:0:0:
208,312,144605,2,0,L|224:224,1,85,8|0,0:0|0:0,0:0:0:0:
360,120,144916,6,0,L|184:136,1,170,2|8,0:0|0:0,0:0:0:0:
68,208,145383,2,0,P|64:160|72:124,1,85,2|0,0:0|0:0,0:0:0:0:
140,320,145693,1,0,0:0:0:0:
280,276,145849,2,0,P|328:276|380:288,1,85,8|0,0:0|0:0,0:0:0:0:
204,184,146160,1,2,0:0:0:0:
250,40,146315,1,0,0:0:0:0:
297,184,146471,1,8,0:0:0:0:
175,95,146626,1,0,0:0:0:0:
326,95,146781,2,0,P|372:88|416:88,1,85
184,220,147092,2,0,P|228:228|280:224,1,85,8|0,0:0|0:0,0:0:0:0:
56,116,147403,6,0,P|128:100|224:104,1,170,2|8,0:0|0:0,0:0:0:0:
348,188,147870,1,2,0:0:0:0:
224,308,148025,2,0,P|236:256|248:224,1,85
424,256,148336,2,0,P|436:304|440:344,1,85,10|0,0:0|0:0,0:0:0:0:
288,152,148647,2,0,P|296:104|296:68,1,85,2|0,0:0|0:0,0:0:0:0:
424,172,148958,1,8,0:0:0:0:
336,276,149113,1,0,0:0:0:0:
408,96,149269,2,0,P|456:100|488:124,1,85,2|0,0:0|0:0,0:0:0:0:
336,276,149579,2,0,P|284:260|188:260,1,127.5,10|0,0:0|2:0,0:0:0:0:
184,272,149890,6,0,L|168:184,1,85,10|0,0:0|0:0,0:0:0:0:
296,64,150201,1,8,0:0:0:0:
284,180,150357,1,0,0:0:0:0:
304,320,150512,2,0,P|356:320|404:304,1,85,8|0,0:0|0:0,0:0:0:0:
196,336,150823,1,10,0:0:0:0:
172,220,150978,1,2,0:0:0:0:
148,104,151134,6,0,B|100:64|100:64|28:44,2,127.5,2|2|2,0:0|0:0|0:0,0:0:0:0:
84,260,151756,2,0,L|92:172,1,85,2|2,0:0|0:2,0:0:0:0:
268,224,152066,1,10,0:2:0:0:
266,236,152143,1,2,0:2:0:0:
264,249,152221,1,2,0:2:0:0:
262,261,152299,1,2,0:2:0:0:
260,272,152377,6,0,L|252:356,1,85,6|0,0:0|0:0,0:0:0:0:
32,296,152688,2,0,P|108:296|160:376,1,170,8|0,0:0|0:0,0:0:0:0:
176,192,153155,1,0,0:0:0:0:
332,272,153310,2,0,P|320:224|320:188,1,85,10|0,0:0|0:0,0:0:0:0:
464,108,153621,2,0,L|376:124,1,85,2|0,0:0|0:0,0:0:0:0:
180,32,153932,2,0,P|240:40|300:96,1,127.5,8|0,0:0|2:0,0:0:0:0:
272,104,154243,2,0,L|220:184,1,85,2|0,0:0|0:0,0:0:0:0:
384,228,154554,2,0,L|404:316,1,85,8|0,0:0|0:0,0:0:0:0:
203,343,154864,6,0,L|227:163,1,170,2|8,0:0|0:0,0:0:0:0:
308,296,155331,1,2,0:0:0:0:
308,296,155408,1,0,0:0:0:0:
308,296,155486,1,0,0:0:0:0:
136,268,155642,1,0,0:0:0:0:
152,132,155797,2,0,P|156:80|152:48,1,85,10|0,0:0|0:0,0:0:0:0:
332,132,156108,6,0,P|327:174|331:216,1,85,2|0,0:0|0:0,0:0:0:0:
420,288,156419,1,8,0:0:0:0:
408,164,156574,1,0,0:0:0:0:
252,232,156730,2,0,P|204:228|152:232,1,85
340,344,157041,2,0,P|388:340|440:344,1,85,8|0,0:0|0:0,0:0:0:0:
272,156,157351,6,0,P|244:232|256:324,1,170,2|8,0:0|0:0,0:0:0:0:
372,228,157818,1,2,0:0:0:0:
372,228,157895,1,0,0:0:0:0:
372,228,157973,2,0,L|460:240,1,85
280,80,158284,2,0,L|195:68,1,85,10|0,0:0|0:0,0:0:0:0:
100,240,158595,2,0,B|88:152|88:152|120:68,1,170,2|8,0:0|0:0,0:0:0:0:
280,188,159061,1,2,0:0:0:0:
280,188,159217,2,0,B|292:100|292:100|263:24,1,170,0|10,0:0|0:0,0:0:0:0:
184,140,159683,1,0,0:0:0:0:
364,164,159838,1,6,0:0:0:0:
256,192,159916,12,6,164813,3:2:0:0:
312,300,165279,5,0,0:0:0:0:
312,300,165434,2,0,P|392:288|460:332,1,152.999995330811,10|0,0:2|0:0,0:0:0:0:
228,188,165901,1,0,0:0:0:0:
228,188,166056,2,0,L|212:344,1,152.999995330811,2|0,0:0|0:0,0:0:0:0:
344,128,166522,1,0,0:0:0:0:
344,128,166678,2,0,L|356:212,1,76.4999976654053,10|0,0:0|0:0,0:0:0:0:
460,32,166989,2,0,L|456:116,1,76.4999976654053
204,93,167300,6,0,P|280:89|348:133,1,152.999995330811,2|0,0:0|0:0,0:0:0:0:
320,296,167766,1,0,0:0:0:0:
320,296,167921,2,0,P|244:300|176:256,1,152.999995330811,8|0,0:0|0:0,0:0:0:0:
144,168,168388,1,0,0:0:0:0:
334,202,168543,2,0,P|346:158|342:122,1,76.4999976654053,0|2,0:0|0:0,0:0:0:0:
153,93,168854,2,0,P|141:137|145:173,1,76.4999976654053,2|2,0:0|0:0,0:0:0:0:
244,48,169165,1,8,0:0:0:0:
256,160,169320,1,0,0:0:0:0:
268,272,169476,2,0,L|276:352,1,76.4999976654053
424,212,169787,6,0,L|348:236,1,76.4999976654053,2|0,0:0|0:0,0:0:0:0:
184,308,170098,2,0,L|24:268,2,152.999995330811,0|8|2,0:0|0:0|0:0,0:0:0:0:
352,320,170875,1,2,0:0:0:0:
460,264,171030,2,0,P|464:216|456:176,1,76.4999976654053,2|0,0:0|0:0,0:0:0:0:
312,156,171341,2,0,P|308:108|316:68,1,76.4999976654053,2|0,0:0|0:0,0:0:0:0:
192,272,171652,2,0,P|172:232|168:116,1,152.999995330811,10|2,0:0|0:0,0:0:0:0:
296,300,172118,1,0,0:0:0:0:
296,300,172274,6,0,P|332:274|390:173,1,152.999995330811,2|0,0:0|0:0,0:0:0:0:
296,68,172740,1,2,0:0:0:0:
296,68,172895,2,0,L|276:144,1,76.4999976654053,10|2,0:0|0:0,0:0:0:0:
428,260,173206,2,0,L|412:184,1,76.4999976654053,2|0,0:0|0:0,0:0:0:0:
264,264,173517,2,0,L|244:340,1,76.4999976654053,2|0,0:0|0:0,0:0:0:0:
400,348,173828,2,0,L|488:332,1,76.4999976654053
288,184,174139,2,0,L|212:170,1,76.4999976654053,10|0,0:0|0:0,0:0:0:0:
88,304,174450,2,0,L|72:252,3,38.2499988327027
92,244,174761,6,0,P|76:176|84:84,1,152.999995330811,6|0,0:0|0:0,0:0:0:0:
240,124,175227,1,0,0:0:0:0:
240,124,175383,2,0,L|148:152,1,76.4999976654053,8|2,0:0|0:0,0:0:0:0:
316,264,175693,2,0,P|332:196|324:104,2,152.999995330811,2|2|2,0:0|0:0|0:0,0:0:0:0:
412,208,176471,1,0,0:0:0:0:
224,260,176626,2,0,L|232:348,1,76.4999976654053,10|2,0:0|0:0,0:0:0:0:
136,136,176937,2,0,L|112:212,1,76.4999976654053,2|2,0:0|0:0,0:0:0:0:
280,64,177248,6,0,L|304:140,2,76.4999976654053,2|0|0,0:0|0:0|0:0,0:0:0:0:
204,184,177714,1,0,0:0:0:0:
400,88,177870,2,0,P|404:144|400:176,1,76.4999976654053,8|0,0:0|0:0,0:0:0:0:
280,272,178180,2,0,P|320:272|360:280,2,76.4999976654053,2|2|2,0:0|0:0|0:0,0:0:0:0:
196,200,178647,1,2,0:0:0:0:
364,127,178802,2,0,P|368:187|352:291,1,152.999995330811,2|10,0:0|0:0,0:0:0:0:
220,320,179269,1,0,0:0:0:0:
220,320,179346,1,0,0:0:0:0:
220,320,179424,2,0,L|144:312,1,76.4999976654053
40,192,179735,6,0,L|204:172,1,152.999995330811,2|0,0:0|0:0,0:0:0:0:
176,76,180201,1,2,0:0:0:0:
144,264,180357,2,0,L|136:344,1,76.4999976654053,10|2,0:0|0:0,0:0:0:0:
308,316,180667,2,0,L|292:240,1,76.4999976654053,2|2,0:0|0:0,0:0:0:0:
424,168,180978,2,0,L|460:240,1,76.4999976654053,2|2,0:0|0:0,0:0:0:0:
272,132,181289,2,0,P|280:88|296:56,1,76.4999976654053,2|0,0:0|0:0,0:0:0:0:
272,284,181600,2,0,P|200:296|148:292,1,114.749996498108,10|0,0:0|0:0,0:0:0:0:
136,308,181911,2,0,L|104:232,1,76.4999976654053,2|0,0:0|0:0,0:0:0:0:
236,64,182222,6,0,B|244:140|244:140|228:220,1,152.999995330811,2|0,0:0|0:0,0:0:0:0:
116,152,182688,1,2,0:0:0:0:
232,292,182844,2,0,P|276:284|312:264,1,76.4999976654053,10|2,0:0|0:0,0:0:0:0:
376,132,183155,2,0,P|420:140|456:160,1,76.4999976654053,2|2,0:0|0:0,0:0:0:0:
444,320,183465,5,2,3:2:0:0:
444,320,183621,1,2,3:2:0:0:
228,256,183932,1,0,3:0:0:0:
260,364,184087,2,0,L|336:352,1,76.4999976654053,0|0,3:0|3:0,0:0:0:0:
132,304,184398,1,8,3:2:0:0:
132,304,184476,1,8,3:2:0:0:
132,304,184554,1,8,3:2:0:0:
132,304,184631,1,8,3:2:0:0:
132,304,184709,6,0,L|120:124,1,170,6|8,0:0|0:0,0:0:0:0:
36,216,185175,1,0,0:0:0:0:
212,260,185331,2,0,L|300:256,1,85
340,88,185642,2,0,L|255:91,1,85,8|0,0:0|0:0,0:0:0:0:
408,204,185952,2,0,P|412:248|408:292,1,85,2|0,0:0|0:0,0:0:0:0:
404,320,186186,1,0,0:0:0:0:
388,344,186263,2,0,L|292:364,1,85,8|0,0:0|0:0,0:0:0:0:
148,272,186574,2,0,P|152:320|160:360,1,85,2|2,0:0|0:0,0:0:0:0:
268,240,186885,1,10,0:2:0:0:
292,112,187041,1,2,0:2:0:0:
416,112,187196,6,0,P|424:160|424:204,1,85,2|0,0:0|0:0,0:0:0:0:
360,336,187507,2,0,L|448:312,1,85,8|2,0:0|0:0,0:0:0:0:
268,240,187818,2,0,L|185:262,1,85,2|0,0:0|0:0,0:0:0:0:
64,328,188129,2,0,B|80:248|80:248|76:156,1,170,8|2,0:0|0:0,0:0:0:0:
200,56,188595,1,0,0:0:0:0:
200,56,188673,1,0,0:0:0:0:
200,56,188750,2,0,P|184:108|180:144,1,85,8|0,0:0|0:0,0:0:0:0:
296,264,189061,2,0,P|309:304|315:346,1,85,2|2,0:0|0:0,0:0:0:0:
180,328,189372,1,10,0:0:0:0:
232,188,189528,1,0,0:0:0:0:
80,224,189683,6,0,B|132:212|172:268|252:264,1,170,2|10,0:0|0:0,0:0:0:0:
416,176,190149,1,2,0:0:0:0:
312,228,190305,2,0,L|320:320,1,85,2|2,0:0|0:0,0:0:0:0:
472,200,190616,2,0,L|464:115,1,85,10|2,0:0|0:0,0:0:0:0:
304,40,190927,2,0,L|312:125,1,85
319,312,191237,2,0,P|268:302|182:316,1,127.5,10|0,0:0|2:0,0:0:0:0:
182,339,191548,1,0,0:0:0:0:
160,212,191704,1,2,0:0:0:0:
297,185,191859,1,8,0:0:0:0:
319,312,192015,1,0,0:0:0:0:
128,264,192170,6,0,P|136:220|136:176,1,85,2|2,0:0|0:0,0:0:0:0:
292,24,192481,2,0,P|284:68|284:112,1,85,10|2,0:0|0:0,0:0:0:0:
176,72,192792,1,2,0:0:0:0:
240,204,192947,1,0,0:0:0:0:
384,112,193103,2,0,B|372:176|372:176|376:216|376:216|372:252,1,127.5,10|0,0:0|2:0,0:0:0:0:
400,252,193414,1,2,0:0:0:0:
256,304,193569,2,0,P|204:308|168:320,1,85,2|10,0:0|0:0,0:0:0:0:
400,252,193880,2,0,B|448:256|448:256|480:232|464:180|464:180|480:144,1,170,2|2,0:0|0:0,0:0:0:0:
384,40,194346,1,10,0:2:0:0:
384,40,194424,1,2,0:2:0:0:
384,40,194502,1,2,0:0:0:0:
384,40,194579,1,0,0:0:0:0:
384,40,194657,6,0,L|376:128,1,85,6|0,0:0|0:0,0:0:0:0:
290,247,194968,2,0,B|302:163|302:163|336:128|382:123,1,170,8|0,0:0|0:0,0:0:0:0:
210,274,195434,1,2,0:0:0:0:
210,274,195512,1,0,0:0:0:0:
210,274,195590,2,0,P|254:254|310:246,1,85,10|2,0:0|0:0,0:0:0:0:
208,96,195901,2,0,P|256:100|296:116,2,85,2|2|0,0:0|0:0|0:0,0:0:0:0:
408,188,196367,2,0,L|424:96,1,85,0|2,0:0|0:0,0:0:0:0:
288,216,196678,1,2,0:0:0:0:
480,236,196833,2,0,L|488:320,1,85,8|2,0:0|0:0,0:0:0:0:
279,300,197144,6,0,L|287:216,1,85,2|0,0:0|0:0,0:0:0:0:
356,52,197455,1,8,0:0:0:0:
276,140,197611,1,2,0:0:0:0:
208,40,197766,1,2,0:0:0:0:
132,196,197921,1,0,0:0:0:0:
132,196,197999,1,0,0:0:0:0:
132,196,198077,2,0,L|216:188,1,85,8|2,0:0|0:2,0:0:0:0:
28,96,198388,2,0,L|116:68,1,85,2|2,0:0|0:2,0:0:0:0:
52,240,198699,2,0,P|48:288|32:328,1,85,10|2,0:0|0:2,0:0:0:0:
176,260,199009,1,2,0:0:0:0:
160,364,199165,1,2,0:0:0:0:
292,232,199320,1,10,0:0:0:0:
308,335,199476,1,2,0:0:0:0:
476,280,199631,6,0,P|416:280|368:292,1,85,2|2,0:0|0:0,0:0:0:0:
448,100,199942,2,0,L|440:188,1,85,8|2,0:0|0:0,0:0:0:0:
200,192,200253,2,0,P|248:220|372:204,1,170,2|10,0:0|0:0,0:0:0:0:
292,72,200719,1,2,0:0:0:0:
200,192,200875,2,0,P|188:240|188:280,1,85,0|2,0:0|0:0,0:0:0:0:
346,295,201186,2,0,P|358:247|358:207,1,85,10|2,0:0|0:0,0:0:0:0:
156,348,201497,2,0,L|64:356,1,85,0|2,0:0|0:0,0:0:0:0:
346,295,201807,2,0,L|440:308,1,85,10|2,0:0|0:0,0:0:0:0:
172,248,202118,6,0,L|88:236,1,85
296,188,202429,1,8,0:0:0:0:
268,336,202585,1,0,0:0:0:0:
376,216,202740,1,0,0:0:0:0:
208,216,202895,1,0,0:0:0:0:
208,216,202973,1,0,0:0:0:0:
208,216,203051,2,0,P|212:156|208:128,1,85,10|2,0:2|0:2,0:0:0:0:
394,38,203362,6,0,L|374:230,1,178.499994552612,6|0,3:1|0:0,0:0:0:0:
288,344,203984,2,0,L|328:336,3,29.7499990921021
360,316,204294,2,0,L|404:328,3,29.7499990921021
428,352,204605,6,0,P|456:304|464:180,1,170,6|8,0:0|0:0,0:0:0:0:
332,84,205072,2,0,P|295:159|293:244,1,170,2|0,0:0|0:0,0:0:0:0:
468,192,205538,2,0,L|372:200,1,85,10|0,0:0|0:0,0:0:0:0:
208,344,205849,2,0,L|220:256,1,85,2|0,0:0|0:0,0:0:0:0:
356,72,206160,2,0,L|368:164,1,85,8|0,0:0|0:0,0:0:0:0:
220,260,206471,2,0,P|160:244|84:252,1,127.5,2|0,0:0|0:0,0:0:0:0:
72,284,206781,1,8,0:0:0:0:
148,160,206937,1,0,0:0:0:0:
192,336,207092,6,0,P|232:344|284:332,1,85,2|0,0:0|0:0,0:0:0:0:
360,152,207403,2,0,P|356:200|364:240,1,85,8|2,0:0|0:0,0:0:0:0:
160,192,207714,2,0,P|164:144|156:104,1,85
284,260,208025,1,10,0:0:0:0:
288,112,208180,1,0,0:0:0:0:
180,280,208336,2,0,B|172:324|172:324|180:364,1,85,2|0,0:0|0:0,0:0:0:0:
372,208,208647,2,0,B|380:252|380:252|372:292,1,85,8|0,0:0|0:0,0:0:0:0:
192,172,208958,1,0,0:0:0:0:
320,144,209113,1,0,0:0:0:0:
452,48,209269,2,0,L|440:140,1,85,8|0,0:0|0:0,0:0:0:0:
464,258,209579,6,0,P|416:250|372:258,1,85,2|0,0:0|0:0,0:0:0:0:
216,346,209890,2,0,P|296:366|384:330,1,170,8|0,0:0|0:0,0:0:0:0:
212,178,210356,1,0,0:0:0:0:
212,178,210434,1,0,0:0:0:0:
212,178,210512,2,0,P|204:234|208:266,1,85,10|0,0:0|0:0,0:0:0:0:
380,256,210823,2,0,P|388:176|368:88,1,170,2|8,0:0|0:0,0:0:0:0:
264,62,211289,1,0,0:0:0:0:
464,42,211445,2,0,P|456:94|460:130,1,85,2|0,0:0|0:0,0:0:0:0:
380,256,211755,2,0,P|336:248|296:252,1,85,8|0,0:0|0:0,0:0:0:0:
184,352,212066,6,0,L|176:212,1,127.5,10|0,0:0|2:0,0:0:0:0:
184,184,212377,2,0,P|132:184|96:172,1,85,8|0,0:0|0:0,0:0:0:0:
304,56,212688,2,0,L|292:144,1,85,8|0,0:0|0:0,0:0:0:0:
312,272,212999,1,10,0:0:0:0:
380,140,213154,1,2,0:0:0:0:
212,100,213310,2,0,B|144:88|144:88|80:48,2,127.5,2|2|2,0:0|0:0|0:0,0:0:0:0:
48,136,213932,2,0,P|40:184|40:228,1,85,2|2,0:0|0:2,0:0:0:0:
228,176,214242,1,2,0:2:0:0:
228,176,214320,1,2,0:2:0:0:
228,176,214398,1,2,0:2:0:0:
228,176,214476,1,2,0:2:0:0:
228,176,214553,6,0,P|236:236|232:276,1,85,6|0,0:0|0:0,0:0:0:0:
48,328,214864,2,0,B|88:300|88:300|160:284|200:344,1,170,8|0,0:0|0:0,0:0:0:0:
328,216,215331,1,0,0:0:0:0:
140,204,215486,2,0,L|152:112,1,85,10|0,0:0|0:0,0:0:0:0:
336,96,215797,2,0,P|292:96|252:80,1,85,2|0,0:0|0:0,0:0:0:0:
88,32,216108,2,0,P|48:72|64:144,1,127.5,8|0,0:0|2:0,0:0:0:0:
44,176,216419,2,0,L|60:272,1,85,2|0,0:0|0:0,0:0:0:0:
148,360,216730,1,8,0:0:0:0:
200,208,216885,1,0,0:0:0:0:
360,292,217040,6,0,B|308:308|248:272|192:288,1,170,2|8,0:0|0:0,0:0:0:0:
68,264,217507,1,2,0:0:0:0:
68,264,217584,1,0,0:0:0:0:
68,264,217662,2,0,L|76:176,1,85
200,60,217973,2,0,L|193:145,1,85,10|0,0:0|0:0,0:0:0:0:
108,96,218284,1,2,0:0:0:0:
196,236,218439,1,0,0:0:0:0:
292,112,218595,1,8,0:0:0:0:
196,236,218750,1,0,0:0:0:0:
108,96,218906,2,0,L|101:181,1,85
292,112,219217,2,0,P|344:120|384:116,1,85,8|0,0:0|0:0,0:0:0:0:
452,264,219528,6,0,P|376:244|280:264,1,170,2|8,0:0|0:0,0:0:0:0:
152,344,219994,1,2,0:0:0:0:
152,344,220072,1,0,0:0:0:0:
152,344,220149,2,0,P|160:296|160:256,1,85
112,60,220460,2,0,P|104:108|104:148,1,85,10|0,0:0|0:0,0:0:0:0:
232,224,220771,2,0,P|280:252|400:228,1,170,2|8,0:0|0:0,0:0:0:0:
432,88,221237,2,0,P|355:54|274:75,1,170,2|0,0:0|0:0,0:0:0:0:
368,216,221704,2,0,P|380:264|372:312,1,85,10|0,0:0|0:0,0:0:0:0:
240,344,222015,5,0,0:0:0:0:
225,221,222170,1,0,0:0:0:0:
103,236,222325,1,8,0:0:0:0:
118,359,222481,1,0,0:0:0:0:
156,178,222636,2,0,L|144:86,1,85
304,248,222947,2,0,P|308:196|300:156,1,85,8|0,0:0|0:0,0:0:0:0:
136,316,223258,2,0,P|176:344|220:356,1,85,8|8,0:0|0:0,0:0:0:0:
184,176,223569,2,0,L|12:208,1,170,8|8,0:0|0:0,0:0:0:0:
55,296,224035,1,8,0:0:0:0:
55,296,224113,1,8,0:0:0:0:
55,296,224191,1,8,0:0:0:0:
76,120,224346,1,8,0:0:0:0:
184,176,224502,6,0,P|184:228|180:264,1,85,6|0,0:0|0:0,0:0:0:0:
276,336,224812,1,8,0:0:0:0:
288,200,224968,1,2,0:0:0:0:
376,300,225123,2,0,P|400:224|372:128,1,170,0|10,0:0|0:0,0:0:0:0:
280,56,225590,1,0,0:0:0:0:
168,120,225745,6,0,L|180:168,3,42.5,2|0|0|0,0:0|0:0|0:0|0:0,0:0:0:0:
196,184,226056,2,0,P|148:184|104:192,1,85,8|0,0:0|0:0,0:0:0:0:
256,284,226367,2,0,P|328:300|424:272,1,170,2|8,0:0|0:0,0:0:0:0:
328,84,226833,1,0,0:0:0:0:
328,84,226989,2,0,L|316:172,1,85,2|0,0:0|0:0,0:0:0:0:
152,180,227300,2,0,L|172:268,1,85,8|2,0:0|0:0,0:0:0:0:
408,248,227611,2,0,L|392:336,1,85
196,348,227921,2,0,L|284:336,1,85,10|0,0:0|0:0,0:0:0:0:
364,108,228232,2,0,L|348:196,1,85,2|0,0:0|0:0,0:0:0:0:
260,244,228543,1,8,0:0:0:0:
412,244,228699,1,0,0:0:0:0:
260,244,228854,2,0,L|276:336,1,85
444,160,229165,2,0,L|458:76,1,85,8|0,0:0|0:0,0:0:0:0:
272,152,229476,6,0,B|224:176|224:176|156:176|128:120,1,170,2|8,0:0|0:0,0:0:0:0:
368,48,229942,1,2,0:0:0:0:
368,48,230020,1,0,0:0:0:0:
368,48,230098,2,0,P|376:96|368:136,1,85
232,280,230408,2,0,P|276:264|324:264,1,85,10|0,0:0|0:0,0:0:0:0:
468,140,230719,2,0,P|476:188|468:228,1,85,2|0,0:0|0:0,0:0:0:0:
384,328,231030,1,8,0:0:0:0:
364,204,231186,1,0,0:0:0:0:
232,200,231341,2,0,P|228:268|196:336,1,127.5,2|0,0:0|0:0,0:0:0:0:
200,364,231652,2,0,P|156:344|112:344,1,85,8|0,0:0|0:0,0:0:0:0:
316,216,231963,6,0,P|360:236|404:236,1,85,10|2,0:0|0:0,0:0:0:0:
220,60,232274,2,0,P|184:128|188:232,1,170,10|8,0:0|0:0,0:0:0:0:
88,124,232740,1,0,0:0:0:0:
104,272,232895,2,0,L|192:260,1,85,10|10,0:0|0:0,0:0:0:0:
361,126,233206,2,0,L|350:212,1,85,10|0,0:0|0:0,0:0:0:0:
307,219,233440,2,0,B|320:284|320:284|308:355,1,127.5,10|10,0:0|0:0,0:0:0:0:
436,352,233828,2,0,L|448:308,3,42.5,8|8|8|8,0:0|0:0|0:0|0:0,0:0:0:0:
440,284,234139,1,8,0:0:0:0:
432,256,234217,1,8,0:0:0:0:
424,228,234294,1,8,0:0:0:0:
416,200,234372,1,8,0:0:0:0:
408,172,234450,6,0,P|416:124|416:72,1,85,6|0,0:0|0:0,0:0:0:0:
244,172,234761,2,0,P|245:214|252:256,1,85,8|2,0:0|0:0,0:0:0:0:
352,44,235072,2,0,P|304:48|256:60,1,85
80,160,235383,2,0,P|128:156|176:144,1,85,10|0,0:0|0:0,0:0:0:0:
292,276,235693,2,0,P|296:224|280:136,1,127.5,2|0,0:0|2:0,0:0:0:0:
248,172,236004,1,8,0:0:0:0:
376,232,236160,1,0,0:0:0:0:
212,296,236315,2,0,P|164:304|124:320,1,85,2|0,0:0|0:0,0:0:0:0:
360,336,236626,2,0,P|408:344|448:360,1,85,8|0,0:0|0:0,0:0:0:0:
130,316,236937,6,0,B|96:280|84:244|100:196|100:196|144:176,1,170,2|8,0:0|0:0,0:0:0:0:
256,344,237403,1,2,0:0:0:0:
382,316,237559,2,0,B|416:280|428:244|412:196|412:196|368:176,1,170,0|10,0:0|0:0,0:0:0:0:
240,56,238025,1,0,0:0:0:0:
240,56,238103,1,0,0:0:0:0:
240,56,238180,2,0,L|216:148,1,85,2|0,0:0|0:0,0:0:0:0:
304,224,238491,1,8,0:0:0:0:
220,308,238647,1,0,0:0:0:0:
348,356,238802,2,0,L|440:348,1,85
216,232,239113,2,0,L|124:240,1,85,8|0,0:0|0:0,0:0:0:0:
392,108,239424,6,0,B|384:160|384:160|392:220|392:220|380:284,1,170,2|8,0:0|0:0,0:0:0:0:
296,136,239890,1,2,0:0:0:0:
296,136,239968,1,0,0:0:0:0:
296,136,240046,2,0,L|284:44,1,85
381,275,240357,2,0,L|293:299,1,85,10|0,0:0|0:0,0:0:0:0:
188,112,240667,2,0,B|248:124|248:124|284:144|284:144|364:156,1,170,2|8,0:0|0:0,0:0:0:0:
232,216,241134,1,2,0:0:0:0:
88,56,241289,2,0,P|84:108|88:148,2,85,0|0|10,0:0|0:0|0:0,0:0:0:0:
220,28,241756,1,0,0:0:0:0:
172,156,241911,6,0,B|156:196|160:236|160:236|140:280|140:280|140:324,1,170,8|8,0:0|0:0,0:0:0:0:
256,152,242377,1,8,0:0:0:0:
340,156,242533,2,0,B|356:196|352:236|352:236|372:280|372:280|372:324,1,170,8|8,0:0|0:0,0:0:0:0:
256,184,242999,1,8,0:0:0:0:
256,292,243155,5,8,0:0:0:0:
256,308,243232,1,8,0:0:0:0:
256,324,243310,1,8,0:0:0:0:
364,224,243465,1,8,0:0:0:0:
256,340,243621,1,8,0:0:0:0:
144,220,243776,6,0,L|133:174,3,42.5,8|8|8|8,0:0|0:0|0:0|0:0,0:0:0:0:
157,147,244087,2,0,L|111:111,3,42.5,8|8|8|8,0:0|0:0|0:0|0:0,0:0:0:0:
105,79,244398,1,4,0:0:0:0:
256,192,244476,12,4,248206,0:0:0:0:
256,192,248284,12,0,249372,0:0:0:0:
