osu file format v14

[General]
AudioFilename: audio.mp3
AudioLeadIn: 0
PreviewTime: 90201
Countdown: 0
SampleSet: Normal
StackLeniency: 0.6
Mode: 0
LetterboxInBreaks: 0
WidescreenStoryboard: 0

[Editor]
Bookmarks: 10616,30512,40460,60357,70305,80253,90201,112585,122533,132481,142429,164813,184709,204605,224502,244398
DistanceSpacing: 1
BeatDivisor: 4
GridSize: 32
TimelineZoom: 1.7

[Metadata]
Title:last moment
TitleUnicode:last moment
Artist:Yousei Teikoku
ArtistUnicode:妖精帝國
Creator:IsomirDiAngelo
Version:extreme
Source:舞-HiME 運命の系統樹
Tags:shirahane suou net0 luscent 404 aimnotfound shirohamymommy delis meiikyuu mai-hime mai hime unmei no keitouju original soundtrack ost ps2 japanese rock jrock j-rock video game anime mecha gothic lolita propaganda yui itsuki fairy empire das feenreich
BeatmapID:2445272
BeatmapSetID:1172342

[Difficulty]
HPDrainRate:7
CircleSize:4
OverallDifficulty:9
ApproachRate:9.4
SliderMultiplier:1.8
SliderTickRate:1

[Events]
//Background and Video events
0,0,"bglastmoment.jpg",0,0
//Break Periods
//Storyboard Layer 0 (Background)
//Storyboard Layer 1 (Fail)
//Storyboard Layer 2 (Pass)
//Storyboard Layer 3 (Foreground)
//Storyboard Layer 4 (Overlay)
//Storyboard Sound Samples

[TimingPoints]
668,310.880829015544,4,1,1,80,1,0
745,-100,4,1,1,50,0,0
5331,-100,4,1,1,80,0,0
5719,-100,4,1,1,50,0,0
10305,-100,4,1,1,80,0,0
10771,-100,4,2,2,80,0,0
15279,-100,4,2,1,80,0,0
15745,-100,4,2,2,80,0,0
20253,-100,4,2,1,80,0,0
20719,-100,4,2,2,80,0,0
25227,-100,4,2,1,80,0,0
25693,-100,4,2,2,80,0,0
29890,-100,4,1,1,80,0,0
30201,-100,4,1,1,80,0,0
30512,-83.3333333333333,4,1,1,80,0,0
40460,-125,4,1,1,60,0,0
40616,-125,4,2,2,60,0,0
60046,-125,4,2,1,60,0,0
60357,-83.3333333333333,4,1,1,80,0,0
70305,-125,4,1,1,80,0,0
70460,-125,4,2,2,60,0,0
80253,-100,4,2,2,60,0,0
80331,-100,4,2,2,30,0,0
82740,-100,4,2,2,60,0,0
82818,-100,4,2,2,30,0,0
84605,-100,4,2,2,60,0,0
88958,-100,4,2,2,60,0,0
89035,-100,4,2,2,30,0,0
89269,-100,4,2,2,60,0,0
89346,-100,4,2,2,40,0,0
89579,-90.9090909090909,4,2,2,60,0,0
89657,-90.9090909090909,4,2,2,50,0,0
89890,-90.9090909090909,4,2,2,60,0,0
90201,-83.3333333333333,4,1,2,80,0,0
111341,-83.3333333333333,4,1,2,80,0,0
111419,-83.3333333333333,4,1,2,50,0,0
111652,-83.3333333333333,4,1,2,80,0,0
111730,-83.3333333333333,4,1,2,60,0,0
111963,-83.3333333333333,4,1,2,80,0,0
112041,-83.3333333333333,4,1,2,70,0,0
112274,-83.3333333333333,4,1,1,80,0,0
112585,-83.3333333333333,4,1,1,80,0,0
122533,-125,4,1,1,80,0,0
122688,-125,4,2,2,60,0,0
132481,-100,4,2,2,70,0,0
141186,-166.666666666667,4,2,2,80,0,0
141730,-166.666666666667,4,2,2,5,0,0
141807,-100,4,2,2,80,0,0
142429,-76.9230769230769,4,1,2,80,0,0
163569,-76.9230769230769,4,1,2,60,0,0
163647,-76.9230769230769,4,1,2,30,0,0
163880,-76.9230769230769,4,1,2,60,0,0
163958,-76.9230769230769,4,1,2,40,0,0
164191,-76.9230769230769,4,1,2,60,0,0
164269,-76.9230769230769,4,1,2,50,0,0
164502,-76.9230769230769,4,1,2,60,0,0
164813,-100,4,2,2,60,0,0
184709,-83.3333333333333,4,1,2,80,0,0
190771,-71.4285714285714,4,1,2,80,0,0
194657,-83.3333333333333,4,1,2,80,0,0
203362,-100,4,1,1,80,0,0
204528,-100,4,1,2,5,0,0
204605,-76.9230769230769,4,1,2,80,0,0
222015,-76.9230769230769,4,1,2,80,0,0
222092,-76.9230769230769,4,1,2,40,0,0
222326,-76.9230769230769,4,1,2,80,0,0
222403,-76.9230769230769,4,1,2,40,0,0
222636,-76.9230769230769,4,1,2,80,0,0
222714,-76.9230769230769,4,1,2,40,0,0
222947,-76.9230769230769,4,1,2,80,0,0
223025,-76.9230769230769,4,1,2,50,0,0
223258,-76.9230769230769,4,1,2,80,0,0
223336,-76.9230769230769,4,1,2,60,0,0
223569,-76.9230769230769,4,1,2,80,0,0
223647,-76.9230769230769,4,1,2,70,0,0
223880,-66.6666666666667,4,1,2,80,0,0
224191,-66.6666666666667,4,1,2,90,0,0
224502,-66.6666666666667,4,1,2,80,0,1
233206,-66.6666666666667,4,1,2,100,0,1
234450,-76.9230769230769,4,1,2,80,0,0
241911,-76.9230769230769,4,1,2,80,0,0
241989,-76.9230769230769,4,1,2,40,0,0
242222,-76.9230769230769,4,1,2,80,0,0
242300,-76.9230769230769,4,1,2,50,0,0
242533,-76.9230769230769,4,1,2,80,0,0
242611,-76.9230769230769,4,1,2,60,0,0
242844,-76.9230769230769,4,1,2,80,0,0
242921,-76.9230769230769,4,1,2,60,0,0
243155,-55.5555555555556,4,1,2,80,0,0
243232,-55.5555555555556,4,1,2,70,0,0
243465,-55.5555555555556,4,1,2,80,0,0
243776,-55.5555555555556,4,1,2,90,0,0
244087,-55.5555555555556,4,1,2,100,0,0
244398,-55.5555555555556,4,2,4,60,0,0
244476,-55.5555555555556,4,1,2,50,0,0
247973,-55.5555555555556,4,1,2,5,0,0
248206,-55.5555555555556,4,2,4,60,0,0
249372,-55.5555555555556,4,2,2,5,0,0

[Colours]
Combo1 : 65,171,68
Combo2 : 245,31,31
Combo3 : 220,207,44

[HitObjects]
255,191,668,5,4,3:1:0:0:
256,192,745,12,0,5020,0:0:0:0:
254,192,5331,5,0,3:0:0:0:
254,192,5642,5,4,3:1:0:0:
256,192,5719,12,0,9994,0:0:0:0:
254,192,10305,5,0,3:0:0:0:
254,192,10616,6,0,P|198:188|124:186,1,90,6|0,3:1|0:0,0:0:0:0:
333,150,10927,2,0,B|332:148|272:42|394:-12,1,180,2|0,3:1|3:0,0:0:0:0:
509,77,11393,1,2,0:1:0:0:
509,77,11548,2,0,P|453:81|379:83,1,90,0|0,3:0|0:0,0:0:0:0:
433,250,11859,2,0,P|377:246|303:244,1,90,2|0,3:1|0:0,0:0:0:0:
223,372,12170,5,2,3:1:0:0:
232,266,12326,1,2,0:1:0:0:
32,310,12481,1,2,3:1:0:0:
138,318,12636,1,2,0:1:0:0:
133,126,12792,2,0,P|137:182|139:256,1,90,2|0,3:1|0:0,0:0:0:0:
21,35,13103,5,2,3:1:0:0:
137,27,13258,1,0,0:0:0:0:
253,19,13414,2,0,P|269:55|240:138,1,90,2|0,3:1|0:0,0:0:0:0:
443,90,13724,2,0,P|403:85|346:19,1,90,0|2,3:0|0:1,0:0:0:0:
286,219,14035,2,0,P|309:187|395:170,1,90,0|0,3:0|0:0,0:0:0:0:
460,310,14346,5,2,3:1:0:0:
431,230,14502,1,0,0:0:0:0:
414,377,14657,5,2,3:1:0:0:
452,197,14813,1,2,0:1:0:0:
273,254,14968,1,2,3:1:0:0:
382,278,15123,1,2,0:1:0:0:
175,289,15279,5,2,3:1:0:0:
175,289,15590,6,0,P|178:242|180:164,1,90,6|0,3:1|0:0,0:0:0:0:
40,335,15901,2,0,P|43:288|45:210,1,90,2|0,3:1|0:0,0:0:0:0:
40,53,16212,2,0,P|43:100|45:178,1,90,0|2,3:0|0:1,0:0:0:0:
179,199,16522,1,0,3:0:0:0:
179,199,16678,1,0,0:0:0:0:
183,89,16833,2,0,P|180:42|178:-36,1,90,2|0,3:1|0:0,0:0:0:0:
395,81,17144,5,2,3:1:0:0:
322,191,17300,1,2,0:1:0:0:
213,111,17455,1,2,3:1:0:0:
283,1,17611,1,2,0:1:0:0:
322,191,17766,6,0,P|364:183|434:171,1,90,2|0,3:1|0:0,0:0:0:0:
472,360,18077,2,0,P|432:334|423:278,1,90,2|0,3:1|0:0,0:0:0:0:
271,319,18388,2,0,P|164:309|74:302,1,180,2|0,3:1|3:0,0:0:0:0:
91,303,18854,1,2,0:1:0:0:
32,227,19009,1,0,3:0:0:0:
123,215,19165,1,0,0:0:0:0:
197,84,19320,5,2,3:1:0:0:
45,70,19476,1,0,0:0:0:0:
197,84,19631,1,2,3:1:0:0:
197,84,19787,1,2,0:1:0:0:
344,89,19942,1,2,3:1:0:0:
262,219,20098,1,2,0:1:0:0:
269,132,20253,5,2,3:1:0:0:
269,132,20564,6,0,P|273:83|279:24,1,90,6|0,3:1|0:0,0:0:0:0:
459,122,20875,2,0,P|410:118|351:112,1,90,2|0,3:1|0:0,0:0:0:0:
379,304,21186,2,0,P|383:255|389:196,1,90,0|2,3:0|0:1,0:0:0:0:
197,224,21497,2,0,P|245:228|305:234,1,90,0|0,3:0|0:0,0:0:0:0:
66,114,21807,2,0,P|114:118|174:124,1,90,2|0,3:1|0:0,0:0:0:0:
75,329,22118,5,2,3:1:0:0:
75,329,22274,1,2,0:1:0:0:
239,343,22429,1,2,3:1:0:0:
239,343,22585,1,2,0:1:0:0:
75,329,22740,2,0,P|76:277|80:213,1,90,2|0,3:1|0:0,0:0:0:0:
142,63,23051,6,0,P|95:61|38:85,1,90,2|0,3:1|0:0,0:0:0:0:
200,173,23362,2,0,P|260:118|247:-1,1,180,2|0,3:1|3:0,0:0:0:0:
262,24,23828,1,2,0:1:0:0:
380,67,23984,2,0,P|427:65|484:89,1,90,0|0,3:0|0:0,0:0:0:0:
366,258,24294,5,2,3:1:0:0:
380,67,24450,1,0,0:0:0:0:
486,228,24605,1,2,3:1:0:0:
295,152,24761,1,2,0:1:0:0:
490,111,24916,1,2,3:1:0:0:
295,152,25072,1,2,0:1:0:0:
405,162,25227,5,2,3:1:0:0:
405,162,25538,6,0,P|402:215|398:271,1,90,6|0,3:1|0:0,0:0:0:0:
286,295,25849,2,0,P|283:348|279:404,1,90,2|0,3:1|0:0,0:0:0:0:
113,199,26160,2,0,P|162:204|231:214,1,90,0|2,3:1|0:1,0:1:0:0:
46,309,26471,2,0,P|106:313|175:323,1,90,0|0,3:0|0:0,0:0:0:0:
27,164,26781,2,0,P|76:169|145:179,1,90,2|0,3:1|0:0,0:0:0:0:
312,115,27092,5,2,3:1:0:0:
290,231,27248,1,2,0:1:0:0:
393,150,27403,5,2,3:1:0:0:
324,32,27559,1,2,0:1:0:0:
222,121,27714,2,0,P|167:100|146:34,1,90,2|0,3:1|0:0,0:0:0:0:
214,283,28025,6,0,L|310:278,1,90,2|0,3:1|0:0,0:0:0:0:
463,384,28336,2,0,P|409:331|416:233,1,180,2|0,3:1|3:0,0:0:0:0:
416,232,28802,1,2,0:1:0:0:
430,133,28958,1,0,3:0:0:0:
441,33,29113,1,0,0:0:0:0:
287,59,29269,5,2,3:1:0:0:
279,212,29424,1,0,0:1:0:0:
126,205,29579,1,2,3:1:0:0:
135,53,29735,1,2,0:1:0:0:
219,134,29890,5,2,3:1:0:0:
219,134,30046,1,2,3:1:0:0:
219,134,30201,1,2,3:1:0:0:
219,134,30512,6,0,L|84:130,1,107.999996704102,6|0,3:1|0:0,0:0:0:0:
332,317,30823,2,0,L|467:313,1,107.999996704102
250,382,31134,5,2,0:0:0:0:
215,241,31289,1,0,0:0:0:0:
133,323,31445,1,0,0:0:0:0:
326,276,31600,1,0,0:0:0:0:
96,213,31756,5,2,0:0:0:0:
96,213,31911,1,0,0:0:0:0:
308,165,32066,5,0,0:0:0:0:
308,165,32221,1,0,0:0:0:0:
171,50,32377,5,2,0:0:0:0:
235,335,32533,1,2,0:0:0:0:
96,213,32688,1,2,0:0:0:0:
308,165,32844,1,2,0:0:0:0:
188,180,32999,6,0,P|128:181|92:222,1,107.999996704102,2|0,0:0|0:0,0:0:0:0:
355,80,33310,2,0,P|311:38|257:41,1,107.999996704102
311,274,33621,5,2,0:0:0:0:
311,274,33776,1,0,0:0:0:0:
478,174,33932,1,0,0:0:0:0:
478,174,34087,1,0,0:0:0:0:
376,323,34243,5,2,0:0:0:0:
420,116,34398,1,0,0:0:0:0:
459,342,34554,5,0,0:0:0:0:
416,110,34709,1,0,0:0:0:0:
152,274,34864,5,2,0:0:0:0:
329,258,35020,1,2,0:0:0:0:
512,242,35175,1,2,3:1:0:0:
512,242,35486,6,0,P|506:181|504:110,1,107.999996704102,6|0,3:1|0:0,0:0:0:0:
414,12,35797,2,0,P|354:-2|285:120,1,215.999993408203,0|2,0:0|0:0,0:0:0:0:
343,207,36263,1,0,0:0:0:0:
507,245,36419,1,0,0:0:0:0:
495,83,36574,1,0,0:0:0:0:
420,151,36730,6,0,P|424:207|428:293,1,107.999996704102,2|0,0:0|0:0,0:0:0:0:
165,67,37041,2,0,P|169:123|173:209,1,107.999996704102
266,384,37351,5,2,0:0:0:0:
309,247,37507,1,2,0:0:0:0:
190,145,37662,1,2,0:0:0:0:
43,217,37818,1,2,0:0:0:0:
309,247,37973,5,2,0:0:0:0:
270,102,38129,1,0,0:0:0:0:
309,247,38284,1,0,0:0:0:0:
175,284,38440,1,0,0:0:0:0:
397,300,38595,6,0,P|426:260|438:180,1,107.999996704102,2|0,0:0|0:0,0:0:0:0:
105,193,38906,2,0,P|74:236|62:289,1,107.999996704102
147,89,39217,5,14,0:0:0:0:
147,89,39372,1,0,0:0:0:0:
147,89,39528,1,0,0:0:0:0:
389,131,39683,5,12,0:0:0:0:
389,131,39838,1,0,0:0:0:0:
389,131,39994,1,0,0:0:0:0:
270,180,40149,5,8,3:1:0:0:
270,180,40460,6,0,P|263:111|252:36,2,144,6|10|2,3:2|0:0|0:0,0:0:0:0:
270,180,41237,1,0,3:0:0:0:
270,180,41393,1,8,0:0:0:0:
309,350,41704,5,2,3:2:0:0:
408,349,41859,1,0,0:0:0:0:
309,350,42015,1,8,0:0:0:0:
205,349,42170,2,0,L|35:344,1,144,2|0,0:0|3:0,0:0:0:0:
132,306,42636,2,0,P|171:299|202:277,1,72,8|0,0:0|0:0,0:0:0:0:
76,188,42947,6,0,L|-6:178,2,72,2|0|8,3:2|0:0|0:0,0:0:0:0:
79,194,43569,2,0,L|-3:184,2,72,2|0|8,0:0|3:0|0:0,0:0:0:0:
190,50,44191,6,0,P|243:63|310:-6,1,144,2|8,3:2|0:0,0:0:0:0:
399,27,44657,2,0,P|440:39|478:48,1,72,0|2,0:0|0:0,0:0:0:0:
512,143,44968,5,8,3:0:0:0:
486,239,45123,1,8,3:0:0:0:
458,336,45279,1,8,3:0:0:0:
294,332,45434,6,0,P|261:283|296:207,2,144,2|10|2,3:2|0:0|0:0,0:0:0:0:
294,332,46212,1,0,3:0:0:0:
294,332,46367,1,8,0:0:0:0:
14,253,46678,5,2,3:2:0:0:
122,218,46833,1,0,0:0:0:0:
14,253,46989,1,8,0:0:0:0:
122,218,47144,2,0,P|153:279|119:339,1,144,2|0,0:0|3:0,0:0:0:0:
195,277,47611,2,0,P|201:237|210:180,1,72,8|0,0:0|0:0,0:0:0:0:
95,86,47921,6,0,B|159:51|172:148|255:104,1,144,2|8,3:2|0:0,0:0:0:0:
354,0,48388,2,0,B|290:-35|277:62|194:18,1,144,2|0,0:0|3:0,0:0:0:0:
296,189,48854,1,10,0:0:0:0:
512,36,49165,6,0,P|460:31|418:117,1,144,2|8,3:2|0:0,0:0:0:0:
431,230,49631,1,0,0:0:0:0:
431,230,49709,1,0,0:0:0:0:
431,230,49787,1,0,0:0:0:0:
353,163,49942,5,8,3:0:0:0:
435,314,50098,1,8,3:0:0:0:
483,153,50253,1,8,3:0:0:0:
336,254,50408,6,0,P|296:240|273:199,1,72,2|0,3:2|0:0,0:0:0:0:
265,58,50719,2,0,P|272:99|248:140,1,72,10|0,0:0|0:0,0:0:0:0:
131,218,51030,2,0,P|163:190|210:190,2,72,2|0|8,0:0|3:0|0:0,0:0:0:0:
131,218,51497,1,0,0:0:0:0:
52,314,51652,5,2,3:2:0:0:
154,359,51807,1,0,0:0:0:0:
144,253,51963,1,8,0:0:0:0:
252,290,52118,1,2,0:0:0:0:
252,290,52196,1,0,0:0:0:0:
252,290,52274,2,0,P|294:296|345:302,1,72,0|0,0:0|3:0,0:0:0:0:
161,119,52585,2,0,P|125:115|90:109,1,72,8|0,0:0|0:0,0:0:0:0:
274,171,52895,6,0,B|234:136|226:77|267:25,1,144,2|8,3:2|0:0,0:0:0:0:
257,40,53362,1,0,0:0:0:0:
380,0,53517,2,0,L|468:22,1,72,2|0,0:0|3:0,0:0:0:0:
393,101,53828,2,0,L|481:123,1,72,8|0,0:0|0:0,0:0:0:0:
494,102,54061,1,0,0:0:0:0:
494,102,54139,6,0,B|524:138|516:197|476:232,1,144,2|8,3:2|0:0,0:0:0:0:
431,296,54605,2,0,L|439:345,2,36
509,384,54916,5,8,3:0:0:0:
477,231,55072,1,8,3:0:0:0:
337,311,55227,1,8,3:0:0:0:
260,245,55383,6,0,P|263:210|266:162,1,72,2|0,3:2|0:0,0:0:0:0:
156,229,55693,2,0,P|159:194|162:146,1,72,10|0,0:0|0:0,0:0:0:0:
52,216,56004,2,0,P|55:181|58:133,2,72,2|0|8,0:2|3:0|0:0,0:0:0:0:
52,216,56471,1,0,0:0:0:0:
161,347,56626,5,2,3:2:0:0:
252,311,56781,1,0,0:0:0:0:
221,225,56937,1,8,0:0:0:0:
131,260,57092,1,2,0:0:0:0:
131,260,57170,1,0,0:0:0:0:
131,260,57248,1,0,0:0:0:0:
276,300,57403,5,8,3:0:0:0:
311,184,57559,1,8,3:0:0:0:
153,137,57714,1,8,3:0:0:0:
170,49,57870,5,2,3:2:0:0:
170,49,58025,1,0,0:0:0:0:
170,49,58180,1,8,0:0:0:0:
296,78,58336,5,2,0:0:0:0:
296,78,58491,1,0,0:0:0:0:
296,78,58647,1,0,3:0:0:0:
421,115,58802,5,10,0:0:0:0:
421,115,58958,1,0,3:0:0:0:
421,115,59035,1,0,3:0:0:0:
421,115,59113,2,0,L|410:199,1,72,2|0,3:2|0:0,0:0:0:0:
433,359,59424,2,0,L|365:307,1,72,8|0,0:0|0:0,0:0:0:0:
215,247,59735,2,0,L|293:214,1,72,0|0,3:0|0:0,0:0:0:0:
97,355,60046,5,8,3:0:0:0:
99,235,60201,1,8,3:0:0:0:
99,108,60357,2,0,P|151:110|201:152,1,107.999996704102,6|0,3:1|0:0,0:0:0:0:
377,253,60668,2,0,P|325:251|275:209,1,107.999996704102,8|0,0:0|0:0,0:0:0:0:
258,17,60978,2,0,P|293:55|299:120,1,107.999996704102,2|0,0:0|0:0,0:0:0:0:
228,340,61289,2,0,P|192:301|186:236,1,107.999996704102,8|0,0:0|0:0,0:0:0:0:
410,71,61600,5,2,0:0:0:0:
494,100,61756,1,0,0:0:0:0:
378,250,61911,5,8,0:0:0:0:
352,153,62066,1,0,0:0:0:0:
352,153,62144,1,0,0:0:0:0:
352,153,62222,1,2,0:0:0:0:
456,317,62377,5,2,0:0:0:0:
270,368,62533,1,10,0:0:0:0:
222,172,62688,1,2,0:0:0:0:
114,168,62844,6,0,P|45:155|7:129,1,107.999996704102,2|0,0:0|0:0,0:0:0:0:
161,267,63155,2,0,P|206:213|248:193,1,107.999996704102,8|0,0:0|0:0,0:0:0:0:
51,258,63465,2,0,P|74:324|70:370,1,107.999996704102,2|0,0:0|0:0,0:0:0:0:
114,168,63776,2,0,P|114:114|136:65,1,107.999996704102,8|0,0:0|0:0,0:0:0:0:
45,7,64087,5,2,0:0:0:0:
22,101,64243,1,0,0:0:0:0:
226,24,64398,5,8,0:0:0:0:
372,127,64554,1,0,0:0:0:0:
293,290,64709,5,2,0:0:0:0:
211,123,64864,1,2,0:0:0:0:
406,115,65020,1,10,3:1:0:0:
406,115,65331,6,0,P|414:53|426:-4,1,107.999996704102,6|0,3:1|0:0,0:0:0:0:
399,278,65642,2,0,P|407:339|419:397,1,107.999996704102,8|0,0:0|0:0,0:0:0:0:
474,241,65952,5,2,0:0:0:0:
328,150,66108,1,0,0:0:0:0:
329,233,66263,1,8,0:0:0:0:
474,163,66419,1,0,0:0:0:0:
328,69,66574,5,2,0:0:0:0:
329,233,66730,1,0,0:0:0:0:
175,148,66885,5,8,0:0:0:0:
80,121,67041,1,0,0:0:0:0:
80,121,67118,1,0,0:0:0:0:
80,121,67196,1,2,0:0:0:0:
171,328,67351,5,2,0:0:0:0:
273,152,67507,1,10,0:0:0:0:
113,25,67662,1,2,0:0:0:0:
206,45,67818,6,0,P|241:31|316:11,1,107.999996704102,2|0,0:0|0:0,0:0:0:0:
273,295,68129,2,0,P|222:314|170:327,1,107.999996704102,8|0,0:0|0:0,0:0:0:0:
364,217,68440,5,2,0:0:0:0:
115,132,68596,1,0,0:0:0:0:
336,78,68750,1,8,0:0:0:0:
145,260,68906,1,0,0:0:0:0:
251,174,69061,5,14,0:0:0:0:
251,174,69217,1,0,0:0:0:0:
251,174,69372,1,0,0:0:0:0:
487,113,69528,5,12,0:0:0:0:
487,113,69683,1,0,0:0:0:0:
487,113,69838,1,0,0:0:0:0:
390,59,69994,5,8,3:1:0:0:
390,59,70305,6,0,B|362:11|305:1|261:31,2,144,6|10|2,3:2|0:0|0:0,0:0:0:0:
390,59,71082,1,0,3:0:0:0:
390,59,71237,1,8,0:0:0:0:
212,122,71548,5,2,3:2:0:0:
106,107,71704,1,0,0:0:0:0:
169,29,71859,1,8,0:0:0:0:
212,122,72015,2,0,P|203:176|192:284,1,144,2|0,0:0|3:0,0:0:0:0:
106,323,72481,2,0,P|90:290|97:240,1,72,8|0,0:0|0:0,0:0:0:0:
248,205,72792,6,0,L|255:287,1,72,2|0,3:2|0:0,0:0:0:0:
260,348,73103,1,8,0:0:0:0:
260,348,73414,2,0,L|253:276,1,72,2|0,0:0|3:0,0:0:0:0:
248,205,73725,1,8,0:0:0:0:
512,345,74035,6,0,B|476:296|420:360|378:301,1,144,2|8,3:2|0:0,0:0:0:0:
346,220,74502,2,0,P|352:182|356:143,1,72,0|2,0:0|0:0,0:0:0:0:
328,24,74813,5,8,3:0:0:0:
426,11,74968,1,8,3:0:0:0:
439,110,75123,1,8,3:0:0:0:
270,103,75279,6,0,P|188:96|110:86,2,144,2|10|2,3:2|0:0|0:0,0:0:0:0:
270,103,76056,1,0,3:0:0:0:
270,103,76212,1,8,0:0:0:0:
53,195,76522,5,2,3:2:0:0:
77,285,76678,1,0,0:0:0:0:
164,261,76833,1,8,0:0:0:0:
144,174,76989,2,0,P|198:146|204:59,1,144,2|0,0:0|3:0,0:0:0:0:
117,10,77455,2,0,L|113:108,1,72,8|0,0:0|0:0,0:0:0:0:
238,164,77766,6,0,B|295:144|312:234|385:213,1,144,2|8,3:2|0:0,0:0:0:0:
447,228,78232,2,0,B|390:208|373:298|300:277,1,144,2|0,0:0|3:0,0:0:0:0:
491,384,78699,1,10,0:0:0:0:
242,357,79009,6,0,P|136:353|68:346,1,144,2|8,3:2|0:0,0:0:0:0:
34,277,79476,1,0,0:0:0:0:
34,277,79554,1,0,0:0:0:0:
34,277,79631,1,0,0:0:0:0:
126,255,79787,5,8,3:0:0:0:
102,106,79942,1,8,3:0:0:0:
126,255,80098,1,8,3:0:0:0:
312,306,80253,5,6,3:2:0:0:
256,192,80331,12,2,82740,3:2:0:0:
256,192,82818,12,8,84605,0:0:0:0:
254,193,84761,5,8,3:0:0:0:
254,193,84916,1,8,3:0:0:0:
254,193,85072,1,8,3:0:0:0:
197,113,85227,5,4,3:1:0:0:
170,245,85538,1,0,3:0:0:0:
314,278,85849,1,8,0:0:0:0:
341,146,86160,1,0,3:0:0:0:
215,69,86471,5,0,3:0:0:0:
129,121,86626,1,0,0:0:0:0:
128,222,86782,1,0,3:0:0:0:
190,304,86937,1,0,0:0:0:0:
293,320,87093,1,8,0:0:0:0:
380,168,87404,1,0,3:0:0:0:
255,23,87714,5,0,3:0:0:0:
419,211,88025,1,0,3:0:0:0:
375,332,88180,1,0,0:0:0:0:
251,365,88336,1,8,0:0:0:0:
87,177,88647,1,0,3:0:0:0:
310,29,88958,5,8,0:0:0:0:
310,33,89035,1,8,0:0:0:0:
310,37,89113,1,8,0:0:0:0:
310,41,89191,1,8,0:0:0:0:
310,45,89269,1,8,0:0:0:0:
310,49,89346,1,8,0:0:0:0:
310,53,89424,1,8,0:0:0:0:
310,57,89502,1,8,0:0:0:0:
313,60,89579,2,0,P|348:62|386:59,1,49.5000015106202,8|8,0:0|0:0,0:0:0:0:
255,138,89735,2,0,P|220:140|184:137,1,49.5000015106202,8|8,0:0|0:0,0:0:0:0:
380,212,89890,2,0,P|425:214|471:212,1,49.5000015106202,8|8,0:0|0:0,0:0:0:0:
255,310,90046,2,0,P|209:312|163:310,1,49.5000015106202,8|8,0:0|0:0,0:0:0:0:
63,194,90201,6,0,P|66:145|73:71,1,107.999996704102,6|0,0:0|0:0,0:0:0:0:
0,266,90512,1,8,0:0:0:0:
126,371,90668,2,0,P|220:362|364:351,1,215.999993408203,2|0,0:0|0:0,0:0:0:0:
371,104,91134,2,0,P|375:157|379:211,1,107.999996704102,10|0,0:0|0:0,0:0:0:0:
210,152,91445,5,2,0:0:0:0:
301,175,91600,1,0,0:0:0:0:
240,245,91756,1,8,0:0:0:0:
150,223,91911,1,0,0:0:0:0:
64,55,92066,5,10,0:0:0:0:
228,172,92222,1,10,0:0:0:0:
334,5,92377,1,10,0:0:0:0:
248,268,92533,1,10,0:0:0:0:
150,223,92688,6,0,P|86:200|29:213,1,107.999996704102,2|0,0:0|0:0,0:0:0:0:
280,366,92999,1,10,0:2:0:0:
280,366,93077,1,2,0:2:0:0:
280,366,93155,2,0,L|406:349,2,107.999996704102,2|0|0,0:0|0:0|0:0,0:0:0:0:
359,202,93621,2,0,P|423:179|480:192,1,107.999996704102,10|0,0:0|0:0,0:0:0:0:
308,4,93932,6,0,B|199:-10|233:129|116:118,1,215.999993408203,2|8,0:0|0:0,0:0:0:0:
121,21,94398,1,0,0:0:0:0:
48,71,94554,1,8,0:0:0:0:
52,294,94709,1,8,0:0:0:0:
256,182,94864,1,8,0:0:0:0:
52,294,95020,1,8,0:0:0:0:
256,182,95175,6,0,B|327:222|335:320|266:391,1,215.999993408203,2|8,0:0|0:0,0:0:0:0:
142,182,95642,2,0,B|141:100|222:44|317:68,1,215.999993408203,2|0,0:0|0:0,0:0:0:0:
493,59,96108,2,0,P|488:115|481:183,1,107.999996704102,10|0,0:0|0:0,0:0:0:0:
399,339,96419,5,2,0:0:0:0:
363,199,96574,1,0,0:0:0:0:
224,231,96730,1,8,0:0:0:0:
252,372,96885,1,0,0:0:0:0:
73,135,97041,5,2,0:0:0:0:
278,164,97196,1,0,0:0:0:0:
252,372,97351,1,8,0:0:0:0:
46,345,97506,1,0,0:0:0:0:
0,195,97662,6,0,P|51:230|130:214,1,107.999996704102,10|0,0:0|0:0,0:0:0:0:
334,13,97973,2,0,P|278:39|252:116,1,107.999996704102,8|0,0:0|0:0,0:0:0:0:
321,375,98284,2,0,P|325:313|272:252,1,107.999996704102,8|0,0:0|0:0,0:0:0:0:
115,90,98595,5,10,0:0:0:0:
174,334,98750,1,2,0:0:0:0:
378,156,98906,5,2,0:1:0:0:
115,90,99139,5,2,0:1:0:0:
174,334,99372,5,2,0:1:0:0:
225,188,99528,6,0,L|156:167,1,53.9999983520508,2|0,0:0|0:0,0:0:0:0:
321,371,99683,1,2,0:2:0:0:
321,371,99761,1,2,0:2:0:0:
321,371,99838,1,10,0:2:0:0:
321,371,99916,1,2,0:2:0:0:
321,371,99994,1,2,0:2:0:0:
321,371,100072,1,2,0:2:0:0:
321,371,100149,2,0,P|411:361|399:242,1,215.999993408203,6|8,0:0|0:0,0:0:0:0:
484,34,100616,5,2,0:0:0:0:
392,49,100771,2,0,P|384:87|378:177,1,107.999996704102
225,371,101082,2,0,P|219:305|202:233,1,107.999996704102,10|0,0:0|0:0,0:0:0:0:
25,134,101393,5,2,0:0:0:0:
153,122,101548,1,0,0:0:0:0:
277,103,101704,1,8,0:0:0:0:
153,122,101859,1,0,0:0:0:0:
0,304,102015,5,10,0:0:0:0:
325,260,102170,1,10,0:0:0:0:
0,304,102326,1,10,0:0:0:0:
325,260,102481,1,10,0:0:0:0:
255,176,102636,6,0,P|246:122|234:50,1,107.999996704102,2|0,0:0|0:0,0:0:0:0:
368,165,102947,1,8,0:0:0:0:
409,330,103103,1,2,0:0:0:0:
509,316,103258,2,0,P|500:262|488:190,1,107.999996704102
217,268,103569,2,0,P|268:263|333:259,1,107.999996704102,10|0,0:0|0:0,0:0:0:0:
195,47,103880,2,0,P|79:42|31:152,1,215.999993408203,2|8,0:0|0:0,0:0:0:0:
141,303,104346,5,0,0:0:0:0:
289,99,104502,1,8,0:0:0:0:
289,351,104657,1,8,0:0:0:0:
141,147,104813,1,8,0:0:0:0:
380,225,104968,1,8,0:0:0:0:
402,111,105123,6,0,P|446:68|524:63,1,107.999996704102,2|0,0:0|0:0,0:0:0:0:
358,3,105434,1,8,0:0:0:0:
394,233,105590,2,0,P|438:276|516:281,1,107.999996704102,2|0,0:0|0:0,0:0:0:0:
350,341,105901,1,0,0:0:0:0:
210,158,106056,5,10,0:0:0:0:
111,155,106212,1,0,0:0:0:0:
111,155,106289,1,0,0:0:0:0:
111,155,106367,1,2,0:0:0:0:
5,141,106522,1,0,0:0:0:0:
210,158,106678,1,8,0:0:0:0:
299,40,106833,5,2,0:0:0:0:
404,35,106989,1,0,0:0:0:0:
506,29,107144,1,0,0:0:0:0:
373,210,107300,5,10,0:0:0:0:
311,135,107455,1,0,0:0:0:0:
147,252,107611,6,0,P|143:307|141:374,1,107.999996704102,2|0,0:0|0:0,0:0:0:0:
57,258,107844,1,0,0:0:0:0:
57,258,107921,2,0,P|53:204|51:150,1,107.999996704102,8|0,0:0|0:0,0:0:0:0:
213,137,108232,2,0,P|209:83|207:29,1,107.999996704102
267,233,108543,1,8,0:0:0:0:
433,256,108699,5,0,0:0:0:0:
433,256,108776,1,0,0:0:0:0:
433,256,108854,1,0,0:0:0:0:
391,138,109009,1,0,0:0:0:0:
213,137,109165,1,8,0:0:0:0:
238,313,109320,1,0,0:0:0:0:
355,360,109476,1,2,0:2:0:0:
349,328,109554,1,2,0:2:0:0:
341,296,109631,1,2,0:2:0:0:
334,264,109709,1,2,0:2:0:0:
319,240,109787,5,10,0:2:0:0:
319,240,109864,1,2,0:2:0:0:
319,240,109942,1,2,0:2:0:0:
319,240,110020,1,2,0:2:0:0:
319,240,110098,2,0,P|380:246|455:217,1,107.999996704102
351,4,110408,2,0,P|345:65|374:140,1,107.999996704102,8|0,0:0|0:0,0:0:0:0:
181,320,110719,2,0,P|187:259|158:184,1,107.999996704102
83,75,111030,2,0,P|135:62|188:69,1,107.999996704102,8|0,0:0|0:0,0:0:0:0:
463,12,111341,5,8,0:0:0:0:
477,41,111419,1,8,0:0:0:0:
486,71,111497,1,8,0:0:0:0:
488,102,111574,1,8,0:0:0:0:
488,134,111652,1,8,0:0:0:0:
483,166,111730,1,8,0:0:0:0:
474,196,111807,1,8,0:0:0:0:
460,225,111885,1,8,0:0:0:0:
474,254,111963,5,8,0:0:0:0:
436,275,112041,1,8,0:0:0:0:
393,272,112118,1,8,0:0:0:0:
355,249,112196,1,8,0:0:0:0:
311,247,112274,1,8,3:1:0:0:
274,269,112351,1,8,0:0:0:0:
246,302,112429,1,8,0:0:0:0:
203,312,112507,1,8,0:0:0:0:
163,295,112585,1,6,3:1:0:0:
60,277,112740,5,0,0:0:0:0:
205,204,112895,1,8,0:0:0:0:
214,384,113051,1,0,0:0:0:0:
77,370,113206,6,0,P|79:320|86:241,1,107.999996704102,2|0,0:0|0:0,0:0:0:0:
96,133,113517,2,0,P|98:83|105:4,1,107.999996704102,8|0,0:0|0:0,0:0:0:0:
315,100,113828,5,2,0:0:0:0:
315,100,113984,1,0,0:0:0:0:
311,317,114139,1,8,0:0:0:0:
311,317,114294,1,0,0:0:0:0:
168,202,114450,5,2,0:0:0:0:
456,217,114605,1,2,0:0:0:0:
168,202,114761,1,10,0:0:0:0:
456,217,114916,1,2,0:0:0:0:
323,212,115072,6,0,P|271:217|217:301,1,107.999996704102,2|0,0:0|0:0,0:0:0:0:
315,100,115383,2,0,P|367:95|421:11,1,107.999996704102,8|0,0:0|0:0,0:0:0:0:
203,224,115693,2,0,P|169:264|190:361,1,107.999996704102,2|0,0:0|0:0,0:0:0:0:
435,94,116004,2,0,P|468:53|447:-43,1,107.999996704102,8|0,0:0|0:0,0:0:0:0:
319,213,116315,5,2,0:0:0:0:
315,100,116471,1,0,0:0:0:0:
376,290,116626,1,8,0:0:0:0:
239,36,116781,1,0,0:0:0:0:
469,308,116937,5,2,0:0:0:0:
435,94,117092,1,2,0:0:0:0:
213,127,117248,1,10,3:1:0:0:
213,127,117559,6,0,P|149:85|150:16,1,107.999996704102,6|0,3:1|0:0,0:0:0:0:
29,259,117870,2,0,P|99:249|275:217,1,215.999993408203,8|2,0:0|0:0,0:0:0:0:
305,311,118336,5,0,0:0:0:0:
151,357,118491,1,8,0:0:0:0:
118,201,118647,1,0,0:0:0:0:
357,215,118802,5,2,0:0:0:0:
405,122,118958,1,0,0:0:0:0:
512,317,119113,5,8,0:0:0:0:
417,313,119269,1,0,0:0:0:0:
417,313,119346,1,0,0:0:0:0:
417,313,119424,1,2,0:0:0:0:
508,103,119579,5,2,0:0:0:0:
272,81,119735,1,10,0:0:0:0:
311,312,119890,1,2,0:0:0:0:
205,331,120046,6,0,P|204:264|208:176,1,107.999996704102,2|0,0:0|0:0,0:0:0:0:
25,182,120357,2,0,P|24:115|28:27,1,107.999996704102,8|0,0:0|0:0,0:0:0:0:
260,31,120667,5,2,0:0:0:0:
410,92,120823,1,0,0:0:0:0:
257,153,120978,1,8,0:0:0:0:
112,88,121134,1,0,0:0:0:0:
425,244,121289,5,14,0:0:0:0:
425,244,121445,1,0,0:0:0:0:
425,244,121600,1,0,0:0:0:0:
98,242,121756,5,12,0:0:0:0:
98,242,121911,1,0,0:0:0:0:
98,242,122066,1,0,0:0:0:0:
259,339,122222,5,8,3:1:0:0:
259,339,122533,6,0,L|92:350,2,144,6|10|2,3:2|0:0|0:0,0:0:0:0:
259,339,123310,1,0,3:0:0:0:
259,339,123465,1,8,0:0:0:0:
475,300,123776,5,2,3:2:0:0:
495,204,123932,1,0,0:0:0:0:
437,130,124087,1,8,0:0:0:0:
404,225,124243,2,0,P|334:231|233:239,1,144,2|0,0:0|3:0,0:0:0:0:
194,160,124709,2,0,P|225:136|285:120,1,72,8|0,0:0|0:0,0:0:0:0:
165,258,125020,6,0,L|148:328,1,72,2|0,3:2|0:0,0:0:0:0:
70,364,125330,1,8,0:0:0:0:
70,364,125642,5,2,0:0:0:0:
70,364,125797,1,0,3:0:0:0:
70,364,125952,1,8,0:0:0:0:
3,113,126263,6,0,P|29:90|160:86,1,144,2|8,3:2|0:0,0:0:0:0:
229,33,126730,2,0,P|227:72|221:122,1,72,0|2,0:0|0:0,0:0:0:0:
258,243,127041,5,8,3:0:0:0:
385,230,127196,1,8,3:0:0:0:
508,217,127351,1,8,3:0:0:0:
441,141,127507,6,0,P|428:94|491:23,2,144,2|10|2,3:2|0:0|0:0,0:0:0:0:
441,141,128284,1,0,3:0:0:0:
441,141,128440,1,8,0:0:0:0:
229,33,128750,5,2,3:2:0:0:
142,57,128906,1,0,0:0:0:0:
50,29,129061,1,8,0:0:0:0:
67,121,129217,2,0,L|50:280,1,144,2|0,0:0|3:0,0:0:0:0:
124,334,129683,1,8,0:0:0:0:
124,334,129838,1,0,0:0:0:0:
161,181,129994,6,0,P|229:178|274:250,1,144,2|8,0:0|0:0,0:0:0:0:
370,273,130460,2,0,P|302:270|257:342,1,144,2|0,0:0|3:0,0:0:0:0:
423,366,130927,1,10,0:0:0:0:
482,114,131237,6,0,B|412:118|435:42|322:63,1,144,2|8,0:0|0:0,0:0:0:0:
268,10,131704,1,0,0:0:0:0:
268,10,131781,1,0,0:0:0:0:
268,10,131859,1,0,0:0:0:0:
263,101,132015,5,8,3:0:0:0:
151,166,132170,1,8,3:0:0:0:
54,82,132326,1,8,3:0:0:0:
85,3,132481,6,0,P|81:45|70:124,1,90,6|0,3:2|0:0,0:0:0:0:
51,199,132792,2,0,P|55:241|66:320,1,90,2|0,3:2|0:0,0:0:0:0:
159,370,133103,1,2,3:2:0:0:
159,370,133180,1,0,3:0:0:0:
159,370,133258,1,0,3:0:0:0:
159,370,133336,1,0,3:0:0:0:
159,370,133414,2,0,P|202:366|277:359,1,90,0|0,3:0|0:0,0:0:0:0:
424,290,133724,5,2,3:2:0:0:
313,282,133880,1,0,0:0:0:0:
356,376,134035,1,0,3:0:0:0:
467,384,134191,1,2,0:2:0:0:
424,290,134346,2,0,P|420:234|420:162,1,90,0|0,3:0|0:0,0:0:0:0:
509,61,134657,2,0,P|512:110|512:173,1,90,0|0,3:0|0:0,0:0:0:0:
369,98,134968,6,0,B|324:109|324:109|270:83,1,90,2|0,3:2|0:0,0:0:0:0:
201,54,135279,2,0,B|246:43|246:43|300:69,1,90,0|0,3:0|0:0,0:0:0:0:
145,170,135590,5,2,3:2:0:0:
145,170,135668,1,0,3:0:0:0:
145,170,135745,1,0,3:0:0:0:
145,170,135823,1,0,3:0:0:0:
145,170,135901,2,0,B|100:181|100:181|46:155,1,90,0|0,3:0|0:0,0:0:0:0:
257,213,136212,6,0,L|240:330,1,90,2|0,3:2|0:0,0:0:0:0:
441,329,136522,1,0,3:0:0:0:
454,231,136678,2,0,L|337:214,1,90,0|2,0:0|3:2,0:0:0:0:
454,231,136989,1,0,0:0:0:0:
402,135,137144,1,0,3:0:0:0:
503,85,137300,1,0,0:0:0:0:
419,40,137455,6,0,P|376:10|307:2,1,90,2|0,3:2|0:0,0:0:0:0:
238,15,137766,2,0,P|200:40|175:76,1,90,2|0,3:2|0:0,0:0:0:0:
182,189,138077,2,0,P|207:226|243:251,1,90,2|0,3:2|0:0,0:0:0:0:
89,135,138388,2,0,P|42:122|-15:127,1,90,0|0,3:0|0:0,0:0:0:0:
9,269,138699,5,2,3:2:0:0:
48,350,138854,1,0,0:0:0:0:
135,309,139009,1,0,3:0:0:0:
95,232,139165,1,2,0:2:0:0:
182,189,139320,6,0,P|226:184|301:182,1,90,0|0,3:0|0:0,0:0:0:0:
330,273,139631,2,0,P|374:275|419:280,1,90,0|0,3:0|0:0,0:0:0:0:
479,105,139942,5,2,3:2:0:0:
479,105,140098,1,0,0:0:0:0:
479,105,140253,1,0,3:0:0:0:
357,81,140408,5,2,0:2:0:0:
357,81,140564,1,0,3:0:0:0:
357,81,140719,1,0,0:0:0:0:
230,57,140875,5,2,3:2:0:0:
357,81,141030,1,0,0:0:0:0:
479,105,141186,6,0,B|504:224|504:224|421:251,1,188.999994232178,2|0,3:2|0:0,0:0:0:0:
359,208,141807,6,0,L|372:149,3,45,2|0|0|0,0:2|0:0|0:0|0:0,0:0:0:0:
338,331,142118,1,2,0:2:0:0:
322,315,142196,1,2,0:2:0:0:
338,299,142274,1,2,0:2:0:0:
353,315,142351,1,2,0:2:0:0:
339,315,142429,6,0,P|283:304|223:285,1,116.999994644165,6|0,0:0|0:0,0:0:0:0:
148,358,142740,1,8,0:0:0:0:
0,221,142895,2,0,P|56:210|116:191,1,116.999994644165,2|0,0:0|0:0,0:0:0:0:
120,96,143206,1,0,0:0:0:0:
368,164,143362,5,10,0:0:0:0:
211,144,143517,1,0,0:0:0:0:
300,11,143673,5,2,0:0:0:0:
411,52,143828,1,0,0:0:0:0:
368,164,143984,1,8,0:0:0:0:
411,52,144139,1,0,0:0:0:0:
215,149,144294,5,10,0:0:0:0:
455,121,144450,1,10,0:0:0:0:
487,355,144605,1,10,0:0:0:0:
247,384,144761,1,10,0:0:0:0:
192,304,144916,6,0,P|257:273|377:385,1,233.999989288331,2|8,0:0|0:0,0:0:0:0:
194,188,145383,1,2,0:0:0:0:
91,234,145538,2,0,P|88:295|87:362,1,116.999994644165
0,86,145849,5,8,0:0:0:0:
134,101,146004,1,0,0:0:0:0:
290,122,146160,2,0,P|373:100|518:50,1,233.999989288331,2|8,0:0|0:0,0:0:0:0:
368,6,146626,1,0,0:0:0:0:
206,56,146781,1,8,0:0:0:0:
272,219,146937,1,8,0:0:0:0:
329,382,147092,1,8,0:0:0:0:
272,219,147248,1,8,0:0:0:0:
167,263,147403,6,0,P|111:243|30:257,1,116.999994644165,2|0,0:0|0:0,0:0:0:0:
8,69,147714,1,8,0:0:0:0:
8,69,147792,1,0,0:0:0:0:
8,69,147870,1,2,0:0:0:0:
104,28,148025,1,0,0:0:0:0:
86,134,148180,1,0,0:0:0:0:
272,219,148336,5,10,0:0:0:0:
246,122,148491,1,0,0:0:0:0:
488,105,148647,5,2,0:0:0:0:
346,148,148802,1,0,0:0:0:0:
337,0,148958,1,8,0:0:0:0:
482,25,149113,1,0,0:0:0:0:
336,260,149269,5,2,0:0:0:0:
415,77,149424,1,0,0:0:0:0:
139,60,149579,1,10,0:0:0:0:
198,254,149735,1,0,0:0:0:0:
284,0,149890,5,10,0:0:0:0:
284,0,150046,1,0,0:0:0:0:
265,334,150201,1,8,0:0:0:0:
265,334,150357,1,0,0:0:0:0:
111,147,150512,6,0,P|58:139|-16:104,1,116.999994644165,8|0,0:0|0:0,0:0:0:0:
370,71,150823,5,10,0:0:0:0:
441,297,150978,1,2,0:0:0:0:
370,71,151134,5,2,0:0:0:0:
441,297,151367,5,2,0:0:0:0:
370,71,151600,5,2,0:0:0:0:
297,18,151756,5,2,0:0:0:0:
274,20,151833,1,2,0:2:0:0:
250,23,151911,1,2,0:2:0:0:
226,27,151989,1,2,0:2:0:0:
203,30,152066,1,10,0:2:0:0:
180,35,152144,1,2,0:2:0:0:
156,39,152222,1,2,0:2:0:0:
133,44,152300,1,2,0:2:0:0:
110,48,152377,2,0,P|81:34|31:177,1,233.999989288331,6|8,0:0|0:0,0:0:0:0:
169,326,152844,5,2,0:0:0:0:
120,163,152999,1,0,0:0:0:0:
0,284,153155,1,0,0:0:0:0:
271,205,153310,6,0,P|287:251|310:330,1,116.999994644165,10|0,0:0|0:0,0:0:0:0:
467,112,153621,5,2,0:0:0:0:
369,33,153776,1,0,0:0:0:0:
237,44,153932,1,8,0:0:0:0:
339,130,154087,1,0,0:0:0:0:
135,27,154243,5,10,0:0:0:0:
5,161,154398,1,10,0:0:0:0:
47,345,154554,1,10,0:0:0:0:
177,209,154709,1,10,0:0:0:0:
119,125,154864,6,0,P|59:117|-12:109,1,116.999994644165,2|0,0:0|0:0,0:0:0:0:
135,27,155175,1,8,0:0:0:0:
276,184,155331,2,0,P|336:176|407:168,1,116.999994644165,2|0,0:0|0:0,0:0:0:0:
426,78,155642,1,0,0:0:0:0:
463,242,155797,5,10,0:0:0:0:
512,26,155952,1,0,0:0:0:0:
278,86,156108,6,0,B|178:123|153:-13|23:48,1,233.999989288331,2|8,0:0|0:0,0:0:0:0:
23,119,156574,1,0,0:0:0:0:
181,293,156730,1,8,0:0:0:0:
359,134,156885,1,8,0:0:0:0:
12,330,157041,5,8,0:0:0:0:
325,369,157196,1,8,0:0:0:0:
269,223,157351,6,0,P|206:192|146:178,1,116.999994644165,2|0,0:0|0:0,0:0:0:0:
253,98,157662,1,8,0:0:0:0:
398,268,157818,2,0,P|402:338|420:397,1,116.999994644165,2|0,0:0|0:0,0:0:0:0:
512,235,158129,1,0,0:0:0:0:
391,23,158284,5,10,0:0:0:0:
370,153,158440,1,0,0:0:0:0:
370,153,158517,1,0,0:0:0:0:
370,153,158595,1,2,0:0:0:0:
245,128,158750,1,0,0:0:0:0:
270,4,158906,1,8,0:0:0:0:
23,109,159061,5,2,0:0:0:0:
153,75,159217,1,0,0:0:0:0:
190,217,159372,1,0,0:0:0:0:
419,295,159528,5,10,0:0:0:0:
455,50,159683,1,0,0:0:0:0:
419,295,159838,6,0,P|351:318|259:317,1,116.999994644165,2|0,0:0|0:0,0:0:0:0:
237,369,160072,1,0,0:0:0:0:
237,369,160149,2,0,P|172:337|108:271,1,116.999994644165,8|0,0:0|0:0,0:0:0:0:
237,112,160460,2,0,P|301:143|365:209,1,116.999994644165
55,186,160771,2,0,P|123:163|215:164,1,116.999994644165,8|0,0:0|0:0,0:0:0:0:
362,9,161082,5,0,0:0:0:0:
435,172,161237,1,0,0:0:0:0:
318,268,161393,1,8,0:0:0:0:
167,159,161548,1,0,0:0:0:0:
227,22,161704,5,2,0:2:0:0:
249,26,161781,1,2,0:2:0:0:
269,38,161859,1,2,0:2:0:0:
282,57,161937,1,2,0:2:0:0:
291,78,162015,1,10,0:2:0:0:
295,100,162092,1,2,0:2:0:0:
295,123,162170,1,2,0:2:0:0:
289,145,162248,1,2,0:2:0:0:
276,164,162326,2,0,P|225:180|150:140,1,116.999994644165
15,370,162636,5,8,0:0:0:0:
87,285,162792,1,0,0:0:0:0:
87,285,162870,1,0,0:0:0:0:
87,285,162947,5,2,0:2:0:0:
110,289,163025,1,2,0:2:0:0:
132,294,163103,1,2,0:2:0:0:
154,299,163180,1,2,0:2:0:0:
176,304,163258,1,10,0:2:0:0:
198,309,163336,1,2,0:2:0:0:
220,314,163414,1,2,0:2:0:0:
242,319,163491,1,2,0:2:0:0:
255,337,163569,5,8,0:0:0:0:
290,336,163647,1,8,0:0:0:0:
321,320,163724,1,8,0:0:0:0:
347,297,163802,1,8,0:0:0:0:
362,265,163880,1,8,0:0:0:0:
369,230,163958,1,8,0:0:0:0:
364,195,164035,1,8,0:0:0:0:
349,162,164113,1,8,0:0:0:0:
323,137,164191,6,0,P|293:132|243:125,1,58.4999973220826,8|8,0:0|0:0,0:0:0:0:
168,187,164346,2,0,P|138:182|88:175,1,58.4999973220826,8|8,0:0|0:0,0:0:0:0:
236,289,164502,2,0,P|266:294|316:301,1,58.4999973220826,8|8,0:0|0:0,0:0:0:0:
391,239,164657,2,0,P|421:244|471:251,1,58.4999973220826,8|8,0:0|0:0,0:0:0:0:
435,58,164813,5,6,3:2:0:0:
435,58,164968,2,0,L|245:28,1,180,2|0,0:2|0:0,0:0:0:0:
84,45,165434,1,10,0:2:0:0:
84,45,165590,2,0,P|138:80|153:224,1,180,2|0,0:2|0:0,0:0:0:0:
140,328,166056,5,2,0:0:0:0:
140,328,166212,2,0,P|226:313|281:244,1,180,2|0,0:0|0:0,0:0:0:0:
273,153,166678,1,10,0:0:0:0:
298,74,166833,1,0,0:0:0:0:
298,74,166911,1,0,0:0:0:0:
298,74,166989,1,0,0:0:0:0:
381,53,167144,1,0,0:0:0:0:
470,193,167300,6,0,P|481:273|494:399,2,180,2|0|8,0:0|0:0|0:0,0:0:0:0:
375,268,168077,2,0,P|315:261|255:244,1,90
206,304,168388,1,0,0:0:0:0:
112,289,168543,5,0,0:0:0:0:
72,207,168699,1,2,0:0:0:0:
72,207,168776,1,2,0:0:0:0:
72,207,168854,1,2,0:0:0:0:
72,207,168932,1,2,0:0:0:0:
72,207,169009,1,2,0:0:0:0:
108,119,169165,2,0,P|116:69|123:15,1,90,8|0,0:0|0:0,0:0:0:0:
3,107,169476,2,0,P|11:57|18:3,1,90
214,29,169787,6,0,B|300:13|317:85|429:62,2,180,2|0|8,0:0|0:0|0:0,0:0:0:0:
345,157,170564,1,2,0:0:0:0:
345,157,170642,1,2,0:0:0:0:
345,157,170719,2,0,P|349:189|352:223,3,45,2|2|2|2,0:0|0:0|0:0|0:0,0:0:0:0:
310,167,171030,6,0,P|266:140|199:148,1,90,2|0,0:0|0:0,0:0:0:0:
151,175,171341,2,0,P|126:213|121:257,1,90,2|0,0:0|0:0,0:0:0:0:
241,364,171652,2,0,P|197:359|160:335,1,90,10|0,0:0|0:0,0:0:0:0:
318,326,171963,2,0,P|343:288|348:244,1,90,2|0,0:0|0:0,0:0:0:0:
460,152,172274,6,0,P|429:67|319:63,1,180,2|0,0:0|0:0,0:0:0:0:
247,20,172740,2,0,L|257:76,1,45,2|2,0:0|0:0,0:0:0:0:
174,102,172895,1,10,0:0:0:0:
174,102,172973,1,2,0:0:0:0:
174,102,173051,1,2,0:0:0:0:
174,102,173129,1,2,0:0:0:0:
174,102,173206,2,0,P|121:94|61:89,1,90,2|0,0:0|0:0,0:0:0:0:
14,249,173517,5,2,0:0:0:0:
95,293,173673,1,0,0:0:0:0:
95,293,173750,1,0,0:0:0:0:
95,293,173828,1,0,0:0:0:0:
171,260,173984,1,0,0:0:0:0:
314,302,174139,6,0,L|305:399,1,90,10|0,0:0|0:0,0:0:0:0:
314,302,174450,1,0,0:0:0:0:
114,103,174761,6,0,B|200:53|218:163|307:106,2,180,6|0|8,0:0|0:0|0:0,0:0:0:0:
38,28,175538,2,0,L|34:92,1,45,2|2,0:0|0:0,0:0:0:0:
114,103,175693,2,0,L|112:160,1,45,2|2,0:0|0:0,0:0:0:0:
30,161,175849,2,0,L|26:225,1,45,2|2,0:0|0:0,0:0:0:0:
86,313,176004,6,0,P|132:320|196:297,1,90,2|0,0:0|0:0,0:0:0:0:
257,271,176315,1,2,0:0:0:0:
181,220,176471,1,0,0:0:0:0:
343,231,176626,6,0,L|397:238,3,45,10|2|2|2,0:0|0:0|0:0|0:0,0:0:0:0:
272,179,176937,1,2,0:0:0:0:
272,179,177015,1,2,0:0:0:0:
272,179,177092,1,2,0:0:0:0:
272,179,177170,1,2,0:0:0:0:
272,179,177248,2,0,P|268:94|379:62,2,180,2|0|8,0:0|0:0|0:0,0:0:0:0:
272,179,178025,5,0,0:0:0:0:
178,218,178180,1,2,0:0:0:0:
160,215,178258,1,2,0:0:0:0:
142,212,178336,1,2,0:0:0:0:
124,208,178414,1,2,0:0:0:0:
106,204,178491,2,0,L|87:255,1,45,2|2,0:0|0:0,0:0:0:0:
36,141,178647,2,0,L|17:192,1,45,2|2,0:0|0:0,0:0:0:0:
44,340,178802,5,2,0:0:0:0:
44,340,178880,1,2,0:0:0:0:
44,340,178958,1,2,0:0:0:0:
44,340,179035,1,2,0:0:0:0:
44,340,179113,2,0,P|94:352|138:318,1,90,10|0,0:0|0:0,0:0:0:0:
221,292,179424,2,0,P|271:280|315:314,1,90
478,377,179735,6,0,L|466:160,1,180,2|0,0:0|0:0,0:0:0:0:
461,63,180201,1,2,0:0:0:0:
461,63,180279,1,2,0:0:0:0:
461,63,180357,2,0,L|377:43,1,45,10|2,0:0|0:0,0:0:0:0:
318,32,180512,2,0,L|234:12,1,45,2|2,0:0|0:0,0:0:0:0:
190,102,180667,5,2,0:0:0:0:
190,102,180745,1,2,0:0:0:0:
190,102,180823,1,2,0:0:0:0:
190,102,180901,1,2,0:0:0:0:
190,102,180978,2,0,L|183:177,3,45,2|2|2|2,0:0|0:0|0:0|0:0,0:0:0:0:
167,111,181289,6,0,P|105:94|56:88,1,90,2|0,0:0|0:0,0:0:0:0:
292,165,181600,2,0,P|337:119|367:80,1,90,10|0,0:0|0:0,0:0:0:0:
182,246,181911,2,0,P|198:308|217:353,1,90,2|0,0:0|0:0,0:0:0:0:
414,358,182222,6,0,P|425:248|424:151,1,180,2|0,0:0|0:0,0:0:0:0:
487,99,182688,1,2,0:0:0:0:
487,99,182766,1,2,0:0:0:0:
487,99,182844,2,0,L|498:32,3,45,10|2|2|2,0:0|0:0|0:0|0:0,0:0:0:0:
390,75,183155,2,0,L|401:8,3,45,2|2|2|2,0:0|0:0|0:0|0:0,0:0:0:0:
290,107,183465,5,2,3:2:0:0:
196,59,183621,2,0,B|112:42|112:42|43:128,1,180,2|0,3:2|3:0,0:0:0:0:
61,345,184087,1,0,3:0:0:0:
184,306,184243,1,0,3:0:0:0:
143,180,184398,5,8,3:2:0:0:
185,167,184476,1,8,3:2:0:0:
224,154,184554,1,8,3:2:0:0:
262,140,184631,1,8,3:2:0:0:
290,107,184709,2,0,P|340:17|443:17,2,215.999993408203,6|8|0,0:0|0:0|0:0,0:0:0:0:
321,194,185486,1,0,0:0:0:0:
490,84,185642,1,8,0:0:0:0:
509,282,185797,1,0,0:0:0:0:
443,176,185952,6,0,P|447:120|457:51,1,107.999996704102,2|0,0:0|0:0,0:0:0:0:
331,301,186263,2,0,P|327:245|317:176,1,107.999996704102,8|0,0:0|0:0,0:0:0:0:
179,6,186574,6,0,L|173:88,1,53.9999983520508,2|0,0:0|0:0,0:0:0:0:
240,134,186730,1,2,0:0:0:0:
202,155,186807,1,2,0:2:0:0:
158,158,186885,1,10,0:2:0:0:
117,141,186963,1,2,0:2:0:0:
85,111,187041,1,2,0:2:0:0:
45,95,187118,1,2,0:2:0:0:
1,99,187196,6,0,P|-9:200|-7:337,1,215.999993408203,2|8,0:0|0:0,0:0:0:0:
89,370,187662,1,2,0:0:0:0:
91,272,187818,1,2,0:0:0:0:
181,317,187973,1,0,0:0:0:0:
202,155,188129,2,0,P|119:152|67:160,1,107.999996704102,8|0,0:0|0:0,0:0:0:0:
285,362,188440,6,0,P|288:279|280:227,1,107.999996704102,2|0,0:0|0:0,0:0:0:0:
373,80,188750,1,8,0:0:0:0:
504,163,188906,1,0,0:0:0:0:
482,276,189061,1,2,0:0:0:0:
368,193,189217,1,2,0:0:0:0:
493,31,189372,1,10,0:0:0:0:
493,31,189450,1,0,0:0:0:0:
493,31,189528,1,0,0:0:0:0:
373,80,189683,6,0,P|260:63|229:23,1,161.999995056153,2|0,0:0|0:0,0:0:0:0:
157,11,189994,6,0,L|161:100,1,53.9999983520508,10|0,0:0|0:0,0:0:0:0:
74,35,190149,2,0,L|77:99,1,53.9999983520508,2|0,0:0|0:0,0:0:0:0:
4,186,190305,6,0,L|4:262,1,53.9999983520508,2|0,0:0|0:0,0:0:0:0:
89,211,190460,2,0,L|89:287,1,53.9999983520508,2|0,0:0|0:0,0:0:0:0:
253,156,190616,6,0,P|211:153|154:149,1,53.9999983520508,10|0,0:0|0:0,0:0:0:0:
130,353,190771,2,0,B|185:328|185:328|295:386|295:386|361:355,1,251.999992309571,2|0,0:0|0:0,0:0:0:0:
501,195,191237,5,10,0:0:0:0:
388,84,191393,2,0,P|397:124|411:243,1,125.999996154785,2|0,0:0|0:0,0:0:0:0:
169,230,191704,6,0,P|165:111|317:94,1,251.999992309571,2|0,0:0|0:0,0:0:0:0:
357,365,192170,5,2,0:0:0:0:
88,332,192326,1,2,0:0:0:0:
357,365,192481,1,10,0:0:0:0:
357,365,192636,1,2,0:0:0:0:
261,176,192792,6,0,L|277:347,1,125.999996154785,2|0,0:0|0:0,0:0:0:0:
170,26,193103,5,10,0:0:0:0:
68,258,193258,1,2,0:0:0:0:
355,214,193414,1,2,0:0:0:0:
28,89,193569,5,2,0:0:0:0:
222,376,193724,1,10,0:0:0:0:
318,36,193880,2,0,P|258:4|165:37,1,125.999996154785,2|0,0:0|0:0,0:0:0:0:
471,88,194191,5,2,0:0:0:0:
463,131,194269,1,2,0:2:0:0:
455,173,194346,1,10,0:2:0:0:
448,217,194424,1,2,0:2:0:0:
440,260,194502,1,2,0:0:0:0:
68,258,194657,6,0,P|54:170|30:32,2,215.999993408203,6|8|0,0:0|0:0|0:0,0:0:0:0:
32,342,195434,1,2,0:0:0:0:
146,174,195590,1,10,0:0:0:0:
321,242,195745,1,2,0:0:0:0:
383,152,195901,5,2,0:0:0:0:
164,6,196056,2,0,P|264:46|260:181,1,215.999993408203,2|0,0:0|0:0,0:0:0:0:
433,241,196522,5,2,0:0:0:0:
451,80,196678,2,0,P|470:38|540:-1,1,107.999996704102,2|0,0:0|0:0,0:0:0:0:
320,238,196989,5,2,0:0:0:0:
274,253,197066,1,2,0:0:0:0:
228,235,197144,2,0,B|201:217|138:206|126:245|111:286|79:301|37:284,1,215.999993408203,2|8,0:0|0:0,0:0:0:0:
0,30,197611,1,2,0:0:0:0:
45,14,197688,1,2,0:0:0:0:
91,28,197766,1,2,0:0:0:0:
199,71,197921,1,0,0:0:0:0:
155,188,198077,1,8,0:0:0:0:
46,146,198232,2,0,L|45:79,1,53.9999983520508,2|2,0:2|0:2,0:0:0:0:
199,71,198388,5,2,0:0:0:0:
220,67,198465,1,2,0:2:0:0:
241,64,198543,1,2,0:2:0:0:
262,64,198621,1,2,0:2:0:0:
283,68,198699,2,0,L|292:150,1,53.9999983520508,10|0,0:0|0:0,0:0:0:0:
395,78,198854,1,2,0:2:0:0:
395,78,198932,1,2,0:2:0:0:
395,78,199009,2,0,L|386:160,1,53.9999983520508,2|2,0:0|0:2,0:0:0:0:
506,96,199165,2,0,L|491:164,1,53.9999983520508,2|2,0:0|0:2,0:0:0:0:
266,228,199320,6,0,L|354:217,1,53.9999983520508,10|2,0:0|0:2,0:0:0:0:
492,252,199476,2,0,L|414:232,1,53.9999983520508,2|2,0:0|0:2,0:0:0:0:
359,365,199631,5,2,0:0:0:0:
261,332,199787,2,0,P|183:342|142:351,1,107.999996704102,2|8,0:0|0:0,0:0:0:0:
266,228,200098,1,2,0:0:0:0:
126,132,200253,1,2,0:0:0:0:
10,252,200408,1,2,0:0:0:0:
154,348,200564,1,10,0:0:0:0:
246,126,200719,5,2,0:0:0:0:
246,126,200797,1,0,0:0:0:0:
246,126,200875,2,0,P|250:97|257:54,1,53.9999983520508
126,132,201030,5,2,0:0:0:0:
266,228,201186,1,10,0:0:0:0:
386,98,201341,1,2,0:0:0:0:
386,98,201419,1,0,0:0:0:0:
386,98,201497,1,0,0:0:0:0:
462,149,201652,5,2,0:0:0:0:
246,126,201807,1,10,0:0:0:0:
223,349,201963,1,2,0:0:0:0:
309,301,202118,6,0,P|359:292|433:288,1,107.999996704102
115,187,202429,2,0,P|97:234|64:300,1,107.999996704102,8|0,0:0|0:0,0:0:0:0:
316,86,202740,2,0,P|283:46|242:-14,1,107.999996704102
250,198,203051,5,10,0:2:0:0:
250,198,203129,1,2,0:2:0:0:
250,198,203206,1,2,0:2:0:0:
250,198,203284,1,2,0:2:0:0:
250,198,203362,2,0,B|295:117|437:129|437:129|347:169|321:242|321:242|373:208|423:211|423:211|388:245|388:280|388:280|448:297|432:368,1,675,6|0,3:1|0:0,2:0:0:0:
432,365,204605,5,6,0:0:0:0:
268,384,204761,1,0,0:0:0:0:
248,218,204916,1,8,0:0:0:0:
175,284,205072,5,2,0:0:0:0:
342,303,205228,1,0,0:0:0:0:
359,136,205383,1,0,0:0:0:0:
238,101,205538,6,0,P|244:151|248:249,1,116.999994644165,10|0,0:0|0:0,0:0:0:0:
14,57,205849,5,2,0:0:0:0:
113,28,206004,1,0,0:0:0:0:
139,123,206160,1,8,0:0:0:0:
42,152,206315,1,0,0:0:0:0:
305,74,206471,5,10,0:0:0:0:
255,311,206626,1,10,0:0:0:0:
12,255,206781,1,10,0:0:0:0:
255,311,206937,1,10,0:0:0:0:
339,206,207092,6,0,P|386:178|465:175,1,116.999994644165,2|0,0:0|0:0,0:0:0:0:
492,84,207403,1,8,0:0:0:0:
492,84,207481,1,0,0:0:0:0:
492,84,207559,1,2,0:0:0:0:
344,62,207714,1,0,0:0:0:0:
197,35,207870,1,0,0:0:0:0:
281,5,208025,5,10,0:0:0:0:
339,206,208180,1,0,0:0:0:0:
100,26,208336,6,0,P|36:55|10:216,1,233.999989288331,2|8,0:0|0:0,0:0:0:0:
70,274,208802,1,0,0:0:0:0:
70,274,208880,1,0,0:0:0:0:
70,274,208958,1,8,0:0:0:0:
250,160,209113,1,8,0:0:0:0:
182,58,209269,1,8,0:0:0:0:
150,362,209424,1,8,0:0:0:0:
257,328,209579,6,0,P|310:309|401:284,1,116.999994644165,2|0,0:0|0:0,0:0:0:0:
457,347,209890,1,8,0:0:0:0:
491,117,210046,5,2,0:0:0:0:
327,124,210201,1,0,0:0:0:0:
462,231,210357,1,0,0:0:0:0:
410,55,210512,5,10,0:0:0:0:
410,55,210667,1,0,0:0:0:0:
256,211,210823,5,2,0:0:0:0:
293,0,210978,1,0,0:0:0:0:
390,184,211134,1,8,0:0:0:0:
195,87,211289,1,0,0:0:0:0:
321,359,211445,5,2,0:0:0:0:
64,211,211600,1,0,0:0:0:0:
347,170,211756,1,8,0:0:0:0:
158,384,211911,1,0,0:0:0:0:
414,299,212066,5,10,0:0:0:0:
277,258,212222,1,0,0:0:0:0:
478,84,212377,5,8,0:0:0:0:
512,219,212533,1,0,0:0:0:0:
250,136,212688,5,8,0:0:0:0:
352,50,212844,1,0,0:0:0:0:
176,287,212999,5,10,0:0:0:0:
0,99,213155,1,2,0:0:0:0:
254,38,213310,5,2,0:0:0:0:
0,99,213543,5,2,0:0:0:0:
176,287,213776,5,2,0:0:0:0:
248,218,213932,5,2,0:0:0:0:
281,225,214009,1,2,0:2:0:0:
315,231,214087,1,2,0:2:0:0:
349,238,214165,1,2,0:2:0:0:
383,245,214243,1,2,0:2:0:0:
417,251,214320,1,2,0:2:0:0:
451,259,214398,1,2,0:2:0:0:
484,269,214476,1,2,0:2:0:0:
500,299,214554,2,0,P|427:257|457:100,1,233.999989288331,6|8,0:0|0:0,0:0:0:0:
214,26,215020,5,2,0:0:0:0:
344,73,215175,1,0,0:0:0:0:
141,100,215331,1,0,0:0:0:0:
262,314,215486,5,10,0:0:0:0:
231,116,215642,1,0,0:0:0:0:
231,116,215719,1,0,0:0:0:0:
231,116,215797,1,2,0:0:0:0:
171,220,215952,1,0,0:0:0:0:
309,202,216108,1,8,0:0:0:0:
171,220,216263,1,0,0:0:0:0:
374,328,216419,5,10,0:0:0:0:
466,51,216574,1,10,0:0:0:0:
511,308,216730,1,10,0:0:0:0:
330,65,216885,1,10,0:0:0:0:
225,108,217041,6,0,P|156:99|99:82,1,116.999994644165,2|0,0:0|0:0,0:0:0:0:
14,171,217351,1,8,0:0:0:0:
294,278,217507,2,0,P|336:222|379:181,1,116.999994644165,2|0,0:0|0:0,0:0:0:0:
330,65,217818,1,0,0:0:0:0:
110,257,217973,5,10,0:0:0:0:
110,257,218129,1,0,0:0:0:0:
291,379,218284,6,0,B|384:296|430:425|543:327,1,233.999989288331,2|8,0:0|0:0,0:0:0:0:
512,250,218750,1,0,0:0:0:0:
512,250,218828,1,0,0:0:0:0:
512,250,218906,1,8,0:0:0:0:
297,179,219061,1,8,0:0:0:0:
81,104,219217,1,8,0:0:0:0:
297,179,219372,1,8,0:0:0:0:
380,105,219528,5,2,0:0:0:0:
216,152,219683,1,0,0:0:0:0:
339,279,219838,1,8,0:0:0:0:
413,120,219994,5,2,0:0:0:0:
208,119,220149,1,0,0:0:0:0:
308,307,220304,1,0,0:0:0:0:
308,307,220383,1,0,0:0:0:0:
308,307,220460,1,10,0:0:0:0:
320,181,220616,1,0,0:0:0:0:
181,25,220771,5,2,0:0:0:0:
43,113,220927,1,0,0:0:0:0:
139,238,221082,1,8,0:0:0:0:
144,1,221237,5,2,0:0:0:0:
13,146,221393,1,0,0:0:0:0:
164,257,221548,1,0,0:0:0:0:
313,74,221704,5,10,0:0:0:0:
235,341,221859,1,0,0:0:0:0:
98,40,222015,5,0,0:0:0:0:
100,53,222092,1,0,0:0:0:0:
102,66,222170,1,0,0:0:0:0:
103,79,222248,1,0,0:0:0:0:
104,92,222326,1,8,0:0:0:0:
106,105,222403,1,0,0:0:0:0:
108,118,222481,1,0,0:0:0:0:
110,131,222559,1,0,0:0:0:0:
112,144,222636,1,0,0:0:0:0:
114,157,222714,1,0,0:0:0:0:
115,170,222792,1,0,0:0:0:0:
117,183,222870,1,0,0:0:0:0:
118,196,222947,1,8,0:0:0:0:
120,209,223025,1,0,0:0:0:0:
122,222,223103,1,0,0:0:0:0:
124,235,223180,1,0,0:0:0:0:
100,268,223258,5,8,0:0:0:0:
139,290,223336,1,8,0:0:0:0:
184,293,223414,1,8,0:0:0:0:
226,280,223491,1,8,0:0:0:0:
258,249,223569,1,8,0:0:0:0:
265,204,223647,1,8,0:0:0:0:
258,159,223724,1,8,0:0:0:0:
234,120,223802,1,8,0:0:0:0:
251,83,223880,5,8,0:0:0:0:
280,128,223958,1,8,0:0:0:0:
300,177,224035,1,8,0:0:0:0:
298,231,224113,1,8,0:0:0:0:
277,281,224191,1,8,0:0:0:0:
237,317,224268,1,8,0:0:0:0:
184,331,224346,1,8,0:0:0:0:
130,322,224424,1,8,0:0:0:0:
79,301,224502,5,6,0:0:0:0:
19,146,224657,1,0,0:0:0:0:
164,62,224813,1,8,0:0:0:0:
0,242,224968,5,2,0:0:0:0:
73,63,225123,1,0,0:0:0:0:
210,206,225279,1,0,0:0:0:0:
281,139,225434,2,0,P|281:82|187:13,1,135.000005149842,10|0,0:0|0:0,0:0:0:0:
0,341,225745,5,2,0:0:0:0:
0,341,225823,1,0,0:0:0:0:
0,341,225901,1,0,0:0:0:0:
119,381,226056,1,8,0:0:0:0:
219,303,226212,1,0,0:0:0:0:
76,22,226367,5,10,0:0:0:0:
103,246,226522,1,10,0:0:0:0:
326,301,226678,1,10,0:0:0:0:
488,139,226833,1,10,0:0:0:0:
407,84,226989,5,2,0:0:0:0:
255,96,227144,1,0,0:0:0:0:
102,109,227300,1,8,0:0:0:0:
107,195,227455,5,2,0:0:0:0:
251,53,227611,1,0,0:0:0:0:
416,174,227766,1,0,0:0:0:0:
249,11,227921,5,10,0:0:0:0:
260,226,228077,1,0,0:0:0:0:
1,58,228232,6,0,B|111:112|118:-47|255:13,1,270.000010299683,2|8,0:0|0:0,0:0:0:0:
308,94,228699,5,0,0:0:0:0:
476,264,228854,1,8,0:0:0:0:
376,360,229009,5,8,0:0:0:0:
409,11,229165,1,8,0:0:0:0:
376,360,229320,1,8,0:0:0:0:
160,97,229476,6,0,P|89:78|-13:88,1,135.000005149842,2|0,0:0|0:0,0:0:0:0:
196,2,229787,1,8,0:0:0:0:
352,206,229942,2,0,P|454:201|465:38,1,270.000010299683,2|0,0:0|0:0,0:0:0:0:
341,316,230408,1,10,0:0:0:0:
255,80,230564,5,0,0:0:0:0:
205,69,230642,1,0,0:0:0:0:
160,97,230719,1,2,0:0:0:0:
168,274,230875,1,0,0:0:0:0:
341,316,231030,1,8,0:0:0:0:
351,135,231186,1,0,0:0:0:0:
132,81,231341,5,2,0:0:0:0:
346,107,231497,1,0,0:0:0:0:
372,318,231652,1,8,0:0:0:0:
154,303,231807,1,0,0:0:0:0:
238,16,231963,5,10,0:0:0:0:
52,203,232118,1,2,0:0:0:0:
260,384,232274,1,10,0:0:0:0:
444,180,232429,1,2,0:0:0:0:
260,384,232585,1,8,0:0:0:0:
238,16,232740,1,0,0:0:0:0:
505,132,232895,5,10,0:0:0:0:
253,188,233051,1,10,0:0:0:0:
0,243,233206,1,10,0:0:0:0:
0,243,233440,1,10,0:0:0:0:
0,241,233673,1,10,0:0:0:0:
304,0,233828,5,8,0:0:0:0:
324,49,233906,1,8,0:0:0:0:
312,102,233984,1,8,0:0:0:0:
283,145,234061,1,8,0:0:0:0:
241,180,234139,1,8,0:0:0:0:
209,223,234217,1,8,0:0:0:0:
200,275,234294,1,8,0:0:0:0:
216,327,234372,1,8,0:0:0:0:
243,372,234450,2,0,P|360:361|382:227,1,233.999989288331,6|8,0:0|0:0,0:0:0:0:
223,138,234916,5,2,0:0:0:0:
304,295,235072,1,0,0:0:0:0:
223,138,235227,1,0,0:0:0:0:
377,0,235383,5,10,0:0:0:0:
345,102,235538,1,0,0:0:0:0:
103,172,235693,5,2,0:0:0:0:
103,172,235771,1,0,0:0:0:0:
103,172,235849,1,0,0:0:0:0:
134,49,236005,1,8,0:0:0:0:
18,87,236160,1,0,0:0:0:0:
74,301,236315,5,10,0:0:0:0:
371,267,236471,1,10,0:0:0:0:
283,356,236626,1,10,0:0:0:0:
310,75,236782,1,10,0:0:0:0:
395,137,236937,6,0,P|441:168|529:144,1,116.999994644165,2|0,0:0|0:0,0:0:0:0:
407,31,237248,1,8,0:0:0:0:
198,183,237403,2,0,P|152:152|64:176,1,116.999994644165,2|0,0:0|0:0,0:0:0:0:
13,67,237714,1,0,0:0:0:0:
38,262,237870,5,10,0:0:0:0:
17,71,238025,1,0,0:0:0:0:
140,269,238180,6,0,P|263:285|411:325,1,233.999989288331,2|8,0:0|0:0,0:0:0:0:
459,264,238647,1,0,0:0:0:0:
419,57,238802,1,8,0:0:0:0:
216,14,238958,1,8,0:0:0:0:
98,182,239113,1,8,0:0:0:0:
235,344,239269,1,8,0:0:0:0:
232,232,239424,5,2,0:0:0:0:
107,342,239579,1,0,0:0:0:0:
98,182,239735,1,8,0:0:0:0:
252,266,239890,5,2,0:0:0:0:
70,321,240046,1,0,0:0:0:0:
114,141,240201,1,0,0:0:0:0:
338,325,240357,5,10,0:0:0:0:
151,259,240512,1,0,0:0:0:0:
469,118,240667,5,2,0:0:0:0:
512,232,240823,1,0,0:0:0:0:
512,232,240901,1,0,0:0:0:0:
512,232,240978,1,8,0:0:0:0:
437,17,241134,5,2,0:0:0:0:
397,241,241289,1,0,0:0:0:0:
173,195,241445,1,0,0:0:0:0:
241,107,241600,6,0,P|310:95|385:86,1,116.999994644165,10|0,0:0|0:0,0:0:0:0:
330,358,241911,5,8,0:0:0:0:
295,352,241989,1,8,0:0:0:0:
261,347,242066,1,8,0:0:0:0:
227,342,242144,1,8,0:0:0:0:
193,336,242222,1,8,0:0:0:0:
159,329,242300,1,8,0:0:0:0:
125,323,242377,1,8,0:0:0:0:
91,318,242455,1,8,0:0:0:0:
57,342,242533,5,8,0:0:0:0:
22,310,242611,1,8,0:0:0:0:
6,266,242688,1,8,0:0:0:0:
6,219,242766,1,8,0:0:0:0:
15,173,242844,1,8,0:0:0:0:
35,130,242922,1,8,0:0:0:0:
68,99,242999,1,8,0:0:0:0:
103,68,243077,1,8,0:0:0:0:
151,75,243155,6,0,L|257:54,1,80.9999975280763,8|8,0:0|0:0,0:0:0:0:
433,31,243310,2,0,L|454:137,1,80.9999975280763,8|8,0:0|0:0,0:0:0:0:
477,313,243465,2,0,L|371:334,1,80.9999975280763,8|8,0:0|0:0,0:0:0:0:
195,357,243621,2,0,L|174:251,1,80.9999975280763,8|8,0:0|0:0,0:0:0:0:
319,173,243776,5,8,0:0:0:0:
327,198,243854,1,8,0:0:0:0:
306,208,243932,1,8,0:0:0:0:
296,184,244009,1,8,0:0:0:0:
333,173,244087,5,8,0:0:0:0:
331,211,244165,1,8,0:0:0:0:
293,212,244243,1,8,0:0:0:0:
291,170,244320,1,8,0:0:0:0:
313,191,244398,5,4,0:0:0:0:
256,192,244476,12,4,248206,0:0:0:0:
256,192,248284,12,0,249372,0:0:0:0:
