osu file format v14

[General]
AudioFilename: audio.mp3
AudioLeadIn: 0
PreviewTime: 51530
Countdown: 0
SampleSet: Soft
StackLeniency: 0.7
Mode: 0
LetterboxInBreaks: 0
WidescreenStoryboard: 1

[Editor]
Bookmarks: 11368,13768,23368,32968,42568,52168,61768,71368,80968,83368,92968,102568,112168,121768,131368,140968,150568,152968,162568,172168,181768,191368,196168,205768,215368,224968,234568,244168,253768,263368
DistanceSpacing: 1
BeatDivisor: 4
GridSize: 32
TimelineZoom: 1.5

[Metadata]
Title:call my name
TitleUnicode:call my name
Artist:Yousei Teikoku
ArtistUnicode:妖精帝國
Creator:Lasse
Version:Normal
Source:
Tags:japanese rock gothic lolita agitator
BeatmapID:3771996
BeatmapSetID:1837052

[Difficulty]
HPDrainRate:3
CircleSize:3.4
OverallDifficulty:5
ApproachRate:6
SliderMultiplier:0.999999999999999
SliderTickRate:1

[Events]
//Background and Video events
0,0,"76354058_p0-1.jpg",0,0
//Break Periods
2,11568,12718
2,81168,81868
2,153168,170818
2,191567,192718
//Storyboard Layer 0 (Background)
//Storyboard Layer 1 (Fail)
//Storyboard Layer 2 (Pass)
//Storyboard Layer 3 (Foreground)
//Storyboard Layer 4 (Overlay)
//Storyboard Sound Samples

[TimingPoints]
-3032,300,4,2,1,70,1,0
568,-100,4,2,1,60,0,0
1768,-111.111111111111,4,2,2,70,0,0
11368,-111.111111111111,4,2,3,70,0,0
11968,-111.111111111111,4,2,1,70,0,0
13768,-142.857142857143,4,2,99,45,0,0
13843,-142.857142857143,4,2,1,40,0,0
23368,-142.857142857143,4,2,99,45,0,0
23443,-142.857142857143,4,2,1,40,0,0
32968,-125,4,2,3,50,0,0
33043,-125,4,2,1,50,0,0
42568,-125,4,2,3,55,0,0
42643,-125,4,2,1,55,0,0
47668,-125,4,2,1,55,0,0
49768,-111.111111111111,4,2,1,60,0,0
51568,-111.111111111111,4,2,1,65,0,0
52168,-100,4,2,3,72,0,1
52243,-100,4,2,2,72,0,1
61768,-100,4,2,3,72,0,1
61843,-100,4,2,2,72,0,1
71368,-111.111111111111,4,2,2,70,0,0
74293,-111.111111111111,4,2,2,40,0,0
74368,-111.111111111111,4,2,2,70,0,0
80968,-111.111111111111,4,2,3,70,0,0
82918,-111.111111111111,4,2,1,50,0,0
83368,-111.111111111111,4,2,3,55,0,0
83443,-111.111111111111,4,2,1,55,0,0
92968,-111.111111111111,4,2,3,55,0,0
93043,-111.111111111111,4,2,1,55,0,0
102568,-100,4,2,3,60,0,0
102643,-100,4,2,2,60,0,0
112168,-100,4,2,3,60,0,0
112243,-100,4,2,2,60,0,0
114793,-100,4,2,2,30,0,0
114868,-100,4,2,2,60,0,0
117193,-100,4,2,2,30,0,0
117268,-100,4,2,2,60,0,0
119368,-100,4,2,2,65,0,0
121168,-100,4,2,2,70,0,0
121318,-100,4,2,1,70,0,0
121768,-90.9090909090908,4,1,3,75,0,1
121843,-90.9090909090908,4,1,2,75,0,1
131368,-90.9090909090908,4,1,3,75,0,1
131443,-90.9090909090908,4,1,2,75,0,1
138568,-90.9090909090908,4,1,2,75,0,1
140218,-90.9090909090908,4,1,1,72,0,1
140968,-111.111111111111,4,2,2,70,0,0
143893,-111.111111111111,4,2,2,40,0,0
143968,-111.111111111111,4,2,2,70,0,0
150568,-111.111111111111,4,2,3,70,0,0
152968,-111.111111111111,4,2,99,40,0,0
153043,-111.111111111111,4,2,1,40,0,0
171868,-111.111111111111,4,2,1,45,0,0
172168,-111.111111111111,4,2,2,52,0,0
181768,-111.111111111111,4,2,2,55,0,0
191068,-111.111111111111,4,2,1,55,0,0
191218,-111.111111111111,4,2,2,55,0,0
191368,-111.111111111111,4,2,99,60,0,0
193768,-111.111111111111,4,2,1,60,0,0
194968,-111.111111111111,4,2,99,60,0,0
196168,-90.9090909090908,4,1,3,75,0,1
196243,-90.9090909090908,4,1,2,75,0,1
205768,-90.9090909090908,4,1,3,75,0,1
205843,-90.9090909090908,4,1,2,75,0,1
212968,-90.9090909090908,4,1,2,75,0,1
214618,-90.9090909090908,4,1,2,75,0,1
215330,-90.9090909090908,4,1,2,75,0,0
215368,-90.9090909090908,4,1,3,78,0,1
215443,-90.9090909090908,4,1,2,78,0,1
215668,-90.9090909090908,4,1,2,78,0,1
224968,-90.9090909090908,4,1,3,78,0,1
225043,-90.9090909090908,4,1,2,78,0,1
232168,-90.9090909090908,4,1,2,78,0,1
233818,-90.9090909090908,4,1,1,78,0,1
234568,-100,4,2,2,72,0,0
239593,-100,4,2,2,30,0,0
239668,-100,4,2,2,72,0,0
253768,-100,4,2,99,72,0,0
253843,-100,4,2,99,50,0,0
254968,-100,4,2,99,45,0,0
256168,-100,4,2,99,40,0,0
257368,-100,4,2,99,35,0,0
258568,-100,4,2,99,30,0,0
259768,-100,4,2,99,25,0,0
260968,-100,4,2,99,20,0,0
262168,-100,4,2,99,15,0,0
263368,-100,4,2,99,17,0,0

[Colours]
Combo1 : 240,140,140
Combo2 : 200,180,220
Combo3 : 240,200,155
Combo4 : 150,185,220

[HitObjects]
0,67,1768,6,0,P|43:56|103:57,1,89.999997253418,4|0,1:2|1:2,0:0:0:0:
159,110,2368,2,0,L|143:198,1,89.999997253418,14|0,0:1|1:0,0:0:0:0:
169,235,2818,2,0,L|153:323,2,89.999997253418,8|0|0,2:0|1:0|1:0,0:0:0:0:
213,225,3568,1,10,0:2:0:0:
283,280,3868,1,0,1:0:0:0:
353,224,4168,6,0,L|369:136,1,89.999997253418,4|0,1:2|1:0,0:0:0:0:
446,88,4768,1,10,0:1:0:0:
484,169,5068,1,8,0:0:0:0:
484,169,5218,2,0,L|468:257,1,89.999997253418,6|8,1:1|2:3,0:0:0:0:
479,301,5668,1,8,0:0:0:0:
430,376,5968,1,8,0:0:0:0:
352,330,6268,1,8,0:0:0:0:
268,363,6568,6,0,P|222:363|171:334,1,89.999997253418,4|0,1:2|1:0,0:0:0:0:
119,279,7168,2,0,L|117:178,1,89.999997253418,14|0,0:1|1:0,0:0:0:0:
148,157,7618,2,0,L|146:56,2,89.999997253418,8|0|0,0:0|1:0|1:0,0:0:0:0:
187,179,8368,1,10,0:0:0:0:
273,154,8668,1,0,1:0:0:0:
349,200,8968,6,0,B|396:210|396:210|443:185,1,89.999997253418,4|0,1:0|1:0,0:0:0:0:
496,126,9568,1,10,2:1:0:0:
441,61,9868,1,8,0:0:0:0:
441,61,10018,2,0,B|397:51|397:51|347:76,1,89.999997253418,6|8,1:1|0:3,0:0:0:0:
314,88,10468,1,8,0:0:0:0:
235,44,10768,1,8,0:0:0:0:
174,110,11068,1,4,0:3:0:0:
97,62,11368,1,12,1:2:0:0:
104,289,13768,6,0,P|173:333|463:217,1,419.999987182617,12|8,0:2|0:0,0:0:0:0:
408,95,16168,2,0,P|339:51|49:167,1,419.999987182617,0|8,1:0|0:0,0:0:0:0:
104,290,18568,6,0,B|126:341|183:354|183:354|220:305|273:315|273:315|285:263|247:226|217:259|167:203|185:143,1,419.999987182617,0|8,1:0|0:0,0:0:0:0:
326,143,20968,2,0,B|345:203|295:259|265:226|227:263|239:315|239:315|292:305|329:354|329:354|386:341|407:290,1,419.999987182617,0|8,1:0|0:0,0:0:0:0:
474,167,23368,6,0,B|480:142|491:124|491:124|489:102|457:16|352:27|352:27|390:82|375:154|326:194,1,419.999987182617,12|8,0:2|0:0,0:0:0:0:
186,194,25768,2,0,B|137:154|122:82|160:27|160:27|55:16|23:102|21:124|21:124|32:142|38:167,1,419.999987182617,0|8,1:0|0:0,0:0:0:0:
71,303,28168,6,0,B|273:358|273:358|438:222,1,419.999987182617,0|8,1:0|0:0,0:0:0:0:
441,81,30568,2,0,B|239:26|239:26|74:162,1,419.999987182617,0|8,1:0|0:0,0:0:0:0:
68,319,32968,6,0,L|149:340,1,79.9999999999999,12|0,1:2|2:0,0:0:0:0:
222,318,33568,2,0,L|303:339,1,79.9999999999999,8|0,0:0|0:0,0:0:0:0:
377,320,34168,2,0,P|393:275|395:229,1,79.9999999999999,2|0,0:0|1:0,0:0:0:0:
377,213,34618,1,0,0:0:0:0:
377,213,34768,2,0,B|330:197|330:197|284:235|223:207,1,160,8|0,0:0|1:0,0:0:0:0:
150,235,35668,5,2,1:2:0:0:
101,171,35968,2,0,P|107:131|127:95,1,79.9999999999999,8|0,0:0|2:0,0:0:0:0:
191,51,36568,2,0,P|224:69|275:73,1,79.9999999999999,2|0,0:0|1:0,0:0:0:0:
306,93,37018,1,0,0:0:0:0:
306,93,37168,2,0,P|343:88|442:163,1,160,8|0,0:0|1:0,0:0:0:0:
470,310,38368,6,0,L|385:288,1,79.9999999999999,8|0,0:0|0:0,0:0:0:0:
318,320,38968,2,0,L|233:298,1,79.9999999999999,2|0,0:0|1:0,0:0:0:0:
204,317,39418,1,0,0:0:0:0:
204,317,39568,2,0,B|199:224|234:250|231:161,1,160,8|0,0:0|1:0,0:0:0:0:
285,102,40468,5,2,1:2:0:0:
231,42,40768,2,0,P|196:29|145:29,1,79.9999999999999,8|0,0:0|0:0,0:0:0:0:
84,68,41368,2,0,L|71:159,1,79.9999999999999,2|0,0:0|1:0,0:0:0:0:
51,182,41818,1,0,0:0:0:0:
51,182,41968,2,0,L|38:273,1,79.9999999999999,8|0,0:0|0:0,0:0:0:0:
78,337,42568,6,0,P|127:346|163:340,1,79.9999999999999,12|0,1:2|0:0,0:0:0:0:
231,370,43168,2,0,P|270:366|309:374,1,79.9999999999999,8|0,0:0|0:0,0:0:0:0:
385,350,43768,2,0,P|424:353|463:345,1,79.9999999999999,2|0,0:0|1:0,0:0:0:0:
490,315,44218,1,0,0:0:0:0:
490,315,44368,2,0,L|465:142,1,160,8|0,0:0|1:0,0:0:0:0:
393,124,45268,5,2,1:2:0:0:
356,194,45568,2,0,L|367:273,1,79.9999999999999,8|0,0:0|0:0,0:0:0:0:
312,331,46168,2,0,P|262:333|225:318,1,79.9999999999999,2|0,0:0|1:0,0:0:0:0:
198,340,46618,1,0,0:0:0:0:
198,340,46768,2,0,B|109:308|132:370|31:330,1,160,8|0,0:0|1:0,0:0:0:0:
8,261,47668,6,0,L|22:169,1,79.9999999999999,2|8,0:0|0:0,0:0:0:0:
74,123,48268,1,0,1:2:0:0:
74,123,48418,2,0,P|107:131|161:116,1,79.9999999999999
189,109,48868,1,2,1:2:0:0:
206,187,49168,1,8,0:0:0:0:
284,172,49468,1,0,0:0:0:0:
343,239,49768,6,0,L|333:330,1,89.999997253418,6|0,1:2|1:0,0:0:0:0:
414,366,50368,2,0,L|424:275,1,89.999997253418,10|0,0:0|1:0,0:0:0:0:
465,258,50818,1,8,0:0:0:0:
465,258,50968,2,2,B|480:215|480:215|464:166,1,89.999997253418,12|0,0:0|1:0,0:1:0:0:
394,117,51568,1,10,0:0:0:0:
313,157,51868,1,8,0:3:0:0:
221,116,52168,6,0,L|232:-4,2,99.9999999999999,12|0|8,1:1|1:0|0:0,0:0:0:0:
194,212,53068,1,2,1:2:0:0:
95,216,53368,1,6,1:2:0:0:
60,123,53668,1,0,1:0:0:0:
137,61,53968,1,10,0:2:0:0:
221,116,54268,1,0,1:0:0:0:
194,212,54568,6,0,P|191:264|210:317,1,99.9999999999999,6|0,1:2|1:0,0:0:0:0:
291,359,55168,2,0,L|401:343,1,99.9999999999999,8|0,0:0|1:0,0:0:0:0:
437,359,55618,1,8,0:0:0:0:
437,359,55768,2,0,P|451:311|448:261,1,99.9999999999999,2|4,1:2|1:2,0:0:0:0:
381,186,56368,2,0,L|282:171,1,99.9999999999999,10|0,0:0|1:0,0:0:0:0:
239,197,56818,5,2,3:2:0:0:
239,197,56968,2,0,B|193:206|193:206|140:182,2,99.9999999999999,4|0|8,1:2|1:0|0:0,0:0:0:0:
318,135,57868,1,2,1:2:0:0:
412,173,58168,1,6,1:2:0:0:
426,273,58468,1,0,1:0:0:0:
346,335,58768,1,8,0:0:0:0:
252,297,59068,1,0,1:0:0:0:
239,197,59368,6,0,B|233:163|233:163|239:142|239:142|230:85,1,99.9999999999999,2|0,1:2|1:0,0:0:0:0:
153,36,59968,2,0,P|113:30|42:66,1,99.9999999999999,8|0,0:0|1:0,0:0:0:0:
43,98,60418,1,8,0:0:0:0:
43,98,60568,2,0,B|49:141|49:141|43:162|43:162|49:196,1,99.9999999999999,2|4,1:2|1:0,0:0:0:0:
116,270,61168,2,0,P|156:276|227:240,1,99.9999999999999,10|4,0:0|0:3,0:0:0:0:
260,262,61618,5,8,0:0:0:0:
260,262,61768,2,0,P|262:200|279:160,1,99.9999999999999,12|0,1:0|1:2,0:0:0:0:
362,115,62368,2,0,L|484:112,2,99.9999999999999,8|0|0,0:0|1:0|1:0,0:0:0:0:
296,39,63268,1,4,1:2:0:0:
209,89,63568,1,10,0:0:0:0:
275,165,63868,1,0,1:0:0:0:
194,224,64168,6,0,L|83:204,1,99.9999999999999,6|0,1:2|1:0,1:0:0:0:
51,225,64618,1,2,0:0:0:0:
51,225,64768,2,0,P|31:269|33:320,1,99.9999999999999,8|0,0:0|1:0,0:0:0:0:
120,369,65368,2,0,B|164:364|164:364|177:355|177:355|231:349,1,99.9999999999999,6|8,1:2|0:0,0:0:0:0:
315,365,65968,2,0,B|359:360|359:360|372:351|372:351|426:345,1,99.9999999999999,8|2,0:0|1:2,0:0:0:0:
453,319,66418,5,8,0:0:0:0:
453,319,66568,2,0,P|451:263|431:218,1,99.9999999999999,4|0,1:0|1:2,0:0:0:0:
360,154,67168,2,0,L|374:55,2,99.9999999999999,8|0|0,0:0|1:0|1:0,0:0:0:0:
270,197,68068,1,6,1:2:0:0:
276,296,68368,1,8,0:0:0:0:
186,339,68668,1,0,1:0:0:0:
104,281,68968,6,0,P|97:234|114:172,1,99.9999999999999,6|0,1:2|1:0,0:0:0:0:
150,154,69418,2,0,B|199:164|199:164|255:138,1,99.9999999999999,2|0,2:0|0:0,0:0:0:0:
291,124,69868,1,2,1:2:0:0:
349,43,70168,1,4,1:2:0:0:
443,73,70468,1,8,0:0:0:0:
443,172,70768,1,12,0:0:0:0:
350,203,71068,1,4,0:3:0:0:
291,124,71368,6,0,B|251:106|251:106|202:112,1,89.999997253418,4|0,1:2|1:2,0:0:0:0:
136,169,71968,2,0,L|120:257,1,89.999997253418,14|0,0:1|1:0,0:0:0:0:
90,292,72418,2,0,L|74:380,2,89.999997253418,8|0|0,2:0|1:0|1:0,0:0:0:0:
69,251,73168,1,10,0:2:0:0:
4,188,73468,1,0,1:0:0:0:
69,126,73768,6,0,L|85:38,1,89.999997253418,4|0,1:2|1:0,0:0:0:0:
171,12,74368,1,10,0:1:0:0:
244,73,74668,1,8,0:0:0:0:
244,73,74818,2,0,B|281:91|281:91|332:78,1,89.999997253418,6|8,1:1|2:3,0:0:0:0:
361,109,75268,1,8,0:0:0:0:
446,81,75568,1,8,0:0:0:0:
499,153,75868,1,8,0:0:0:0:
442,223,76168,6,0,P|398:222|351:190,1,89.999997253418,4|0,1:2|1:0,0:0:0:0:
272,222,76768,2,0,P|227:220|189:198,1,89.999997253418,14|0,0:1|1:0,0:0:0:0:
157,166,77218,2,0,L|167:61,2,89.999997253418,8|0|0,0:0|1:0|1:0,0:0:0:0:
129,201,77968,1,10,0:0:0:0:
51,154,78268,1,0,1:0:0:0:
7,232,78568,6,0,P|4:274|23:323,1,89.999997253418,4|0,1:0|1:0,0:0:0:0:
94,368,79168,1,10,2:1:0:0:
178,330,79468,1,8,0:0:0:0:
178,330,79618,2,0,B|219:310|219:310|264:322,1,89.999997253418,6|8,1:1|0:3,0:0:0:0:
304,337,80068,1,8,0:0:0:0:
380,289,80368,1,8,0:0:0:0:
337,209,80668,1,4,0:3:0:0:
413,161,80968,1,12,1:2:0:0:
350,56,82918,5,8,0:3:0:0:
350,56,83068,2,0,B|307:62|307:62|256:39,1,89.999997253418,12|12,0:0|0:1,0:0:0:0:
201,107,83668,5,10,0:0:0:0:
121,64,83968,2,0,B|78:44|78:44|35:50,2,89.999997253418,2|8|0,3:3|0:0|1:0,0:0:0:0:
201,107,84868,1,10,0:0:0:0:
144,176,85168,1,2,2:3:0:0:
64,133,85468,1,8,0:0:0:0:
7,202,85768,1,0,1:0:0:0:
87,245,86068,6,0,B|129:264|129:264|172:258,1,89.999997253418,10|2,0:0|3:0,0:0:0:0:
248,208,86668,1,8,0:0:0:0:
248,208,86818,2,0,L|263:104,1,89.999997253418,2|0,1:2|1:0,0:0:0:0:
297,92,87268,1,10,0:0:0:0:
352,21,87568,1,2,3:3:0:0:
433,59,87868,1,8,0:0:0:0:
378,130,88168,1,0,1:0:0:0:
450,184,88468,6,0,B|467:231|467:231|451:280,1,89.999997253418,10|2,0:0|3:0,0:0:0:0:
440,314,88918,1,0,1:0:0:0:
440,314,89068,2,0,B|344:300,1,89.999997253418,8|0,0:0|1:0,0:0:0:0:
272,257,89668,1,10,0:0:0:0:
239,341,89968,1,2,3:0:0:0:
161,297,90268,1,8,0:0:0:0:
128,381,90568,1,0,1:0:0:0:
50,337,90868,6,0,B|39:296|39:296|57:237,1,89.999997253418,10|2,0:0|3:0,0:0:0:0:
121,191,91468,1,8,0:0:0:0:
121,191,91618,2,0,B|156:207|156:207|220:196,1,89.999997253418,2|0,1:2|1:0,0:0:0:0:
249,182,92068,1,8,0:0:0:0:
278,267,92368,1,2,3:0:0:0:
361,232,92668,1,8,0:0:0:0:
390,317,92968,1,12,1:2:0:0:
473,282,93268,6,0,B|487:241|487:241|471:182,1,89.999997253418,10|2,0:0|3:0,0:0:0:0:
420,123,93868,2,0,L|319:95,1,89.999997253418,8|0,0:0|1:0,0:0:0:0:
256,145,94468,1,10,0:0:0:0:
188,87,94768,1,2,3:0:0:0:
223,4,95068,1,8,0:0:0:0:
313,12,95368,1,0,1:0:0:0:
333,98,95668,6,0,B|326:132|326:132|332:148|332:148|320:199,1,89.999997253418,10|2,0:0|3:0,0:0:0:0:
296,274,96268,1,8,0:0:0:0:
296,274,96418,2,0,P|254:277|205:255,1,89.999997253418,2|0,1:2|1:0,0:0:0:0:
186,221,96868,1,10,0:0:0:0:
116,278,97168,1,2,3:3:0:0:
51,214,97468,2,0,L|-1:216,2,44.999998626709,8|8|0,0:0|0:0|1:0,0:0:0:0:
120,156,98068,6,0,B|128:126|128:126|126:111|126:111|135:65,1,89.999997253418,10|2,0:0|3:3,0:0:0:0:
172,43,98518,1,0,1:0:0:0:
172,43,98668,2,0,P|204:41|267:63,1,89.999997253418,8|0,0:0|1:0,0:0:0:0:
346,38,99268,1,10,0:0:0:0:
389,116,99568,1,2,3:0:0:0:
301,135,99868,1,8,0:0:0:0:
258,57,100168,1,0,1:0:0:0:
168,56,100468,6,0,B|145:96|145:96|146:146,1,89.999997253418,10|2,0:0|3:0,0:0:0:0:
172,230,101068,1,8,0:0:0:0:
172,230,101218,2,0,B|205:242|205:242|219:241|219:241|272:260,1,89.999997253418,2|0,1:2|1:0,0:0:0:0:
279,294,101668,1,8,0:0:0:0:
356,248,101968,1,4,0:3:0:0:
396,328,102268,1,8,0:0:0:0:
471,262,102568,6,0,B|491:213|491:213|474:170,1,99.9999999999999,12|8,1:0|0:0,0:0:0:0:
426,80,103168,1,2,1:2:0:0:
326,80,103468,1,8,0:0:0:0:
283,170,103768,2,0,B|266:213|266:213|286:262,1,99.9999999999999,2|8,1:2|0:2,0:2:0:0:
317,302,104218,1,2,0:2:0:0:
317,302,104368,2,0,L|430:290,2,99.9999999999999,0|8|0,1:2|0:2|1:2,0:2:0:0:
228,351,105268,6,0,B|178:360|178:360|121:327,1,99.9999999999999,10|0,0:2|1:2,0:2:0:0:
97,364,105718,1,0,1:2:0:0:
97,364,105868,1,8,0:2:0:0:
19,301,106168,2,0,P|21:247|57:192,1,99.9999999999999,2|8,1:2|0:2,0:2:0:0:
88,186,106618,1,2,1:2:0:0:
88,186,106768,2,0,L|190:209,1,99.9999999999999,0|8,0:0|0:2,0:0:0:0:
260,273,107368,6,0,B|304:294|304:294|358:281,1,99.9999999999999,0|8,1:2|0:2,0:2:0:0:
450,308,107968,1,2,1:2:0:0:
498,220,108268,1,8,0:2:0:0:
447,133,108568,2,0,B|403:112|403:112|349:125,1,99.9999999999999,2|8,1:2|0:2,0:2:0:0:
323,165,109018,1,2,0:2:0:0:
323,165,109168,2,0,L|328:273,2,99.9999999999999,8|8|4,2:3|0:2|2:3,0:0:0:0:
273,78,110068,5,10,0:2:0:0:
191,136,110368,1,0,1:2:0:0:
122,63,110668,1,8,0:2:0:0:
38,118,110968,2,0,P|23:168|33:226,1,99.9999999999999,2|8,1:2|0:2,0:0:0:0:
61,259,111418,1,0,0:2:0:0:
61,259,111568,2,0,L|172:249,1,99.9999999999999,8|8,2:3|0:2,0:0:0:0:
246,316,112168,6,0,L|357:306,1,99.9999999999999,12|8,1:0|0:0,0:0:0:0:
439,341,112768,1,0,1:2:0:0:
469,245,113068,1,8,0:2:0:0:
375,211,113368,2,0,B|365:178|365:178|372:157|372:157|358:106,1,99.9999999999999,2|8,1:2|0:2,0:2:0:0:
368,69,113818,1,2,0:2:0:0:
368,69,113968,2,0,P|413:48|462:50,2,99.9999999999999,0|8|0,1:2|0:2|1:2,0:2:0:0:
307,148,114868,6,0,P|261:168|212:166,1,99.9999999999999,10|0,0:2|1:2,0:2:0:0:
167,155,115318,1,0,1:2:0:0:
167,155,115468,1,8,0:2:0:0:
79,203,115768,2,0,P|62:236|65:310,1,99.9999999999999,2|8,1:2|0:2,0:2:0:0:
97,339,116218,1,0,0:2:0:0:
97,339,116368,2,0,L|199:362,2,99.9999999999999,8|8|12,2:3|0:2|0:2,0:0:0:0:
27,267,117268,5,10,0:2:0:0:
109,211,117568,1,0,1:2:0:0:
43,142,117868,1,8,0:2:0:0:
43,142,118018,2,0,B|44:93|44:93|74:51,1,99.9999999999999,4|0,1:2|1:2,0:2:0:0:
122,37,118468,1,8,0:2:0:0:
209,85,118768,1,8,0:3:0:0:
287,23,119068,1,8,0:2:0:0:
382,51,119368,6,0,B|412:92|412:92|413:141,1,99.9999999999999,12|8,2:2|0:2,0:0:0:0:
455,231,119968,2,0,L|525:250,2,50,8|8|8,0:3|0:3|0:2,0:0:0:0:
384,301,120568,1,6,1:2:0:0:
299,248,120868,1,8,0:2:0:0:
240,328,121168,1,12,0:2:0:0:
158,270,121468,1,8,0:2:0:0:
77,344,121768,6,0,B|56:349|56:349|12:330|24:261,2,110.000003356934,14|8|0,0:1|0:0|0:0,0:1:0:0:
182,375,122668,1,10,0:2:0:0:
235,278,122968,1,6,0:1:0:0:
130,247,123268,1,8,0:0:0:0:
183,150,123568,1,2,0:2:0:0:
288,181,123868,1,8,0:0:0:0:
344,86,124168,6,0,B|391:62|391:62|455:84,1,110.000003356934,6|10,0:1|0:2,0:0:0:0:
505,173,124768,2,0,L|492:296,1,110.000003356934,2|10,0:1|0:2,0:0:0:0:
474,336,125218,1,0,0:0:0:0:
474,336,125368,2,0,B|419:354|419:354|372:330,1,110.000003356934,2|14,0:0|0:2,0:0:0:0:
302,245,125968,2,0,L|315:122,1,110.000003356934,2|8,0:2|0:0,0:0:0:0:
300,86,126418,5,0,0:0:0:0:
300,86,126568,2,0,B|253:62|253:62|198:80,2,110.000003356934,6|8|0,0:1|0:0|0:2,0:1:0:0:
407,61,127468,1,10,0:2:0:0:
464,156,127768,1,6,0:1:0:0:
391,239,128068,1,8,0:0:0:0:
289,195,128368,1,2,0:2:0:0:
215,278,128668,1,8,0:0:0:0:
271,374,128968,6,0,P|327:377|383:345,1,110.000003356934,6|10,0:1|0:2,0:0:0:0:
445,268,129568,2,0,B|433:228|433:228|436:199|436:199|422:142,1,110.000003356934,2|10,0:1|0:2,0:0:0:0:
447,112,130018,1,0,0:0:0:0:
447,112,130168,2,0,P|398:88|343:91,1,110.000003356934,2|12,0:0|0:0,0:0:0:0:
240,51,130768,2,0,P|185:53|136:29,1,110.000003356934,2|8,0:0|0:2,0:0:0:0:
89,52,131218,5,8,0:0:0:0:
89,52,131368,2,8,P|62:94|54:156,1,110.000003356934,14|8,0:1|0:2,0:0:0:0:
82,259,131968,2,0,L|60:376,2,110.000003356934,2|8|2,0:2|0:0|0:1,0:0:0:0:
174,199,132868,1,14,0:2:0:0:
212,301,133168,1,2,0:0:0:0:
300,236,133468,1,10,0:2:0:0:
348,334,133768,6,0,B|399:358|399:358|455:343,1,110.000003356934,6|8,0:1|0:0,0:0:0:0:
487,303,134218,1,2,0:2:0:0:
487,303,134368,2,0,L|467:180,1,110.000003356934,2|10,0:1|0:2,0:0:0:0:
372,141,134968,2,0,B|307:131|331:170|256:160,1,110.000003356934,6|8,0:1|0:0,0:0:0:0:
204,252,135568,2,0,B|139:242|163:281|88:271,1,110.000003356934,0|10,0:0|0:2,0:0:0:0:
54,302,136018,5,0,0:0:0:0:
54,302,136168,2,0,P|39:248|57:183,1,110.000003356934,6|10,0:1|0:2,0:0:0:0:
132,122,136768,2,0,L|127:4,2,110.000003356934,0|8|2,0:0|0:0|0:2,0:0:0:0:
222,186,137668,1,14,0:2:0:0:
302,111,137968,1,2,0:2:0:0:
392,174,138268,1,10,0:2:0:0:
492,128,138568,6,0,P|499:81|460:28,1,110.000003356934,6|8,0:0|0:0,0:0:0:0:
410,34,139018,2,0,B|361:63|361:63|300:49,1,110.000003356934,2|0,0:0|0:0,0:0:0:0:
265,84,139468,1,10,0:2:0:0:
171,25,139768,1,2,0:2:0:0:
62,49,140068,1,8,0:0:0:0:
3,143,140368,1,8,0:3:0:0:
27,252,140668,1,8,0:0:0:0:
121,312,140968,6,0,B|217:304,1,89.999997253418,4|0,1:2|1:2,0:0:0:0:
280,248,141568,2,0,B|270:216|284:190|271:150,1,89.999997253418,14|0,0:1|1:0,0:0:0:0:
244,123,142018,2,0,B|234:91|248:65|235:25,2,89.999997253418,8|0|0,2:0|1:0|1:0,0:0:0:0:
210,152,142768,1,10,0:2:0:0:
127,116,143068,1,0,1:0:0:0:
57,172,143368,6,0,P|45:215|47:260,1,89.999997253418,4|0,1:2|1:0,0:0:0:0:
68,347,143968,1,10,0:1:0:0:
156,362,144268,1,8,0:0:0:0:
156,362,144418,2,0,B|247:349,1,89.999997253418,6|8,1:1|2:3,0:0:0:0:
282,324,144868,1,8,0:0:0:0:
362,364,145168,1,8,0:0:0:0:
417,292,145468,1,8,0:0:0:0:
337,252,145768,6,0,B|332:225|332:225|340:196|340:196|331:154,1,89.999997253418,4|0,1:2|1:0,0:0:0:0:
270,99,146368,2,0,B|225:106|225:106|184:91,1,89.999997253418,14|0,0:1|1:0,0:0:0:0:
139,99,146818,2,0,B|98:84|98:84|53:91,2,89.999997253418,8|0|0,0:0|1:0|1:0,0:0:0:0:
172,129,147568,1,10,0:0:0:0:
110,194,147868,1,0,1:0:0:0:
154,272,148168,6,0,B|195:287|195:287|240:280,1,89.999997253418,4|0,1:0|1:0,0:0:0:0:
322,241,148768,1,10,2:1:0:0:
273,171,149068,1,8,0:0:0:0:
273,171,149218,2,0,P|269:127|286:72,1,89.999997253418,6|8,1:1|0:3,0:0:0:0:
305,45,149668,1,8,0:0:0:0:
392,25,149968,1,8,0:0:0:0:
452,90,150268,1,4,0:3:0:0:
425,174,150568,1,12,1:2:0:0:
256,192,152968,5,12,2:2:0:0:
23,288,171868,5,8,0:0:0:0:
88,349,172168,2,0,P|130:347|180:330,1,89.999997253418,4|0,1:2|1:0,0:0:0:0:
244,275,172768,1,10,0:0:0:0:
197,204,173068,1,0,1:0:0:0:
197,204,173218,2,0,P|181:145|188:107,1,89.999997253418,8|0,0:0|1:0,0:0:0:0:
202,75,173668,1,2,0:0:0:0:
291,86,173968,1,8,2:0:0:0:
366,36,174268,1,0,1:0:0:0:
450,67,174568,6,0,P|466:126|459:164,1,89.999997253418,4|0,1:2|1:0,0:0:0:0:
399,218,175168,2,0,L|300:208,1,89.999997253418,10|0,0:0|1:0,0:0:0:0:
229,167,175768,2,0,L|130:157,1,89.999997253418,2|8,0:0|0:0,0:0:0:0:
102,180,176218,1,4,0:3:0:0:
102,180,176368,2,0,P|87:222|89:266,1,89.999997253418,8|8,0:0|0:0,0:0:0:0:
159,323,176968,6,0,L|248:332,1,89.999997253418,4|0,1:2|1:0,0:0:0:0:
332,365,177568,2,0,L|421:374,1,89.999997253418,10|0,0:0|1:0,0:0:0:0:
500,329,178168,2,0,P|502:284|487:242,1,89.999997253418,2|0,0:0|0:0,0:0:0:0:
452,213,178618,1,0,1:0:0:0:
452,213,178768,2,8,P|393:211|356:192,1,89.999997253418,8|0,0:0|1:0,0:0:0:0:
286,241,179368,6,0,P|244:225|199:226,1,89.999997253418,12|0,2:0|1:0,0:0:0:0:
110,242,179968,1,8,0:0:0:0:
42,191,180268,1,8,0:0:0:0:
42,191,180418,2,0,P|39:146|54:104,1,89.999997253418,4|8,1:2|0:3,0:0:0:0:
94,82,180868,2,0,P|134:89|186:75,1,89.999997253418,8|8,0:0|0:0,0:0:0:0:
264,20,181468,5,8,0:0:0:0:
321,88,181768,2,0,L|312:193,1,89.999997253418,4|0,1:2|1:0,0:0:0:0:
258,248,182368,1,10,0:0:0:0:
314,324,182668,1,0,1:0:0:0:
314,324,182818,2,0,P|348:335|417:325,1,89.999997253418,8|0,0:0|1:0,0:0:0:0:
436,358,183268,1,2,0:0:0:0:
490,286,183568,1,8,0:0:0:0:
456,202,183868,1,0,1:0:0:0:
367,185,184168,6,0,L|268:187,1,89.999997253418,6|0,1:2|1:0,0:0:0:0:
191,157,184768,2,0,L|85:159,1,89.999997253418,8|8,0:0|0:0,0:0:0:0:
65,186,185218,2,0,P|56:229|64:280,1,89.999997253418,4|8,1:2|0:3,0:0:0:0:
91,308,185668,2,0,L|180:306,1,89.999997253418,8|8,0:0|0:0,0:0:0:0:
253,358,186268,1,8,0:0:0:0:
332,316,186568,6,0,P|338:271|329:227,1,89.999997253418,4|0,1:2|1:0,0:0:0:0:
253,178,187168,2,0,L|160:173,1,89.999997253418,8|0,0:0|1:0,0:0:0:0:
126,147,187618,1,8,0:0:0:0:
126,147,187768,2,0,P|119:102|128:58,1,89.999997253418
206,15,188368,2,0,L|295:19,1,89.999997253418,10|0,0:0|1:0,0:0:0:0:
358,84,188968,6,0,L|447:88,1,89.999997253418,4|0,1:2|1:0,0:0:0:0:
502,160,189568,1,8,0:0:0:0:
458,238,189868,1,8,0:0:0:0:
458,238,190018,2,0,L|368:233,1,89.999997253418,4|8,1:2|0:3,0:0:0:0:
327,253,190468,2,0,L|237:248,1,89.999997253418,8|8,0:0|0:0,0:0:0:0:
151,298,191068,6,0,L|139:355,2,44.999998626709,4|4|12,0:3|0:3|2:2,0:0:0:0:
179,189,193768,5,6,1:2:0:0:
234,118,194068,1,2,1:1:0:0:
319,149,194368,1,14,0:2:0:0:
316,239,194668,1,2,0:1:0:0:
229,263,194968,1,12,1:2:0:0:
41,147,196168,6,0,B|29:107|29:107|53:42,2,110.000003356934,14|8|0,0:1|0:0|0:0,0:1:0:0:
124,218,197068,1,10,0:2:0:0:
223,170,197368,1,6,0:1:0:0:
140,99,197668,1,8,0:0:0:0:
239,51,197968,1,2,0:2:0:0:
322,122,198268,1,8,0:0:0:0:
223,170,198568,6,0,P|201:226|219:284,1,110.000003356934,6|10,0:1|0:2,0:0:0:0:
288,352,199168,2,0,L|410:345,1,110.000003356934,2|10,0:1|0:2,0:0:0:0:
455,335,199618,1,0,0:0:0:0:
455,335,199768,2,0,P|465:281|443:232,1,110.000003356934,2|14,0:0|0:2,0:0:0:0:
360,159,200368,2,0,L|250:165,1,110.000003356934,2|8,0:2|0:0,0:0:0:0:
205,196,200818,5,0,0:0:0:0:
205,196,200968,2,0,L|95:202,2,110.000003356934,6|8|0,0:1|0:0|0:2,0:1:0:0:
308,234,201868,1,10,0:2:0:0:
304,344,202168,1,6,0:1:0:0:
198,374,202468,1,8,0:0:0:0:
136,282,202768,1,2,0:2:0:0:
205,196,203068,1,8,0:0:0:0:
308,234,203368,6,0,B|364:247|364:247|422:213,1,110.000003356934,6|10,0:1|0:2,0:0:0:0:
499,157,203968,2,0,B|466:35,1,110.000003356934,2|10,0:1|0:2,0:0:0:0:
424,31,204418,1,0,0:0:0:0:
424,31,204568,2,0,B|378:57|378:57|322:44,1,110.000003356934,2|12,0:0|0:0,0:0:0:0:
222,90,205168,2,0,B|166:103|166:103|120:77,1,110.000003356934,2|8,0:0|0:2,0:0:0:0:
69,89,205618,5,8,0:0:0:0:
69,89,205768,2,8,P|37:141|44:197,1,110.000003356934,14|8,0:1|0:2,0:0:0:0:
116,267,206368,2,0,L|94:384,2,110.000003356934,2|8|2,0:2|0:0|0:1,0:0:0:0:
211,211,207268,1,14,0:2:0:0:
284,292,207568,1,2,0:0:0:0:
379,236,207868,1,10,0:2:0:0:
306,155,208168,6,0,B|287:132|287:132|281:83|325:49,1,110.000003356934,6|8,0:1|0:0,0:0:0:0:
359,28,208618,1,2,0:2:0:0:
359,28,208768,2,0,L|473:51,1,110.000003356934,0|10,0:0|0:2,0:0:0:0:
501,154,209368,2,0,B|485:188|485:188|494:222|494:222|476:263,1,110.000003356934,6|8,0:1|0:0,0:0:0:0:
414,345,209968,2,0,L|300:322,1,110.000003356934,0|10,0:0|0:2,0:0:0:0:
261,353,210418,5,0,0:0:0:0:
261,353,210568,2,0,L|147:330,1,110.000003356934,6|10,0:1|0:2,0:0:0:0:
107,230,211168,2,0,L|-7:207,2,110.000003356934,2|8|2,0:2|0:0|0:2,0:0:0:0:
177,145,212068,1,14,0:2:0:0:
256,220,212368,1,2,0:2:0:0:
335,145,212668,1,10,0:2:0:0:
406,230,212968,6,0,B|461:239|461:239|494:174,1,110.000003356934,6|8,0:0|0:0,0:0:0:0:
498,136,213418,2,0,B|475:106|494:69|494:69|472:27,1,110.000003356934,2|0,0:0|0:0,0:0:0:0:
422,19,213868,1,10,0:2:0:0:
347,99,214168,1,2,0:2:0:0:
256,36,214468,1,8,0:0:0:0:
165,99,214768,1,8,0:3:0:0:
90,19,215068,1,8,0:0:0:0:
21,105,215368,6,0,P|5:157|27:218,2,110.000003356934,14|8|0,1:0|0:0|0:0,0:0:0:0:
90,19,216268,1,10,0:2:0:0:
165,99,216568,1,6,0:1:0:0:
256,36,216868,1,10,0:2:0:0:
347,99,217168,1,2,0:1:0:0:
422,19,217468,1,10,0:2:0:0:
491,105,217768,6,0,P|507:157|485:218,1,110.000003356934,6|10,0:1|0:2,0:0:0:0:
418,291,218368,2,0,L|304:273,1,110.000003356934,2|10,0:1|0:2,0:0:0:0:
258,286,218818,1,0,0:0:0:0:
258,286,218968,2,0,B|250:262|250:262|264:213|264:213|251:171,1,110.000003356934,2|12,0:1|0:0,0:0:0:0:
196,86,219568,2,0,P|146:69|84:92,1,110.000003356934,0|8,0:0|0:0,0:0:0:0:
60,130,220018,5,8,0:0:0:0:
60,130,220168,2,0,B|50:162|50:162|64:211|64:211|56:235,2,110.000003356934,6|8|0,0:0|0:0|0:0,0:0:0:0:
128,43,221068,1,10,0:2:0:0:
238,58,221368,1,6,0:1:0:0:
280,161,221668,1,8,0:0:0:0:
212,248,221968,1,2,0:2:0:0:
253,350,222268,1,8,0:0:0:0:
361,365,222568,6,0,B|398:356|398:356|432:378|476:363,1,110.000003356934,6|10,0:1|0:2,0:0:0:0:
497,259,223168,2,0,B|485:219|485:219|489:185|489:185|474:133,1,110.000003356934,2|2,0:1|0:2,0:0:0:0:
442,119,223618,1,4,0:0:0:0:
442,119,223768,2,0,B|405:110|405:110|371:132|327:117,1,110.000003356934,0|8,0:0|0:0,0:0:0:0:
245,182,224368,2,0,B|209:169|175:191|175:191|138:182,1,110.000003356934,2|10,0:0|0:1,0:0:0:0:
88,193,224818,5,8,0:2:0:0:
88,193,224968,2,0,P|78:142|100:72,2,110.000003356934,14|8|2,0:0|0:0|0:2,0:0:0:0:
149,284,225868,2,0,L|261:282,1,110.000003356934,8|0,0:0|0:0,0:0:0:0:
337,359,226468,1,14,0:2:0:0:
432,304,226768,1,2,0:0:0:0:
353,227,227068,1,10,0:2:0:0:
447,171,227368,6,0,B|462:119|462:119|440:67,1,110.000003356934,6|8,0:1|0:0,0:0:0:0:
400,38,227818,1,2,0:2:0:0:
400,38,227968,2,0,L|278:52,1,110.000003356934,2|10,0:1|0:2,0:0:0:0:
211,126,228568,2,0,L|89:140,1,110.000003356934,6|8,0:1|0:0,0:0:0:0:
32,224,229168,2,0,B|17:276|17:276|38:327,1,110.000003356934,0|10,0:0|0:2,0:0:0:0:
87,362,229618,5,0,0:0:0:0:
87,362,229768,2,0,L|196:349,1,110.000003356934,6|10,0:1|0:2,0:0:0:0:
254,255,230368,2,0,B|246:215|246:215|253:187|253:187|244:136,2,110.000003356934,0|8|2,0:0|0:2|0:2,0:0:0:0:
343,319,231268,1,14,0:2:0:0:
432,255,231568,1,2,0:2:0:0:
398,150,231868,1,10,0:2:0:0:
287,149,232168,6,0,B|231:158|231:158|177:128,1,110.000003356934,6|8,0:0|0:0,0:0:0:0:
146,172,232618,2,0,B|99:146|99:146|43:155,1,110.000003356934,2|0,0:0|0:0,0:0:0:0:
20,204,233068,1,10,0:1:0:0:
89,289,233368,1,2,0:1:0:0:
190,246,233668,1,8,0:0:0:0:
259,331,233968,1,8,0:0:0:0:
360,288,234268,1,8,0:2:0:0:
429,373,234568,6,0,B|477:377|477:377|503:325,1,99.9999999999999,6|8,1:2|0:0,0:0:0:0:
507,230,235168,2,0,B|497:196|497:196|500:174|500:174|490:132,1,99.9999999999999,6|8,1:1|0:0,0:0:0:0:
455,103,235618,2,0,B|407:118|407:118|349:81,1,99.9999999999999,0|0,1:0|1:0,0:0:0:0:
321,66,236068,1,8,0:0:0:0:
255,141,236368,1,2,1:2:0:0:
191,66,236668,1,8,0:0:0:0:
97,101,236968,6,0,P|76:143|79:205,1,99.9999999999999,4|8,1:2|0:0,0:0:0:0:
122,283,237568,2,0,L|239:296,1,99.9999999999999,2|8,1:1|0:0,0:0:0:0:
262,322,238018,2,0,L|379:335,1,99.9999999999999,6|0,1:1|1:0,0:0:0:0:
397,368,238468,1,8,0:0:0:0:
493,340,238768,1,8,2:3:0:0:
496,240,239068,1,8,0:0:0:0:
401,206,239368,6,0,B|350:213|350:213|306:185,1,99.9999999999999,4|8,1:0|0:0,0:0:0:0:
216,225,239968,2,0,B|165:232|165:232|121:204,1,99.9999999999999,6|8,1:1|0:0,0:0:0:0:
100,161,240418,2,0,L|134:65,1,99.9999999999999,0|0,1:0|1:0,0:0:0:0:
170,33,240868,1,8,0:0:0:0:
256,83,241168,1,2,1:2:0:0:
342,33,241468,1,8,0:0:0:0:
434,72,241768,6,0,B|448:118|448:118|431:169,1,99.9999999999999,4|8,1:2|0:0,0:0:0:0:
486,251,242368,2,0,B|500:297|500:297|483:348,1,99.9999999999999,2|8,1:1|0:0,0:0:0:0:
438,368,242818,2,0,B|338:354,1,99.9999999999999,6|0,1:1|1:0,0:0:0:0:
290,366,243268,1,8,0:0:0:0:
202,316,243568,1,8,2:3:0:0:
222,216,243868,1,8,0:0:0:0:
323,204,244168,6,0,B|345:161|345:161|333:110,1,99.9999999999999,4|8,1:0|0:0,0:0:0:0:
262,40,244768,2,0,L|158:25,1,99.9999999999999,6|8,1:1|0:0,0:0:0:0:
121,53,245218,2,0,B|99:102|99:102|115:166,1,99.9999999999999,0|0,1:0|1:0,0:0:0:0:
141,186,245668,1,8,0:0:0:0:
52,232,245968,1,2,1:2:0:0:
68,330,246268,1,8,0:0:0:0:
166,345,246568,6,0,L|270:329,1,99.9999999999999,4|8,1:0|0:0,0:0:0:0:
354,374,247168,2,0,L|458:358,1,99.9999999999999,2|8,1:0|0:0,0:0:0:0:
483,319,247618,2,0,P|487:266|454:212,1,99.9999999999999,6|0,1:0|1:0,0:0:0:0:
431,188,248068,1,8,0:0:0:0:
343,236,248368,1,8,0:3:0:0:
256,185,248668,1,8,0:0:0:0:
169,236,248968,6,0,B|119:252|119:252|69:226,1,99.9999999999999,4|8,1:0|0:0,0:0:0:0:
12,153,249568,2,0,L|38:50,1,99.9999999999999,6|8,1:0|0:0,0:0:0:0:
83,37,250018,2,0,B|125:58|125:58|175:42,1,99.9999999999999,0|0,1:0|1:0,0:0:0:0:
218,18,250468,1,8,0:0:0:0:
294,82,250768,1,2,1:2:0:0:
243,168,251068,1,8,0:0:0:0:
319,232,251368,6,0,B|354:238|354:238|379:223|379:223|425:229,1,99.9999999999999,4|8,1:0|0:0,0:0:0:0:
479,303,251968,2,0,B|472:343|433:350|433:350|397:336,1,99.9999999999999,2|8,1:1|0:0,0:0:0:0:
355,344,252418,2,0,B|319:339|319:339|294:354|294:354|259:348,1,99.9999999999999,6|0,1:0|1:0,0:0:0:0:
218,320,252868,1,8,0:0:0:0:
129,366,253168,1,8,0:3:0:0:
85,275,253468,1,8,0:0:0:0:
174,229,253768,1,12,1:2:0:0:
