osu file format v14

[General]
AudioFilename: audio.mp3
AudioLeadIn: 0
PreviewTime: 158465
Countdown: 0
SampleSet: Drum
StackLeniency: 0.5
Mode: 0
LetterboxInBreaks: 0
WidescreenStoryboard: 1

[Editor]
Bookmarks: 148865,176301
DistanceSpacing: 0.7
BeatDivisor: 4
GridSize: 32
TimelineZoom: 1.9

[Metadata]
Title:Zetsu
TitleUnicode:絶
Artist:Yousei Teikoku
ArtistUnicode:妖精帝國
Creator:IsomirDiAngelo
Version:Zelq's Insane
Source:
Tags:zelq lmt mazzerin shirahane suou metal japanese age of villains yui ituski fairy empire das feenreich
BeatmapID:2929652
BeatmapSetID:1262446

[Difficulty]
HPDrainRate:7
CircleSize:4
OverallDifficulty:8
ApproachRate:9
SliderMultiplier:1.8
SliderTickRate:1

[Events]
//Background and Video events
0,0,"1689245f-1a43-44e5-c4f7-9c42872eae3c.png",0,0
//Break Periods
//Storyboard Layer 0 (Background)
//Storyboard Layer 1 (Fail)
//Storyboard Layer 2 (Pass)
//Storyboard Layer 3 (Foreground)
//Storyboard Layer 4 (Overlay)
//Storyboard Sound Samples

[TimingPoints]
625,255.31914893617,4,3,1,80,1,0
625,-142.857142857143,4,3,1,80,0,0
880,230.769230769231,4,3,1,80,1,0
995,-142.857142857143,4,3,1,80,0,0
1226,230.769230769231,4,3,1,80,1,1
1456,-100,4,3,2,80,0,1
3995,-100,4,3,1,80,0,1
5149,-111.111111111111,4,3,1,80,0,0
5379,215.827338129496,4,3,1,80,1,0
5594,236.686390532544,4,3,1,80,1,0
5712,-111.111111111111,4,3,1,80,0,0
6540,230.769230769231,4,3,1,80,1,0
6655,-111.111111111111,4,3,1,80,0,0
6770,230.769230769231,4,3,1,80,1,0
12308,224.719101123595,4,3,1,80,1,0
12420,-125,4,3,1,80,0,0
12757,238.095238095238,4,3,1,80,1,0
13352,229.007633587786,4,3,1,80,1,0
13924,266.666666666667,4,3,1,80,1,0
13924,-83.3333333333333,4,3,1,80,0,0
14190,206.896551724138,4,3,1,80,1,0
14500,-111.111111111111,4,3,1,80,0,0
14603,315.789473684211,4,3,1,80,1,0
14760,206.896551724138,4,3,1,80,1,0
15070,235.294117647059,4,3,1,80,1,0
15070,-111.111111111111,4,3,1,80,0,0
15305,230.769230769231,4,3,1,80,1,0
15651,-83.3333333333333,4,3,1,80,0,0
15997,230.769230769231,4,3,1,80,1,0
16227,-111.111111111111,4,3,1,80,0,0
17727,-142.857142857143,4,3,1,80,0,0
17788,-142.857142857143,4,3,1,5,0,0
19230,-142.857142857143,4,3,1,80,0,0
19342,-142.857142857143,4,3,8,80,0,0
19573,-125,4,3,1,80,0,0
23266,-100,4,3,1,80,0,0
23843,-125,4,3,1,80,0,0
26958,-111.111111111111,4,3,1,80,0,0
27650,-125,4,3,1,80,0,0
30246,-125,4,3,1,5,0,0
30420,-125,4,3,1,80,0,0
30477,-125,4,3,1,5,0,0
30650,-125,4,3,1,80,0,0
30707,-125,4,3,1,5,0,0
30881,-125,4,3,1,80,0,0
30997,-100,4,3,1,80,0,0
31458,-111.111111111111,4,3,1,80,0,0
32150,-90.9090909090909,4,3,1,80,0,0
32497,-111.111111111111,4,3,1,80,0,0
34343,-99.9999999999999,4,3,1,80,0,0
34689,-111.111111111111,4,3,1,80,0,0
36019,-111.111111111111,4,3,1,5,0,0
36073,-111.111111111111,4,3,1,80,0,0
37112,-83.3333333333333,4,3,1,80,0,0
37169,-83.3333333333333,4,3,1,5,0,0
37343,-83.3333333333333,4,3,1,80,0,0
37400,-83.3333333333333,4,3,1,5,0,0
37573,-83.3333333333333,4,3,1,80,0,0
37630,-83.3333333333333,4,3,1,5,0,0
37804,-83.3333333333333,4,3,1,80,0,0
37861,-83.3333333333333,4,3,1,5,0,0
38035,-83.3333333333333,4,3,1,80,0,0
38092,-83.3333333333333,4,3,1,5,0,0
38266,-83.3333333333333,4,3,1,80,0,0
38323,-83.3333333333333,4,3,1,5,0,0
38497,-83.3333333333333,4,3,1,80,0,0
38554,-83.3333333333333,4,3,1,5,0,0
38727,-83.3333333333333,4,3,1,80,0,0
38784,-83.3333333333333,4,3,1,5,0,0
38958,-76.9230769230769,4,3,1,80,0,0
39015,-76.9230769230769,4,3,1,5,0,0
39189,-76.9230769230769,4,3,1,80,0,0
39246,-76.9230769230769,4,3,1,5,0,0
39420,-76.9230769230769,4,3,1,80,0,0
39477,-76.9230769230769,4,3,1,5,0,0
39650,-76.9230769230769,4,3,1,80,0,0
39707,-76.9230769230769,4,3,1,5,0,0
39881,-76.9230769230769,4,3,1,80,0,0
39938,-76.9230769230769,4,3,1,5,0,0
40054,-125,4,3,1,80,0,0
40279,-125,4,3,1,5,0,0
40343,-83.3333333333333,4,3,1,80,0,0
40400,-83.3333333333333,4,3,1,5,0,0
40573,-83.3333333333333,4,3,1,80,0,0
40630,-83.3333333333333,4,3,1,5,0,0
40804,-83.3333333333333,4,3,1,80,0,0
40861,-83.3333333333333,4,3,1,5,0,0
41035,-83.3333333333333,4,3,1,80,0,0
41092,-83.3333333333333,4,3,1,5,0,0
41266,270.27027027027,4,3,1,80,1,0
41266,-83.3333333333333,4,3,1,80,0,0
41671,319.148936170213,4,3,8,80,1,0
41830,255.31914893617,4,3,8,80,1,0
41957,307.692307692308,4,3,1,80,1,1
42264,271.493212669683,4,3,1,80,1,1
42399,279.06976744186,4,3,1,80,1,1
42538,315.789473684211,4,3,1,80,1,1
42695,285.714285714286,4,3,1,80,1,1
43123,315.789473684211,4,3,1,80,1,1
43438,270.27027027027,4,3,1,80,1,1
43708,319.148936170213,4,3,1,80,1,1
43867,255.31914893617,4,3,1,80,1,1
43994,315.789473684211,4,3,1,80,1,1
44309,226.415094339623,4,3,1,80,1,1
44422,260.869565217391,4,3,1,80,1,1
44682,307.692307692308,4,3,1,80,1,1
44989,279.06976744186,4,3,1,80,1,1
45268,292.682926829268,4,3,1,80,1,1
45560,289.855072463768,4,3,1,80,1,1
46429,279.06976744186,4,3,1,80,1,1
46708,281.69014084507,4,3,1,80,1,1
46989,300,4,3,1,80,1,1
47139,288.461538461538,4,3,1,80,1,1
47571,283.018867924528,4,3,1,80,1,0
47854,327.868852459016,4,3,1,80,1,0
48345,255.31914893617,4,3,8,80,1,0
48345,-125,4,3,8,80,0,0
48855,247.422680412371,4,3,8,80,1,0
49349,250,4,3,8,80,1,0
49599,-111.111111111111,4,3,8,80,0,0
50349,-111.111111111111,4,3,1,80,0,0
50849,-111.111111111111,4,3,8,80,0,0
54349,-111.111111111111,4,3,1,80,0,0
54849,-111.111111111111,4,3,8,80,0,0
56349,-111.111111111111,4,3,1,80,0,0
56515,-111.111111111111,4,3,8,80,0,0
60682,-111.111111111111,4,3,1,80,0,0
60849,-111.111111111111,4,3,8,80,0,0
61182,-111.111111111111,4,3,1,80,0,0
61349,260.869565217391,4,3,1,60,1,0
67218,-100,4,3,1,70,0,0
67609,-100,4,3,1,80,0,0
69305,-100,4,3,1,70,0,0
69696,-100,4,3,1,80,0,0
70088,-100,4,3,1,70,0,0
70870,-142.857142857143,4,3,1,70,0,0
71783,-142.857142857143,4,3,1,80,0,0
72175,-142.857142857143,4,3,1,70,0,0
72827,246.913580246914,4,3,1,80,1,0
72950,-142.857142857143,4,3,1,80,0,0
73320,266.666666666667,4,3,1,80,1,0
73720,292.682926829268,4,3,1,80,1,0
73866,230.769230769231,4,3,1,80,1,0
74096,-142.857142857143,4,3,1,90,0,0
74558,-142.857142857143,4,3,1,80,0,0
74789,-142.857142857143,4,3,1,90,0,0
75250,-142.857142857143,4,3,1,80,0,0
75942,-142.857142857143,4,3,1,90,0,0
77096,-142.857142857143,4,3,1,80,0,0
77558,-142.857142857143,4,3,1,90,0,0
78019,-142.857142857143,4,3,1,80,0,0
78250,-142.857142857143,4,3,1,90,0,0
78712,-142.857142857143,4,3,1,80,0,0
79404,-142.857142857143,4,3,1,90,0,0
80558,-142.857142857143,4,3,1,80,0,0
81999,-142.857142857143,4,3,1,90,0,0
82404,-142.857142857143,4,3,1,80,0,0
83789,-142.857142857143,4,3,1,90,0,0
84712,-142.857142857143,4,3,1,80,0,0
86789,-142.857142857143,4,3,1,90,0,0
87788,-142.857142857143,4,3,1,5,0,0
87942,-142.857142857143,4,3,8,90,0,0
88018,-142.857142857143,4,3,8,5,0,0
88173,-142.857142857143,4,3,8,90,0,0
88249,-142.857142857143,4,3,8,5,0,0
88404,-142.857142857143,4,3,8,90,0,0
88480,-142.857142857143,4,3,8,5,0,0
88635,-142.857142857143,4,3,1,90,0,0
95558,-142.857142857143,4,3,8,80,0,0
95789,-142.857142857143,4,3,8,100,0,0
96019,-125,4,3,1,90,0,0
102712,-125,4,3,8,80,0,0
103404,-111.111111111111,4,3,1,80,0,0
110789,461.538461538462,4,3,1,80,1,0
110789,-66.6666666666667,4,3,1,80,0,0
124635,-76.9230769230769,4,3,1,80,0,0
125327,421.052631578947,4,3,1,80,1,0
125327,-142.857142857143,4,3,1,80,0,0
126590,333.333333333333,4,3,1,80,1,0
126923,342.857142857143,4,3,1,80,1,0
126923,-83.3333333333333,4,3,1,80,0,0
132580,-76.9230769230769,4,3,1,80,0,0
137894,-83.3333333333333,4,3,1,80,0,0
148865,-100,4,3,1,100,0,0
150236,-100,4,3,1,80,0,0
152808,-100,4,3,2,80,0,0
159837,-90.9090909090909,4,3,2,80,0,0
160865,-90.9090909090909,4,3,1,80,0,0
164980,-90.9090909090909,4,3,2,80,0,0
165323,-90.9090909090909,4,3,1,80,0,0
171151,-83.3333333333333,4,3,1,80,0,0
171494,-83.3333333333333,4,3,1,83,0,0
172180,-83.3333333333333,4,3,1,86,0,0
172865,-83.3333333333333,4,3,1,89,0,0
173551,344.827586206897,4,3,1,92,1,1
174240,-100,4,3,1,95,0,0
174585,-83.3333333333333,4,3,1,95,0,0
174930,342.857142857143,4,3,1,97,1,1
174930,-83.3333333333333,4,3,1,97,0,1
175272,-100,4,3,1,97,0,1
175615,-83.3333333333333,4,3,2,100,0,0
176301,342.857142857143,5,3,1,80,1,0
181443,333.333333333333,5,3,1,80,1,0
181776,342.857142857143,5,3,1,80,1,0
182632,-100,5,3,8,80,0,0
183147,333.333333333333,5,3,1,80,1,0
184147,342.857142857143,5,3,1,80,1,0
184832,333.333333333333,5,3,1,80,1,0
185498,352.941176470588,5,3,1,80,1,0
185850,342.857142857143,5,3,1,80,1,0
186535,333.333333333333,5,3,1,80,1,0
187201,342.857142857143,5,3,1,80,1,0
188229,333.333333333333,5,3,1,80,1,0
189229,342.857142857143,5,3,1,80,1,0
189914,324.324324324324,5,3,1,80,1,0
190238,352.941176470588,5,3,1,80,1,0
190414,307.692307692308,5,3,1,80,1,0
190721,382.165605095541,5,3,1,80,1,0
190912,335.195530726257,5,3,1,80,1,0
191247,338.983050847458,5,3,1,80,1,0
191416,-100,5,3,2,80,0,0
191585,333.333333333333,5,3,1,80,1,1
191585,-83.3333333333333,5,3,1,80,0,1
196585,346.820809248555,3,3,1,80,1,0
196845,361.44578313253,3,3,1,80,1,0
197116,340.909090909091,3,3,8,80,1,0
197627,333.333333333333,5,3,1,80,1,1
202627,333.333333333333,3,3,1,80,1,0
203627,342.857142857143,3,3,1,80,1,0
203884,361.44578313253,3,3,1,80,1,0
204155,355.029585798817,3,3,1,80,1,0
204687,322.58064516129,5,3,1,90,1,1
204687,-83.3333333333333,5,3,1,90,0,1
204767,-83.3333333333333,5,3,1,80,0,1
205009,-83.3333333333333,5,3,1,80,0,1
207912,324.324324324324,5,3,1,80,1,1
207912,-83.3333333333333,5,3,1,80,0,1
209533,329.67032967033,3,3,1,80,1,0
209533,-76.9230769230769,3,3,1,80,0,0
209615,-76.9230769230769,3,3,1,5,0,0
209752,-76.9230769230769,3,3,1,80,0,0
209834,-76.9230769230769,3,3,1,5,0,0
210027,322.58064516129,3,3,1,80,1,0
210027,-90.9090909090909,3,3,1,80,0,0
210510,322.58064516129,3,3,1,80,1,0
210510,-111.111111111111,3,3,1,80,0,0
210590,-111.111111111111,3,3,1,5,0,0
210751,-111.111111111111,3,3,1,80,0,0
210831,-111.111111111111,3,3,1,5,0,0
210993,-133.333333333333,3,3,1,80,0,0
211073,-133.333333333333,3,3,1,5,0,0
211235,-133.333333333333,3,3,1,80,0,0
211315,-133.333333333333,3,3,1,5,0,0
211477,327.868852459016,3,3,1,80,1,0
211477,-153.846153846154,3,3,1,80,0,0
211558,-153.846153846154,3,3,1,5,0,0
211722,-153.846153846153,3,3,1,80,0,0
211803,-153.846153846153,3,3,1,5,0,0
211968,320.855614973262,3,3,1,80,1,0
212128,307.692307692308,4,3,1,80,1,1
213051,315.789473684211,4,3,1,80,1,0
213682,320.855614973262,4,3,1,80,1,0
213682,-71.4285714285714,4,3,1,80,0,0
214083,-71.4285714285714,4,3,1,80,0,1
214162,230.769230769231,4,3,1,80,1,0
214162,-125,4,3,1,80,0,0
214277,230.769230769231,4,3,1,80,1,0
214277,-125,4,3,1,80,0,0
215430,-125,4,3,1,80,0,0
217968,-125,4,3,2,80,0,0

[Colours]
Combo1 : 231,201,97
Combo2 : 192,192,192
Combo3 : 240,147,189
Combo4 : 227,72,72

[HitObjects]
57,58,625,6,0,L|187:32,1,125.999996154785,12|0,3:0|3:0,3:0:0:0:
245,102,995,2,0,P|241:42|174:13,1,125.999996154785,8|12,3:0|3:0,3:0:0:0:
57,58,1456,5,12,3:0:0:0:
55,79,1572,1,12,3:0:0:0:
36,226,1802,1,12,3:0:0:0:
180,175,2033,1,12,3:0:0:0:
328,116,2264,1,12,3:0:0:0:
325,142,2379,1,12,3:0:0:0:
208,277,2610,5,12,3:0:0:0:
167,256,2726,1,12,3:0:0:0:
155,212,2841,1,0,3:0:0:0:
180,175,2956,1,12,3:0:0:0:
316,224,3187,1,12,3:0:0:0:
469,275,3418,1,12,3:0:0:0:
281,328,3649,1,12,3:0:0:0:
99,375,3995,1,14,3:0:0:0:
83,304,4226,6,0,B|186:228|323:372|429:302,1,360,6|0,3:0|3:0,3:0:0:0:
469,275,4802,2,0,P|455:317|458:364,1,90,6|0,3:0|3:0,3:0:0:0:
328,116,5149,6,0,B|320:90|320:90|333:37,1,81.0000000000001,8|0,3:0|3:0,3:0:0:0:
420,0,5379,1,0,3:0:0:0:
482,40,5486,1,0,3:0:0:0:
437,99,5594,1,8,3:0:0:0:
476,163,5712,2,0,B|487:142|487:142|462:5,1,162,2|0,3:0|3:0,3:0:0:0:
333,37,6067,6,0,P|290:40|253:23,1,81.0000000000001,8|0,3:0|3:0,3:0:0:0:
190,82,6304,1,0,3:0:0:0:
250,211,6422,2,0,P|264:174|250:137,1,80.9999975280763,0|8,3:0|3:0,3:0:0:0:
111,105,6655,6,0,B|30:118|30:118|-10:78|21:26,1,161.999995056153,6|0,3:0|3:0,3:0:0:0:
161,13,7000,2,0,P|188:41|190:80,1,90,8|0,3:0|3:0,3:0:0:0:
104,185,7231,2,0,L|12:203,1,90,0|0,3:0|3:0,3:0:0:0:
152,312,7462,2,0,P|172:278|161:240,1,90,8|0,3:0|3:0,3:0:0:0:
0,335,7693,5,0,3:0:0:0:
90,350,7808,1,0,3:0:0:0:
173,361,7923,1,8,3:0:0:0:
251,372,8039,1,0,3:0:0:0:
325,382,8154,2,0,B|349:367|349:367|317:329|263:353|263:353|241:336|244:304,1,180,0|8,3:0|3:0,3:0:0:0:
355,209,8500,6,0,P|422:238|399:308,1,180,6|0,3:0|3:0,3:0:0:0:
307,260,8846,1,8,3:0:0:0:
328,188,8962,1,0,3:0:0:0:
294,124,9077,1,0,3:0:0:0:
338,64,9193,2,0,L|418:75,1,90,0|8,3:0|3:0,3:0:0:0:
280,15,9423,6,0,L|120:43,1,180,2|0,3:0|3:0,3:0:0:0:
55,157,9770,2,0,P|36:83|101:45,1,180,8|0,3:0|3:0,3:0:0:0:
184,131,10116,1,0,3:0:0:0:
129,189,10231,1,2,3:0:0:0:
55,158,10346,6,0,L|233:176,1,180,6|0,3:0|3:0,3:0:0:0:
294,138,10693,2,0,P|290:99|261:72,1,90,8|0,3:0|3:0,3:0:0:0:
229,276,10923,2,0,P|269:276|310:257,1,90,0|0,3:0|3:0,3:0:0:0:
495,229,11154,2,0,P|455:226|427:198,1,90,8|0,3:0|3:0,3:0:0:0:
508,58,11385,2,0,L|493:121,8,45,8|8|0|0|8|8|0|0|8,3:0|3:0|3:0|3:0|3:0|3:0|3:0|3:0|3:0,3:0:0:0:
452,0,11962,5,2,3:0:0:0:
405,290,12193,5,4,3:0:0:0:
229,276,12420,6,0,L|220:320,1,36,0|0,3:0|3:0,3:0:0:0:
219,329,12532,2,0,L|148:342,2,72.3204,0|0|8,3:0|3:0|3:0,3:0:0:0:
382,384,12995,1,0,3:0:0:0:
294,138,13233,5,0,3:0:0:0:
231,182,13352,2,0,B|160:207|151:87|60:120,1,180,8|0,3:0|3:0,3:0:0:0:
6,200,13810,5,0,3:0:0:0:
81,224,13924,2,0,B|185:200|119:90|241:67,1,215.999993408203,8|0,3:0|3:0,3:0:0:0:
424,122,14396,5,0,3:0:0:0:
389,52,14500,2,0,P|318:76|327:198,1,203,8|0,3:0|3:0,3:0:0:0:
396,242,14966,5,0,3:0:0:0:
326,287,15070,2,0,P|250:258|171:241,1,161.999995056153,8|0,3:0|3:0,3:0:0:0:
81,373,15535,5,0,3:0:0:0:
156,326,15651,2,0,P|256:286|362:266,1,216,8|4,3:0|3:0,3:0:0:0:
512,331,16112,5,0,3:0:0:0:
450,381,16227,2,0,P|419:369|411:317,1,81.0000000000001,10|0,3:0|3:0,3:0:0:0:
480,249,16458,2,0,P|495:218|478:161,1,81.0000000000001,2|0,3:0|3:0,3:0:0:0:
380,135,16689,1,10,3:0:0:0:
322,194,16804,1,0,3:0:0:0:
251,153,16920,6,0,B|238:113|238:113|251:75,1,81.0000000000001,2|0,3:0|3:0,3:0:0:0:
362,48,17150,2,0,B|375:88|375:88|362:126,1,81.0000000000001,10|0,3:0|3:0,3:0:0:0:
238,156,17381,5,2,3:0:0:0:
163,140,17497,1,0,3:0:0:0:
86,121,17612,1,10,3:0:0:0:
8,102,17727,6,0,B|88:-69|358:36|292:235|221:526|-328:173|177:-52|513:27|451:310|310:389|241:227,1,881.999999999999,6|8,3:0|3:0,3:0:0:0:
38,382,19573,6,0,L|180:361,1,144,4|0,3:0|3:0,3:0:0:0:
246,314,19920,2,0,P|259:275|243:236,1,72,8|0,3:0|3:0,3:0:0:0:
134,213,20150,1,2,3:2:0:0:
68,250,20266,1,2,3:2:0:0:
79,323,20381,2,0,L|149:337,1,72,10|2,3:2|3:2,3:0:0:0:
283,381,20612,1,2,3:2:0:0:
349,335,20727,2,0,P|389:328|420:325,2,72,2|10|2,3:2|3:2|3:2,3:0:0:0:
244,271,21073,1,2,3:2:0:0:
313,230,21189,2,0,P|392:242|456:257,1,144,2|2,3:2|3:2,3:0:0:0:
352,0,21766,5,10,3:2:0:0:
408,54,21881,1,2,3:2:0:0:
355,112,21997,2,0,P|319:102|263:91,1,72,2|2,3:2|3:2,3:0:0:0:
197,60,22227,2,0,P|161:69|105:81,1,72,10|2,3:2|3:2,3:0:0:0:
30,67,22458,2,0,P|19:33|33:0,2,72,2|2|8,3:2|3:2|3:0,3:0:0:0:
70,153,22804,6,0,B|79:177|79:177|66:221,1,72,2|0,3:0|3:0,3:0:0:0:
192,267,23035,2,0,B|201:243|201:243|188:198,1,72,2|8,3:0|3:0,3:0:0:0:
310,166,23266,2,0,B|286:182|256:179|256:179|236:154|201:154|201:154|179:191|133:197|133:197|114:161|70:154|70:154|74:200|21:237,1,360,6|0,3:0|3:0,3:0:0:0:
17,309,23843,2,0,P|23:343|49:367,1,72,0|0,3:0|3:0,3:0:0:0:
192,267,24073,5,10,3:2:0:0:
122,295,24189,1,2,3:2:0:0:
179,343,24304,2,0,B|273:333|228:390|332:381,1,144,2|10,3:2|3:2,3:0:0:0:
400,320,24650,1,2,3:2:0:0:
451,371,24766,2,0,P|416:366|392:340,1,72,2|0,3:2|3:0,3:0:0:0:
431,215,24997,5,10,3:2:0:0:
512,248,25112,2,0,B|491:270|466:268|466:268|427:231|363:253,1,144,2|0,3:2|3:0,3:0:0:0:
316,173,25458,2,0,P|306:138|316:104,1,72,10|0,3:2|3:0,3:0:0:0:
185,48,25689,2,0,P|163:68|157:120,1,72,2|0,3:2|3:0,3:0:0:0:
202,167,25920,1,10,3:2:0:0:
158,229,26035,2,0,B|98:219|98:219|73:228|73:228|16:220,1,144,2|0,3:2|3:2,3:0:0:0:
61,135,26381,2,0,P|90:153|99:187,1,72,10|0,3:2|3:0,3:0:0:0:
65,309,26612,6,0,B|29:321|29:321|-2:302,1,72,2|2,3:0|3:0,3:0:0:0:
152,250,26843,1,10,3:0:0:0:
228,338,26958,2,0,B|269:336|295:308|295:308|327:335|376:344|376:344|336:362|295:343,1,243,6|8,3:0|3:0,3:0:0:0:
426,155,27535,5,2,3:2:0:0:
497,206,27650,2,0,L|489:279,1,72,2|8,3:2|3:0,3:0:0:0:
376,344,27881,1,2,3:2:0:0:
296,308,27997,2,0,P|305:268|339:244,1,72,2|2,3:2|3:2,3:0:0:0:
394,162,28227,1,10,3:2:0:0:
333,106,28343,2,0,P|297:103|267:121,1,72,2|2,3:2|3:2,3:0:0:0:
167,197,28573,2,0,P|206:202|236:215,1,72,2|8,3:2|3:0,3:0:0:0:
314,183,28804,2,0,P|260:193|90:280,1,216,2|10,3:2|3:2,3:0:0:0:
1,337,29266,5,2,3:2:0:0:
77,363,29381,2,0,P|96:333|91:298,1,72,2|2,3:2|3:2,3:0:0:0:
11,234,29612,2,0,P|-4:202|0:166,1,72,10|2,3:2|3:2,3:0:0:0:
79,35,29843,5,2,3:2:0:0:
121,130,29958,2,0,P|85:128|54:110,1,72,2|8,3:2|3:0,3:0:0:0:
2,5,30189,6,0,L|-2:40,1,36,2|0,3:0|3:0,3:0:0:0:
191,58,30420,2,0,L|195:93,1,36,2|0,3:0|3:0,3:0:0:0:
370,4,30650,2,0,L|365:39,1,36,2|0,3:0|3:0,3:0:0:0:
507,163,30881,6,0,L|502:127,1,36,0|0,3:0|3:0,3:0:0:0:
499,115,30997,2,0,P|412:214|420:374,1,270,12|0,3:0|3:0,3:0:0:0:
313,372,31458,2,0,P|297:338|319:291,1,81.0000000000001,10|2,3:2|3:2,3:0:0:0:
431,249,31689,1,2,3:2:0:0:
495,293,31804,1,2,3:2:0:0:
482,367,31920,2,0,P|443:368|409:347,1,81.0000000000001,10|2,3:2|3:2,3:0:0:0:
304,289,32150,6,0,B|322:258|322:258|277:141|277:141|295:109,1,198,2|10,3:2|3:2,3:0:0:0:
401,61,32497,2,0,B|357:81|357:81|248:48,1,162,2|0,3:2|3:0,3:0:0:0:
109,21,32843,1,10,3:2:0:0:
57,84,32958,1,0,3:0:0:0:
116,139,33073,2,0,P|155:139|185:113,1,81.0000000000001,2|0,3:2|3:0,3:0:0:0:
95,11,33304,5,10,3:2:0:0:
41,75,33420,2,0,P|21:153|15:233,1,162,2|0,3:2|3:0,3:0:0:0:
42,373,33766,2,0,P|65:341|55:303,1,81.0000000000001,10|0,3:2|3:0,3:0:0:0:
130,211,33997,1,2,3:2:0:0:
206,219,34112,1,0,3:0:0:0:
229,294,34227,1,8,3:0:0:0:
148,307,34343,6,0,B|186:309|186:309|261:347|261:347|317:336,1,180,6|0,3:0|3:0,3:0:0:0:
399,369,34689,2,0,L|302:353,1,81.0000000000001,8|0,3:0|3:0,3:0:0:0:
298,229,34920,1,2,3:2:0:0:
368,190,35035,1,2,3:2:0:0:
437,238,35150,1,10,3:2:0:0:
452,242,35266,1,2,3:2:0:0:
511,185,35381,6,0,P|506:145|509:105,1,81.0000000000001,2|0,3:2|3:0,3:0:0:0:
395,0,35612,2,0,P|400:40|397:80,1,81.0000000000001,10|0,3:2|3:0,3:0:0:0:
298,229,35843,2,0,P|285:140|254:71,1,162,2|10,3:2|3:2,3:0:0:0:
286,2,36189,1,2,3:2:0:0:
182,47,36304,6,0,P|144:61|104:66,1,81.0000000000001,0|0,3:0|3:0,3:0:0:0:
23,55,36535,2,0,P|95:90|135:160,1,162,10|2,3:2|3:0,3:0:0:0:
152,262,36881,1,2,3:0:0:0:
74,285,36997,1,10,3:0:0:0:
16,218,37112,6,0,L|6:164,1,54,2|0,3:0|3:0,3:0:0:0:
21,150,37343,2,0,L|12:204,1,54,2|0,3:0|3:0,3:0:0:0:
97,187,37573,6,0,L|113:124,1,54,2|0,3:0|3:0,3:0:0:0:
135,115,37804,2,0,L|98:168,1,54,2|0,3:0|3:0,3:0:0:0:
198,173,38035,6,0,L|245:114,1,54,2|0,3:0|3:0,3:0:0:0:
272,114,38266,2,0,L|207:152,1,54,2|0,3:0|3:0,3:0:0:0:
289,222,38497,6,0,L|335:194,1,54,10|0,3:0|3:0,3:0:0:0:
392,187,38727,2,0,L|338:196,1,54,2|0,3:0|3:0,3:0:0:0:
344,305,38958,6,0,L|406:296,1,58.5,2|0,3:0|3:0,3:0:0:0:
512,362,39189,2,0,L|452:347,1,58.5,2|0,3:0|3:0,3:0:0:0:
344,305,39420,6,0,L|401:296,1,58.5,2|0,3:0|3:0,3:0:0:0:
512,362,39650,2,0,L|455:347,1,58.5,2|0,3:0|3:0,3:0:0:0:
344,305,39881,6,0,L|406:296,1,58.5,2|0,3:0|3:0,3:0:0:0:
479,254,40054,2,0,L|485:218,4,36,0|6|0|0|0,3:0|3:0|3:0|3:0|3:0,3:0:0:0:
486,193,40343,6,0,P|463:194|426:208,1,54,2|0,3:0|3:0,3:0:0:0:
364,96,40573,6,0,P|378:73|398:55,1,54,2|0,3:0|3:0,3:0:0:0:
225,12,40804,6,0,P|220:38|224:65,1,54,2|0,3:0|3:0,3:0:0:0:
89,137,41035,6,0,P|68:119|55:96,1,54,2|0,3:0|3:0,3:0:0:0:
16,20,41266,6,0,B|171:-24|136:181|256:192,1,323.999990112305,4|8,3:0|3:0,3:0:0:0:
285,116,41830,1,0,3:0:0:0:
115,202,41957,5,10,3:0:0:0:
183,270,42110,2,0,P|234:282|274:289,1,90.585,10|0,3:0|3:0,3:0:0:0:
398,224,42399,5,10,3:0:0:0:
339,295,42538,2,0,P|299:307|244:315,1,90,10|0,3:0|3:0,3:0:0:0:
95,295,42837,5,12,3:0:0:0:
396,363,43123,1,12,3:0:0:0:
256,37,43438,5,0,3:0:0:0:
318,93,43573,1,10,3:0:0:0:
209,127,43708,2,0,P|164:107|123:99,1,90,10|0,3:0|3:0,3:0:0:0:
234,244,43994,5,10,3:0:0:0:
317,186,44151,2,0,P|363:167|408:160,1,90.57,10|0,3:0|3:0,3:0:0:0:
511,244,44422,2,0,P|427:241|402:161,1,180,12|8,3:0|3:0,3:0:0:0:
471,13,44835,5,8,3:0:0:0:
398,45,44989,1,8,3:0:0:0:
498,89,45128,1,8,3:0:0:0:
402,159,45268,1,2,2:0:0:0:
75,93,45560,5,10,3:0:0:0:
92,11,45704,2,0,P|101:54|93:98,1,90,10|0,3:0|3:0,3:0:0:0:
20,177,45994,5,10,3:0:0:0:
37,260,46139,2,0,P|46:216|38:172,1,90,10|0,3:0|3:0,3:0:0:0:
168,111,46429,6,0,B|264:95|224:196|350:184,1,180,12|12,3:0|3:0,3:0:0:0:
401,160,46989,5,0,3:0:0:0:
277,294,47139,1,10,3:0:0:0:
349,353,47283,2,0,P|351:308|359:263,1,90,10|0,3:0|3:0,3:0:0:0:
481,188,47571,2,0,P|481:236|489:281,1,90,12|0,3:0|3:0,3:0:0:0:
439,362,47854,5,8,3:0:0:0:
277,294,48017,1,8,3:0:0:0:
349,353,48181,1,8,3:0:0:0:
246,335,48345,6,0,P|256:191|283:50,1,288,8|4,3:0|3:0,3:0:0:0:
420,0,49349,5,6,3:0:0:0:
484,43,49474,1,0,3:0:0:0:
445,111,49599,2,0,P|401:108|349:93,1,81.0000000000001,0|0,3:0|3:0,3:0:0:0:
286,134,49849,2,0,P|246:138|190:152,2,81.0000000000001,0|0|0,3:0|3:0|3:0,3:0:0:0:
357,198,50224,2,0,L|362:278,1,81.0000000000001,0|8,3:0|3:0,3:0:0:0:
433,350,50474,2,0,L|512:333,2,81.0000000000001,0|0|0,3:0|3:0|3:0,3:0:0:0:
346,384,50849,2,0,L|306:377,4,40.5,4|0|0|0|0,3:0|3:0|3:0|3:0|3:0,3:0:0:0:
433,350,51224,5,0,3:0:0:0:
349,303,51474,5,0,3:0:0:0:
249,292,51724,5,0,3:0:0:0:
166,349,51974,6,0,L|126:368,1,40.5,4|0,3:0|3:0,3:0:0:0:
114,373,52099,2,0,P|67:359|27:354,1,81.0000000000001,0|0,3:0|3:0,3:0:0:0:
127,277,52349,6,0,P|136:252|133:225,3,54.0000000000001,12|8|8|8,3:0|3:0|3:0|3:0,3:0:0:0:
54,182,52849,2,0,P|37:161|12:150,3,54.0000000000001,12|8|8|8,3:0|3:0|3:0|3:0,3:0:0:0:
130,85,53349,6,0,L|137:4,2,81.0000000000001,6|0|0,3:0|3:0|3:0,3:0:0:0:
184,150,53724,1,0,3:0:0:0:
266,118,53849,2,0,P|345:111|418:145,1,162,0|0,3:0|3:0,3:0:0:0:
487,99,54224,2,0,P|498:61|483:24,1,81.0000000000001,0|8,3:0|3:0,3:0:0:0:
395,42,54474,1,0,3:0:0:0:
321,6,54599,2,0,L|241:21,1,81.0000000000001,0|0,3:0|3:0,3:0:0:0:
169,76,54849,2,0,L|129:84,4,40.5,4|0|0|0|0,3:0|3:0|3:0|3:0|3:0,3:0:0:0:
60,44,55224,5,0,3:0:0:0:
127,125,55474,5,0,3:0:0:0:
134,232,55724,5,0,3:0:0:0:
87,341,55974,6,0,P|68:329|49:303,1,40.5,4|0,3:0|3:0,3:0:0:0:
48,298,56099,2,0,L|34:377,1,81.0000000000001,0|0,3:0|3:0,3:0:0:0:
118,328,56349,5,8,3:0:0:0:
134,232,56515,1,8,3:0:0:0:
151,139,56682,1,8,3:0:0:0:
157,345,56849,5,8,3:0:0:0:
134,232,57015,1,8,3:0:0:0:
116,123,57182,1,8,3:0:0:0:
210,182,57349,6,0,B|245:188|273:194|273:194|311:174|311:174|365:168,1,162,6|0,3:0|3:0,3:0:0:0:
494,211,57724,1,0,3:0:0:0:
444,284,57849,2,0,P|375:245|366:168,1,162,2|0,3:0|3:0,3:0:0:0:
285,279,58224,2,0,P|281:319|296:366,1,81.0000000000001,0|2,3:0|3:0,3:0:0:0:
407,369,58474,5,0,3:0:0:0:
444,284,58599,1,0,3:0:0:0:
366,221,58724,1,0,3:0:0:0:
285,279,58849,2,0,P|249:293|187:305,1,81.0000000000001,6|0,3:0|3:0,3:0:0:0:
131,355,59099,2,0,P|93:340|53:331,1,81.0000000000001,0|0,3:0|3:0,3:0:0:0:
140,370,59474,5,0,3:0:0:0:
120,271,59724,5,0,3:0:0:0:
102,166,59974,5,4,3:0:0:0:
78,59,60099,6,0,L|61:4,2,40.5,0|0|0,3:0|3:0|3:0,3:0:0:0:
181,59,60349,5,14,3:0:0:0:
226,43,60432,1,8,3:0:0:0:
274,45,60515,1,8,3:0:0:0:
315,70,60599,1,8,3:0:0:0:
360,86,60682,1,8,3:0:0:0:
408,84,60765,1,8,3:0:0:0:
449,59,60849,2,0,L|460:2,2,54.0000000000001,14|8|8,3:0|3:0|3:0,3:0:0:0:
491,142,61182,5,8,3:0:0:0:
491,142,61265,1,8,3:0:0:0:
491,142,61349,1,0,2:0:0:0:
24,48,63175,5,8,3:0:0:0:
116,23,63305,1,8,3:0:0:0:
96,130,63435,1,8,3:0:0:0:
417,373,65131,5,8,3:0:0:0:
332,355,65262,1,8,3:0:0:0:
326,269,65392,1,8,3:0:0:0:
465,299,65522,1,10,2:0:0:0:
22,380,67218,5,10,3:2:0:0:
126,352,67349,1,10,3:2:0:0:
5,384,67479,1,10,3:2:0:0:
139,349,67609,1,10,3:2:0:0:
312,113,69305,5,10,3:2:0:0:
351,41,69435,1,10,3:2:0:0:
436,24,69566,1,10,3:2:0:0:
511,65,69696,5,10,3:2:0:0:
423,124,70088,1,2,2:0:0:0:
312,113,70479,1,2,2:0:0:0:
249,52,70740,5,2,2:0:0:0:
174,25,70870,2,0,P|142:33|115:48,1,62.9999999999999,2|2,2:0|2:0,3:0:0:0:
19,30,71131,2,0,P|108:53|164:127,1,189,2|10,2:0|3:2,3:0:0:0:
131,196,71653,1,10,3:2:0:0:
227,247,71783,5,10,3:2:0:0:
318,195,72175,1,2,2:0:0:0:
418,208,72566,1,2,2:0:0:0:
486,284,72827,5,2,2:0:0:0:
459,356,72950,2,0,P|428:348|397:343,1,62.9999999999999,2|2,2:0|3:2,3:0:0:0:
332,378,73197,1,2,3:2:0:0:
275,311,73320,5,10,3:2:0:0:
195,292,73453,1,10,3:2:0:0:
130,363,73586,5,10,3:2:0:0:
52,383,73720,1,10,3:2:0:0:
0,303,73866,5,6,3:0:0:0:
23,114,74096,6,0,L|27:72,3,42,0|0|0|0,3:0|3:0|3:0|3:0,3:0:0:0:
109,89,74558,1,0,3:0:0:0:
191,67,74789,1,8,3:0:0:0:
218,59,74866,1,0,3:0:0:0:
245,52,74942,1,0,3:0:0:0:
275,44,75019,1,0,3:0:0:0:
358,21,75250,1,2,3:0:0:0:
444,0,75481,1,8,3:0:0:0:
512,130,75712,5,2,3:0:0:0:
424,119,75942,2,0,L|430:160,3,42,0|0|0|0,3:0|3:0|3:0|3:0,3:0:0:0:
345,102,76404,1,0,3:0:0:0:
315,97,76481,1,0,3:0:0:0:
285,92,76558,1,0,3:0:0:0:
255,87,76635,2,0,L|264:141,3,42,8|0|0|0,3:0|3:0|3:0|3:0,3:0:0:0:
166,71,77096,1,2,3:0:0:0:
79,52,77327,1,8,3:0:0:0:
5,177,77558,6,0,L|10:135,3,42,2|0|0|0,3:0|3:0|3:0|3:0,3:0:0:0:
96,157,78019,1,0,3:0:0:0:
181,136,78250,1,0,3:0:0:0:
209,129,78327,1,0,3:0:0:0:
237,123,78404,1,0,3:0:0:0:
266,118,78481,1,8,3:0:0:0:
351,98,78712,1,0,3:0:0:0:
439,78,78942,2,0,B|472:111|472:111|455:188,1,126,2|8,3:0|3:0,3:0:0:0:
487,326,79404,5,0,3:0:0:0:
458,319,79481,1,0,3:0:0:0:
429,312,79558,1,0,3:0:0:0:
399,307,79635,2,0,L|416:362,3,42,0|0|0|0,3:0|3:0|3:0|3:0,3:0:0:0:
314,285,80096,1,0,3:0:0:0:
285,278,80173,1,0,3:0:0:0:
256,271,80250,1,0,3:0:0:0:
227,265,80327,1,8,3:0:0:0:
314,189,80558,1,0,3:0:0:0:
194,129,80789,1,0,3:0:0:0:
345,50,81019,1,0,3:0:0:0:
165,2,81250,6,0,P|81:28|73:255,1,315,6|0,3:0|3:0,3:0:0:0:
76,255,81942,2,0,L|121:241,4,31.5,0|0|0|0|8,2:0|3:0|3:0|3:0|3:0,3:0:0:0:
190,219,82404,1,0,3:0:0:0:
287,187,82635,2,0,L|264:310,1,126,2|8,3:0|3:0,3:0:0:0:
347,382,83096,6,0,P|431:356|439:129,1,315,2|0,3:0|3:0,3:0:0:0:
436,129,83789,2,0,L|391:143,4,31.5,0|0|0|0|8,3:0|3:0|3:0|3:0|3:0,3:0:0:0:
467,42,84250,2,0,L|475:0,3,42,0|0|0|2,3:0|3:0|3:0|3:0,3:0:0:0:
362,18,84712,1,8,3:0:0:0:
256,0,84942,6,0,L|256:378,1,378,2|0,3:0|3:0,3:0:0:0:
297,294,85866,1,8,3:0:0:0:
206,219,86096,1,0,3:0:0:0:
323,134,86327,1,2,3:0:0:0:
174,70,86558,1,8,3:0:0:0:
348,3,86789,5,0,3:0:0:0:
372,9,86866,1,0,3:0:0:0:
396,16,86942,1,0,3:0:0:0:
420,23,87019,1,0,3:0:0:0:
443,30,87096,1,0,3:0:0:0:
466,38,87173,1,0,3:0:0:0:
488,45,87250,2,0,P|477:64|473:85,5,42,0|0|0|0|0|0,3:0|3:0|3:0|3:0|3:0|3:0,3:0:0:0:
402,136,87712,6,0,P|404:156|411:176,1,42,10|0,3:0|3:0,3:0:0:0:
361,231,87942,6,0,P|373:247|389:261,1,42,8|0,3:0|3:0,3:0:0:0:
393,315,88173,6,0,P|412:323|432:326,1,42,8|0,3:0|3:0,3:0:0:0:
438,359,88404,6,0,P|458:356|478:349,1,42,0|0,3:0|3:0,3:0:0:0:
507,330,88635,6,0,L|512:288,6,42,2|0|0|0|0|0|10,3:0|3:0|3:0|3:0|3:0|3:0|3:0,3:0:0:0:
309,350,89558,6,0,L|314:308,6,42,2|0|0|0|0|0|14,3:0|3:0|3:0|3:0|3:0|3:0|3:0,3:0:0:0:
110,382,90481,5,2,3:0:0:0:
114,357,90558,1,0,3:0:0:0:
118,332,90635,1,0,3:0:0:0:
122,307,90712,2,0,L|58:329,3,42,0|0|0|10,3:0|3:0|3:0|3:0,3:0:0:0:
186,229,91173,1,0,3:0:0:0:
87,188,91404,5,2,3:0:0:0:
83,163,91481,1,0,3:0:0:0:
79,138,91558,1,0,3:0:0:0:
75,113,91635,2,0,L|139:135,3,42,0|0|0|14,3:0|3:0|3:0|3:0,3:0:0:0:
179,19,92327,5,2,3:0:0:0:
203,14,92404,1,0,3:0:0:0:
228,16,92481,1,0,3:0:0:0:
252,23,92558,1,0,3:0:0:0:
271,38,92635,1,0,3:0:0:0:
285,58,92712,1,0,3:0:0:0:
291,82,92789,1,10,3:0:0:0:
368,151,93250,5,2,3:0:0:0:
360,174,93327,1,0,3:0:0:0:
346,194,93404,1,0,3:0:0:0:
328,212,93481,1,0,3:0:0:0:
305,221,93558,1,0,3:0:0:0:
281,223,93635,1,0,3:0:0:0:
257,216,93712,1,14,3:0:0:0:
160,249,94173,5,2,3:0:0:0:
143,230,94250,1,0,3:0:0:0:
132,208,94327,1,0,3:0:0:0:
126,183,94404,1,0,3:0:0:0:
130,159,94481,1,0,3:0:0:0:
140,137,94558,1,0,3:0:0:0:
158,120,94635,1,10,3:0:0:0:
241,103,94866,6,0,L|282:110,3,42,0|0|0|2,3:0|3:0|3:0|3:0,3:0:0:0:
137,91,95327,1,12,3:0:0:0:
272,67,95558,1,8,3:0:0:0:
407,43,95789,1,12,3:0:0:0:
255,22,96019,6,0,L|207:13,6,48,6|0|0|0|0|0|10,3:0|3:0|3:0|3:0|3:0|3:0|3:0,3:0:0:0:
75,38,96942,6,0,L|27:29,6,48,2|0|0|0|0|0|14,3:0|3:0|3:0|3:0|3:0|3:0|3:0,3:0:0:0:
168,139,97866,5,2,3:0:0:0:
192,134,97942,1,0,3:0:0:0:
216,130,98019,1,0,3:0:0:0:
241,124,98096,2,0,L|214:164,3,48,0|0|0|10,3:0|3:0|3:0|3:0,3:0:0:0:
323,142,98558,1,0,3:0:0:0:
405,164,98789,5,2,3:0:0:0:
429,159,98866,1,0,3:0:0:0:
453,155,98942,1,0,3:0:0:0:
478,149,99019,2,0,L|453:190,3,48,0|0|0|14,3:0|3:0|3:0|3:0,3:0:0:0:
486,324,99712,5,2,3:0:0:0:
486,324,99789,2,0,L|470:270,1,48,0|0,3:0|3:0,3:0:0:0:
402,313,99942,1,0,3:0:0:0:
406,317,100019,2,0,L|392:270,1,48,0|0,3:0|3:0,3:0:0:0:
324,306,100173,1,10,3:0:0:0:
94,366,100635,5,2,3:0:0:0:
94,366,100712,2,0,L|108:320,1,48,0|0,3:0|3:0,3:0:0:0:
170,355,100866,1,0,3:0:0:0:
174,359,100942,2,0,L|188:313,1,48,0|0,3:0|3:0,3:0:0:0:
256,348,101096,1,14,3:0:0:0:
151,217,101558,5,2,3:0:0:0:
133,236,101635,1,0,3:0:0:0:
110,247,101712,1,0,3:0:0:0:
85,254,101789,1,0,3:0:0:0:
59,254,101866,1,0,3:0:0:0:
34,247,101942,1,0,3:0:0:0:
13,233,102019,1,10,3:0:0:0:
30,85,102250,6,0,L|19:38,2,48,0|0|0,3:0|3:0|3:0,3:0:0:0:
52,94,102481,1,10,3:0:0:0:
165,61,102712,5,8,3:0:0:0:
189,57,102789,1,8,3:0:0:0:
213,53,102866,1,8,3:0:0:0:
236,63,102942,1,8,3:0:0:0:
260,67,103019,1,8,3:0:0:0:
284,71,103096,1,8,3:0:0:0:
307,61,103173,1,8,3:0:0:0:
431,0,103404,6,0,L|417:83,1,81.0000000000001,8|8,3:0|3:0,3:0:0:0:
464,140,103635,2,0,L|450:219,1,81.0000000000001,8|8,3:0|3:0,3:0:0:0:
493,284,103866,1,8,3:0:0:0:
512,384,104212,5,8,3:0:0:0:
512,384,104327,1,0,3:0:0:0:
430,371,104558,1,8,3:0:0:0:
430,371,104673,1,8,3:0:0:0:
345,354,105019,1,8,3:0:0:0:
345,354,105135,1,8,3:0:0:0:
263,341,105481,1,8,3:0:0:0:
263,341,105596,1,8,3:0:0:0:
263,341,105712,1,8,3:0:0:0:
174,323,105942,1,8,3:0:0:0:
174,323,106058,1,8,3:0:0:0:
174,323,106173,1,8,3:0:0:0:
81,301,106519,1,8,3:0:0:0:
0,278,106866,1,8,3:0:0:0:
75,207,107096,6,0,B|96:241|96:241|87:281,1,81.0000000000001,8|8,3:0|3:0,3:0:0:0:
34,363,107558,1,0,3:0:0:0:
0,278,108019,1,0,3:0:0:0:
75,207,108250,2,0,L|181:228,1,81.0000000000001,8|8,3:0|3:0,3:0:0:0:
231,190,108481,2,0,L|337:211,1,81.0000000000001,8|8,3:0|3:0,3:0:0:0:
387,168,108712,2,0,L|493:189,1,81.0000000000001,8|8,3:0|3:0,3:0:0:0:
466,183,109173,6,0,L|387:168,1,81.0000000000001,8|8,3:0|3:0,3:0:0:0:
310,205,109404,2,0,L|231:190,1,81.0000000000001,8|8,3:0|3:0,3:0:0:0:
154,222,109635,2,0,L|75:207,1,81.0000000000001,8|8,3:0|3:0,3:0:0:0:
22,137,109866,6,0,B|29:67|29:67|132:33|132:33|197:93,2,243,4|4|2,3:0|3:0|3:2,3:0:0:0:
49,290,110789,6,0,P|27:282|11:267,2,45.0000017166138,6|0|2,3:2|2:0|2:0,3:0:0:0:
102,360,111019,2,0,P|80:367|58:368,2,45.0000017166138,0|2|0,2:0|2:0|2:0,3:0:0:0:
194,369,111250,2,0,L|294:349,1,89.9999999999999,2|0,3:2|2:0,3:0:0:0:
387,298,111558,1,0,2:0:0:0:
492,348,111712,6,0,L|498:294,5,45.0000017166138,10|0|2|0|2|0,3:2|2:0|2:0|2:0|2:0|2:0,3:0:0:0:
449,231,112173,1,2,3:2:0:0:
445,204,112250,1,0,2:0:0:0:
441,177,112327,1,2,2:0:0:0:
436,150,112404,2,0,L|378:133,2,45.0000017166138,0|2|0,2:0|2:0|2:0,3:0:0:0:
486,88,112635,6,0,P|489:65|488:43,5,45.0000017166138,2|0|0|0|0|0,2:0|2:0|2:0|2:0|2:0|2:0,3:0:0:0:
413,30,113096,2,0,P|396:15|375:6,1,45.0000017166138,2|2,2:0|2:0,3:0:0:0:
307,42,113250,2,0,P|285:48|267:62,1,45.0000017166138,2|2,2:0|2:0,3:0:0:0:
277,142,113404,2,0,P|272:163|274:186,1,45.0000017166138,2|2,2:0|2:0,3:0:0:0:
357,213,113558,6,0,P|359:168|366:134,1,67.5000025749208,2|2,3:2|3:2,3:0:0:0:
369,283,113904,2,0,P|365:171|323:67,1,202.5,2|0,3:2|3:0,3:0:0:0:
198,6,114481,6,0,P|166:37|122:44,1,89.9999999999999,2|2,3:2|2:0,3:0:0:0:
43,23,114789,1,2,2:0:0:0:
36,48,114866,1,2,2:0:0:0:
37,75,114942,1,2,2:0:0:0:
50,98,115019,1,0,2:0:0:0:
96,162,115173,1,0,2:0:0:0:
103,187,115250,1,0,2:0:0:0:
102,214,115327,1,0,2:0:0:0:
98,239,115404,1,2,3:2:0:0:
58,320,115558,5,2,2:0:0:0:
84,318,115635,1,2,2:0:0:0:
110,322,115712,1,2,2:0:0:0:
133,334,115789,1,2,2:0:0:0:
154,353,115865,2,0,P|174:323|166:283,1,67.5,2|2,3:2|3:2,3:0:0:0:
254,258,116096,2,0,P|273:286|278:320,1,67.5,2|2,3:2|3:2,3:0:0:0:
367,368,116327,6,0,P|404:303|462:305,1,135,2|0,3:2|3:0,3:0:0:0:
512,230,116673,1,2,3:2:0:0:
486,149,116789,1,0,3:0:0:0:
403,143,116904,1,0,3:0:0:0:
357,213,117019,1,2,3:2:0:0:
344,217,117135,1,0,3:0:0:0:
281,161,117250,6,0,B|300:25|300:25|366:32,2,202.5,14|14|14,3:0|3:0|3:0,3:0:0:0:
199,40,118173,6,0,L|128:18,1,67.5,6|0,3:2|3:0,3:0:0:0:
155,128,118404,2,0,L|87:128,1,67.5,0|0,3:0|3:0,3:0:0:0:
170,222,118635,2,0,L|61:256,1,89.9999999999999,2|0,3:2|2:0,3:0:0:0:
6,271,118865,2,0,P|0:249|2:227,2,45.0000017166138,2|0|0,2:0|2:0|2:0,3:0:0:0:
46,338,119096,5,10,3:2:0:0:
72,343,119173,1,0,2:0:0:0:
98,347,119250,1,0,2:0:0:0:
124,348,119327,2,0,L|190:326,1,67.5,0|0,2:0|3:0,3:0:0:0:
292,368,119558,5,2,3:2:0:0:
318,362,119635,1,0,2:0:0:0:
344,356,119712,1,0,2:0:0:0:
370,350,119789,1,0,2:0:0:0:
396,344,119865,1,0,2:0:0:0:
422,339,119942,1,0,2:0:0:0:
448,332,120019,6,0,L|459:280,5,45.0000017166138,2|0|0|0|0|0,3:2|2:0|2:0|2:0|2:0|2:0,3:0:0:0:
401,221,120481,2,0,L|390:169,5,45.0000017166138,2|0|0|0|0|0,3:2|2:0|2:0|2:0|2:0|2:0,3:0:0:0:
330,267,120942,1,10,3:2:0:0:
304,259,121019,1,0,2:0:0:0:
278,250,121096,1,0,2:0:0:0:
251,240,121173,2,0,P|235:205|245:166,1,67.5,2|0,2:0|3:0,3:0:0:0:
310,79,121404,1,2,3:2:0:0:
314,83,121519,1,0,2:0:0:0:
227,5,121635,1,2,2:0:0:0:
227,5,121750,1,0,2:0:0:0:
107,32,121865,6,0,L|45:20,5,45.0000017166138,2|0|0|2|0|0,3:2|2:0|2:0|2:0|2:0|2:0,3:0:0:0:
83,115,122327,2,0,L|21:103,5,45.0000017166138,2|0|0|2|0|0,3:2|2:0|2:0|2:0|2:0|2:0,3:0:0:0:
58,208,122789,2,0,L|13:199,5,45.0000017166138,10|2|2|2|2|2,3:2|2:0|2:0|2:0|2:0|2:0,3:0:0:0:
35,295,123250,1,2,3:2:0:0:
108,343,123365,1,0,3:0:0:0:
179,285,123481,1,2,2:0:0:0:
193,283,123596,1,0,3:0:0:0:
278,321,123712,6,0,B|369:305|369:305|341:300|320:288,1,135,2|0,3:2|3:0,3:0:0:0:
460,342,124058,1,2,3:2:0:0:
460,342,124173,2,0,P|469:300|458:265,1,67.5,0|0,3:0|3:0,3:0:0:0:
486,195,124404,2,0,P|462:171|431:159,1,67.5,2|0,3:2|3:0,3:0:0:0:
305,119,124635,6,0,P|323:205|328:292,1,175.5,14|14,3:0|3:0,3:0:0:0:
318,384,125327,6,0,P|315:211|378:15,1,377.999988464356,14|8,3:0|3:0,3:0:0:0:
504,3,126923,6,0,P|492:53|443:69,1,107.999996704102,6|8,3:2|3:0,3:0:0:0:
298,7,127265,1,2,3:2:0:0:
298,7,127351,1,0,3:0:0:0:
298,7,127437,1,8,3:0:0:0:
225,75,127608,2,0,P|173:62|101:54,1,107.999996704102,2|8,3:2|3:0,3:0:0:0:
25,104,127951,6,0,B|91:105|77:29|165:10|217:44,1,215.999993408203,2|0,3:2|3:0,3:0:0:0:
287,154,128465,1,10,3:2:0:0:
216,238,128637,1,0,3:0:0:0:
216,238,128723,1,0,3:0:0:0:
216,238,128808,1,8,3:0:0:0:
24,104,128980,6,0,B|-2:149|-2:149|9:217,1,107.999996704102,2|8,3:2|3:0,3:0:0:0:
131,281,129323,1,0,3:0:0:0:
131,281,129408,1,0,3:0:0:0:
35,366,129580,1,2,3:2:0:0:
35,366,129665,2,0,B|64:312|132:308|132:308|159:352|223:358,1,215.999993408203,2|0,3:2|3:0,3:0:0:0:
292,316,130094,1,0,3:0:0:0:
292,316,130180,1,10,3:2:0:0:
470,379,130351,6,0,P|417:366|363:362,1,107.999996704102,2|10,3:2|3:2,3:0:0:0:
371,280,130608,1,0,3:0:0:0:
371,280,130694,2,0,P|406:271|443:267,2,53.9999983520508,2|0|10,3:2|3:0|3:2,3:0:0:0:
509,300,131037,2,0,P|525:248|512:196,1,107.999996704102,2|10,3:2|3:2,3:0:0:0:
435,145,131294,1,2,3:2:0:0:
435,145,131380,1,2,3:2:0:0:
448,17,131551,5,10,3:2:0:0:
479,9,131637,1,2,3:2:0:0:
501,32,131723,1,2,3:2:0:0:
489,62,131808,2,0,B|474:41|440:33|440:33|370:42|316:92|316:92|286:73|240:66,1,270,0|8,3:0|3:0,3:0:0:0:
93,121,132408,5,6,3:2:0:0:
93,121,132494,1,0,3:0:0:0:
93,121,132580,2,0,P|85:46|129:9,1,117,10|0,3:2|3:0,3:0:0:0:
188,133,132923,1,10,3:2:0:0:
188,133,133008,1,0,3:0:0:0:
188,133,133094,1,2,3:2:0:0:
151,236,133265,1,8,3:0:0:0:
120,242,133351,1,0,3:0:0:0:
89,248,133437,1,2,3:2:0:0:
58,254,133523,1,0,3:0:0:0:
27,260,133608,1,10,3:2:0:0:
12,360,133780,6,0,L|69:347,1,58.5,2|0,3:2|3:0,3:0:0:0:
148,331,133951,1,10,3:2:0:0:
179,338,134037,1,0,3:0:0:0:
210,345,134123,1,0,3:0:0:0:
241,353,134208,1,0,3:0:0:0:
272,361,134294,1,10,3:2:0:0:
277,275,134465,1,2,3:2:0:0:
308,283,134551,1,0,3:0:0:0:
338,293,134637,1,8,3:0:0:0:
350,211,134808,1,2,3:2:0:0:
381,220,134894,1,0,3:0:0:0:
411,229,134980,1,10,3:2:0:0:
441,239,135065,1,0,3:0:0:0:
471,249,135151,6,0,P|480:205|415:102,1,156,2|0,3:2|3:0,3:0:0:0:
408,33,135494,2,0,P|375:46|352:87,1,78,0|0,3:0|3:0,3:0:0:0:
275,138,135723,1,0,3:0:0:0:
275,138,135837,2,0,P|258:107|264:61,1,78,0|0,3:0|3:0,3:0:0:0:
186,0,136065,1,0,3:0:0:0:
186,0,136180,2,0,P|164:27|158:74,1,78,2|0,3:2|3:0,3:0:0:0:
107,151,136408,1,0,3:0:0:0:
107,151,136523,2,0,L|184:165,2,78,2|0|0,3:2|3:0|3:0,3:0:0:0:
10,93,136865,1,2,3:2:0:0:
0,50,136980,1,0,3:0:0:0:
29,18,137094,1,0,3:0:0:0:
71,23,137208,6,0,B|139:117|91:227|-34:200|46:387,1,351,2|8,3:2|3:0,3:0:0:0:
204,348,137894,6,0,P|204:255|118:288,1,216,6|0,3:2|3:0,3:0:0:0:
18,210,138408,2,0,P|48:169|98:180,1,108,10|0,3:2|3:0,3:0:0:0:
108,301,138751,1,8,3:0:0:0:
209,233,138923,1,0,3:0:0:0:
224,205,139008,1,0,3:0:0:0:
227,172,139094,1,8,3:0:0:0:
219,140,139180,1,0,3:0:0:0:
203,111,139265,6,0,P|259:118|320:143,1,108,2|8,3:2|3:0,3:0:0:0:
330,101,139523,2,0,P|276:111|226:131,1,108,2|0,3:2|3:0,3:0:0:0:
193,97,139780,2,0,P|296:116|358:202,1,216,10|8,3:2|3:0,3:0:0:0:
417,335,140294,1,0,3:0:0:0:
439,358,140380,1,0,3:0:0:0:
470,361,140465,1,8,3:0:0:0:
498,346,140551,1,0,3:0:0:0:
507,314,140637,6,0,L|513:260,3,54,2|0|8|0,3:2|3:0|3:0|3:0,3:0:0:0:
412,304,140980,1,0,3:0:0:0:
380,310,141065,1,0,3:0:0:0:
348,316,141151,1,10,3:2:0:0:
316,322,141237,1,0,3:0:0:0:
284,329,141323,6,0,L|226:319,1,54,2|0,3:2|3:2,3:2:0:0:
163,356,141494,2,0,L|105:346,1,54,10|0,3:2|3:0,3:0:0:0:
174,274,141665,6,0,L|116:264,1,54,2|0,3:2|3:0,3:0:0:0:
53,301,141837,2,0,L|-5:291,1,54,10|0,3:2|3:0,3:0:0:0:
22,207,142008,6,0,L|81:194,1,54,2|0,3:2|3:0,3:0:0:0:
83,116,142180,2,0,L|135:104,1,54,10|0,3:2|3:0,3:0:0:0:
206,155,142351,6,0,L|265:168,1,54,2|0,3:2|3:0,3:0:0:0:
267,246,142523,2,0,L|319:257,1,54,10|0,3:2|3:0,3:0:0:0:
380,198,142694,6,0,L|439:185,1,54,2|0,3:2|3:0,3:0:0:0:
441,107,142865,2,0,L|493:95,1,54,10|0,3:2|3:0,3:0:0:0:
379,28,143037,6,0,B|261:52|261:52|282:39|285:15,1,162,2|0,3:2|2:0,3:0:0:0:
299,12,143380,6,0,B|325:61|325:61|265:164|265:164|278:203,1,216,6|0,3:2|3:0,3:0:0:0:
336,356,143894,1,8,3:0:0:0:
380,262,144065,1,0,3:0:0:0:
380,262,144151,1,0,3:0:0:0:
380,262,144237,1,8,3:0:0:0:
254,308,144408,1,2,3:2:0:0:
222,301,144494,1,0,3:0:0:0:
189,295,144580,1,8,3:0:0:0:
157,288,144665,1,0,3:0:0:0:
125,282,144751,6,0,P|73:310|80:356,1,108,2|8,3:2|3:0,3:0:0:0:
95,358,145008,2,0,P|131:287|102:214,1,162,2|10,3:2|3:2,3:0:0:0:
98,39,145437,2,0,B|130:24|154:-8|154:-8|117:72|119:152,1,216,2|2,3:2|3:2,3:0:0:0:
41,160,145865,1,2,3:2:0:0:
41,160,145951,1,10,3:2:0:0:
219,244,146123,5,6,3:2:0:0:
219,244,146208,2,0,P|260:246|302:187,1,108,0|0,3:0|3:0,3:0:0:0:
277,126,146465,1,2,3:2:0:0:
349,18,146637,1,10,3:2:0:0:
380,24,146723,1,2,3:2:0:0:
411,29,146808,1,6,3:2:0:0:
443,34,146894,1,0,3:0:0:0:
496,129,147065,1,0,3:0:0:0:
464,134,147151,1,2,3:2:0:0:
433,139,147237,1,2,3:2:0:0:
402,145,147323,1,10,3:2:0:0:
382,260,147494,6,0,P|409:216|384:171,1,108,6|8,3:2|3:0,3:0:0:0:
277,126,147837,1,2,3:2:0:0:
277,126,147923,1,2,3:2:0:0:
277,126,148008,1,10,3:2:0:0:
211,260,148180,2,0,L|200:371,1,108,6|8,3:2|3:0,3:0:0:0:
277,342,148437,1,6,3:2:0:0:
131,273,148608,1,0,3:0:0:0:
131,273,148694,1,14,3:2:0:0:
25,361,148865,6,0,L|15:271,1,90,4|8,3:0|3:0,3:0:0:0:
91,192,149208,1,0,3:0:0:0:
15,112,149380,2,0,L|25:23,1,90,8|0,3:0|3:0,3:0:0:0:
165,23,149723,6,0,L|155:112,1,90,8|0,3:0|3:0,3:0:0:0:
155,271,150065,2,0,L|165:361,1,90,8|0,3:0|3:0,3:0:0:0:
285,361,150408,6,0,L|275:271,1,90,8|0,3:0|3:0,3:0:0:0:
275,112,150751,2,0,L|285:23,1,90,8|0,3:0|3:0,3:0:0:0:
385,23,151094,6,0,L|375:112,1,90,8|0,3:0|3:0,3:0:0:0:
375,271,151437,2,0,L|385:361,1,90,8|0,3:0|3:0,3:0:0:0:
471,361,151780,6,0,L|461:271,1,90,8|0,3:0|3:0,3:0:0:0:
461,112,152123,2,0,L|471:23,1,90,8|0,3:0|3:0,3:0:0:0:
326,28,152465,6,0,P|268:49|288:121,1,135,8|0,3:0|2:0,3:0:0:0:
360,168,152808,1,12,3:0:0:0:
360,168,152894,1,0,3:0:0:0:
360,168,152980,2,0,P|411:150|475:137,1,90,0|8,3:0|3:0,3:0:0:0:
487,239,153323,2,0,P|434:250|383:268,1,90,0|8,3:0|3:0,3:0:0:0:
349,357,153665,1,0,3:0:0:0:
245,316,153837,2,0,B|224:194|224:194|246:233|256:239,1,180,14|8,3:0|3:0,3:0:0:0:
235,332,154351,2,0,B|177:313|177:313|115:335|115:335|52:324,1,180,4|0,3:0|3:0,3:0:0:0:
62,325,154865,1,10,3:0:0:0:
0,204,155037,5,2,3:0:0:0:
82,144,155208,1,10,3:0:0:0:
190,155,155380,1,2,3:0:0:0:
256,239,155551,1,10,3:0:0:0:
338,299,155723,1,2,3:0:0:0:
446,288,155894,1,8,3:0:0:0:
512,204,156065,1,0,3:0:0:0:
425,86,156237,6,0,P|382:99|347:126,1,90,12|0,3:0|3:0,3:0:0:0:
290,192,156494,1,0,3:0:0:0:
290,192,156580,2,0,P|319:95|293:0,1,180,12|8,3:0|3:0,3:0:0:0:
303,19,157094,1,0,3:0:0:0:
425,86,157265,2,0,P|476:86|437:-9,1,180,12|10,3:0|3:0,3:0:0:0:
307,23,157780,5,2,3:0:0:0:
209,69,157951,1,10,3:0:0:0:
123,111,158123,1,2,3:0:0:0:
40,149,158294,1,10,3:0:0:0:
0,60,158465,6,0,L|13:24,12,30,12|0|0|4|0|0|12|0|0|4|0|0|8,3:0|3:0|3:0|3:0|3:0|3:0|3:0|3:0|3:0|3:0|3:0|3:0|3:0,3:0:0:0:
40,149,159323,5,8,3:0:0:0:
63,167,159408,1,8,3:0:0:0:
79,192,159494,1,8,3:0:0:0:
84,222,159580,1,8,3:0:0:0:
78,251,159665,1,8,3:0:0:0:
62,276,159751,1,8,3:0:0:0:
38,294,159837,6,0,P|1:265|4:218,1,99,2|8,3:0|3:0,3:0:0:0:
123,111,160180,1,2,3:0:0:0:
123,111,160265,1,0,3:0:0:0:
123,111,160351,1,8,3:0:0:0:
265,180,160523,1,2,3:0:0:0:
164,217,160694,1,10,3:0:0:0:
300,306,160865,2,0,P|353:320|403:349,1,99,6|8,3:0|3:0,3:0:0:0:
458,286,161208,6,0,P|363:313|281:367,1,198,2|2,3:0|3:0,3:0:0:0:
208,307,161723,1,8,3:0:0:0:
360,226,161894,1,2,3:0:0:0:
360,226,161980,1,0,3:0:0:0:
360,226,162065,1,8,3:0:0:0:
265,180,162237,2,0,B|248:132|248:132|272:90,1,99,6|8,3:0|3:0,3:0:0:0:
421,67,162580,6,0,B|347:49|347:49|305:63|305:63|229:46,1,198,2|2,3:0|3:0,3:0:0:0:
96,8,163094,1,8,3:0:0:0:
19,118,163265,1,2,3:0:0:0:
53,111,163351,1,0,3:0:0:0:
87,105,163437,1,8,3:0:0:0:
121,99,163523,1,0,3:0:0:0:
154,93,163608,2,0,P|171:136|131:202,1,99,6|8,3:0|3:0,3:0:0:0:
16,225,163951,6,0,B|-18:178|-18:178|6:40,1,198,2|2,3:0|3:0,3:0:0:0:
96,8,164465,1,8,3:0:0:0:
154,93,164637,1,2,3:0:0:0:
154,93,164723,1,0,3:0:0:0:
154,93,164808,1,8,3:0:0:0:
263,46,164980,1,6,3:0:0:0:
297,42,165065,1,4,3:0:0:0:
326,61,165151,1,12,3:0:0:0:
355,80,165237,1,0,3:0:0:0:
389,73,165323,6,0,P|403:27|362:-6,1,99,6|8,3:0|3:0,3:0:0:0:
277,133,165665,1,2,3:0:0:0:
277,133,165751,1,0,3:0:0:0:
277,133,165837,1,8,3:0:0:0:
366,191,166008,2,0,L|463:173,1,99,2|8,3:0|3:0,3:0:0:0:
280,256,166351,1,6,3:0:0:0:
371,296,166523,1,8,3:0:0:0:
176,314,166694,5,2,3:0:0:0:
269,354,166865,2,0,L|279:255,1,99,8|2,3:0|3:0,3:0:0:0:
152,119,167208,2,0,L|162:217,1,99,8|2,3:0|3:0,3:0:0:0:
53,323,167551,1,8,3:0:0:0:
53,323,167637,1,0,3:0:0:0:
53,323,167723,2,0,P|34:276|85:224,1,99,6|8,3:0|3:0,3:0:0:0:
244,243,168065,6,0,B|315:227|315:227|360:241|360:241|436:222,1,198,2|2,3:0|3:0,3:0:0:0:
493,67,168580,1,8,3:0:0:0:
464,47,168665,1,0,3:0:0:0:
429,43,168751,1,2,3:0:0:0:
394,50,168837,1,0,3:0:0:0:
367,72,168923,1,8,3:0:0:0:
435,222,169094,2,0,B|455:179|455:179|428:121,1,99,6|8,3:0|3:0,3:0:0:0:
265,18,169437,6,0,L|246:215,1,198,2|2,3:0|3:0,3:0:0:0:
281,363,169951,1,8,3:0:0:0:
281,363,170037,1,0,3:0:0:0:
281,363,170123,2,0,L|290:314,1,49.5,2|0,3:0|3:0,3:0:0:0:
199,295,170294,2,0,L|146:282,1,49.5,8|0,3:0|3:0,3:0:0:0:
330,230,170465,2,0,L|448:249,1,99,2|8,3:0|3:0,3:0:0:0:
499,119,170808,5,6,3:2:0:0:
461,125,170894,1,0,3:0:0:0:
423,131,170980,1,8,3:0:0:0:
386,137,171065,1,0,3:0:0:0:
348,144,171151,2,0,L|362:81,3,54,2|0|8|0,3:2|3:0|3:0|3:0,3:0:0:0:
279,49,171494,5,6,3:2:0:0:
241,43,171580,1,0,3:0:0:0:
203,37,171665,1,8,3:0:0:0:
166,31,171751,1,0,3:0:0:0:
128,24,171837,2,0,L|142:87,3,54,2|0|8|0,3:2|3:0|3:0|3:0,3:0:0:0:
58,128,172180,5,6,3:2:0:0:
82,157,172265,1,0,3:0:0:0:
88,194,172351,1,8,3:0:0:0:
77,230,172437,1,0,3:0:0:0:
55,261,172523,2,0,L|43:208,3,54,2|0|8|0,3:2|3:0|3:0|3:0,3:0:0:0:
28,341,172865,5,6,3:2:0:0:
57,365,172951,1,0,3:0:0:0:
94,371,173037,1,8,3:0:0:0:
130,360,173123,1,0,3:0:0:0:
161,338,173208,2,0,L|108:326,3,54,2|0|8|0,3:2|3:0|3:0|3:0,3:0:0:0:
239,290,173551,5,6,3:2:0:0:
210,266,173637,1,0,3:0:0:0:
192,233,173723,1,8,3:0:0:0:
187,196,173809,1,0,3:0:0:0:
197,160,173895,2,0,L|256:175,3,45,2|0|8|0,3:2|3:0|3:0|3:0,3:0:0:0:
334,158,174240,5,6,3:2:0:0:
363,134,174326,1,0,3:0:0:0:
381,101,174413,1,8,3:0:0:0:
386,64,174499,1,0,3:0:0:0:
376,28,174585,2,0,L|317:43,3,54,2|0|8|0,3:2|3:0|3:0|3:0,3:0:0:0:
233,90,174930,6,0,L|179:77,3,53.9999983520508,14|0|10|0,3:2|3:0|3:2|3:0,3:0:0:0:
90,16,175272,2,0,L|36:29,3,45,10|0|10|0,3:2|3:0|3:2|3:0,3:0:0:0:
2,133,175615,6,0,L|54:122,1,54,14|6,3:2|3:0,3:0:0:0:
126,185,175787,1,6,3:0:0:0:
133,216,175872,1,6,3:0:0:0:
141,247,175958,1,6,3:0:0:0:
127,276,176044,1,6,3:0:0:0:
112,304,176130,1,6,3:0:0:0:
121,335,176215,1,6,3:0:0:0:
132,363,176301,6,0,B|176:342|176:342|247:372|247:372|298:356,1,180,4|0,3:0|3:0,3:0:0:0:
494,330,176815,2,0,B|419:331|419:331|414:339|414:339|323:370,1,180,8|8,3:0|3:0,3:0:0:0:
256,265,177329,1,2,3:0:0:0:
261,238,177415,1,0,3:0:0:0:
266,211,177501,1,0,3:0:0:0:
272,184,177586,1,0,3:0:0:0:
278,157,177672,1,10,3:0:0:0:
446,31,178015,6,0,L|489:20,3,45,2|0|0|0,3:0|3:0|3:0|3:0,3:0:0:0:
391,110,178358,2,0,L|348:95,1,45,2|0,3:0|3:0,3:0:0:0:
329,14,178529,2,0,L|154:58,1,180,8|8,3:0|3:0,3:0:0:0:
32,151,179043,1,2,3:0:0:0:
18,127,179129,1,0,3:0:0:0:
19,99,179215,1,0,3:0:0:0:
31,75,179301,1,0,3:0:0:0:
53,61,179386,2,0,L|142:74,1,90,10|0,3:0|3:0,3:0:0:0:
239,145,179729,6,0,L|244:189,3,45,2|0|0|0,3:0|3:0|3:0|3:0,3:0:0:0:
138,183,180072,2,0,L|136:239,1,45,2|0,3:0|3:0,3:0:0:0:
37,232,180243,2,0,L|66:335,1,90,8|2,3:0|3:0,3:0:0:0:
135,365,180501,1,0,3:0:0:0:
135,365,180586,2,0,L|151:305,1,45,8|0,3:0|3:0,3:0:0:0:
232,293,180758,1,2,3:0:0:0:
258,298,180843,1,0,3:0:0:0:
284,303,180929,1,0,3:0:0:0:
310,309,181015,1,0,3:0:0:0:
336,315,181101,1,10,3:0:0:0:
474,368,181443,5,2,3:0:0:0:
490,346,181526,1,0,3:0:0:0:
493,319,181609,1,0,3:0:0:0:
486,292,181693,1,0,3:0:0:0:
467,272,181776,1,2,3:0:0:0:
348,382,181947,2,0,B|363:319|363:319|343:273|343:273|361:211,1,180,8|0,3:0|3:0,3:0:0:0:
223,207,182461,2,0,L|135:227,1,90,2|4,3:0|3:0,3:0:0:0:
72,183,182718,1,4,3:0:0:0:
72,183,182804,1,4,3:0:0:0:
138,34,182976,5,8,3:0:0:0:
138,34,183061,1,8,3:0:0:0:
138,34,183147,2,0,P|163:70|167:114,1,90,6|0,3:0|3:0,3:0:0:0:
86,172,183480,1,2,3:0:0:0:
207,287,183647,1,8,3:0:0:0:
132,384,183813,6,0,L|145:321,1,45,2|0,3:0|3:0,3:0:0:0:
134,309,183980,2,0,L|124:353,1,45,8|0,3:0|3:0,3:0:0:0:
88,247,184147,6,0,L|75:184,1,45,2|0,3:0|3:0,3:0:0:0:
86,172,184318,2,0,L|95:216,1,45,0|0,3:0|3:0,3:0:0:0:
30,117,184489,6,0,L|43:54,1,45,8|0,3:0|3:0,3:0:0:0:
32,42,184661,2,0,L|22:86,1,45,0|0,3:0|3:0,3:0:0:0:
138,34,184832,5,2,3:0:0:0:
164,28,184915,1,0,3:0:0:0:
190,24,184998,1,0,3:0:0:0:
215,20,185054,1,0,3:0:0:0:
242,16,185165,2,0,P|263:49|246:118,1,90,2|8,3:0|3:0,3:0:0:0:
300,206,185498,6,0,L|406:184,1,90,2|8,3:0|3:0,3:0:0:0:
456,113,185850,1,2,3:0:0:0:
463,86,185935,1,0,3:0:0:0:
457,59,186021,1,0,3:0:0:0:
439,38,186107,1,0,3:0:0:0:
412,32,186192,1,10,3:0:0:0:
512,283,186535,6,0,L|423:266,1,90,2|0,3:0|3:0,3:0:0:0:
349,308,186785,1,0,3:0:0:0:
349,308,186868,1,2,3:0:0:0:
292,116,187035,1,8,3:0:0:0:
292,116,187118,1,0,3:0:0:0:
292,116,187201,2,0,L|300:206,1,90,2|8,3:0|3:0,3:0:0:0:
223,339,187543,2,0,L|165:331,3,45,2|0|0|0,3:0|3:0|3:0|3:0,3:0:0:0:
109,366,187886,2,0,L|20:379,1,90,10|0,3:0|3:0,3:0:0:0:
19,251,188229,5,2,3:0:0:0:
45,256,188312,1,0,3:0:0:0:
71,261,188395,1,0,3:0:0:0:
97,266,188479,1,0,3:0:0:0:
123,270,188562,1,2,3:0:0:0:
206,171,188729,2,0,P|218:213|205:255,1,90,8|0,3:0|3:0,3:0:0:0:
25,134,189062,1,8,3:0:0:0:
87,77,189229,2,0,L|205:95,1,90,2|8,3:0|3:0,3:0:0:0:
243,36,189486,1,8,3:0:0:0:
243,36,189571,1,2,3:0:0:0:
323,139,189743,5,8,3:0:0:0:
323,139,189829,1,8,3:0:0:0:
323,139,189914,2,0,L|451:115,1,90,2|8,3:0|3:0,3:0:0:0:
485,104,190157,2,0,L|510:37,1,45,8|2,3:0|3:0,3:0:0:0:
323,245,190414,2,0,L|451:269,1,90,8|8,3:0|3:0,3:0:0:0:
485,280,190644,2,0,L|510:347,1,45.585,8|2,3:0|3:0,3:0:0:0:
255,192,190912,6,0,L|120:192,1,135,8|8,3:0|3:0,3:0:0:0:
38,192,191247,1,8,3:0:0:0:
19,192,191331,1,8,3:0:0:0:
0,192,191416,1,14,3:0:0:0:
46,80,191585,6,0,P|44:54|36:28,3,54,14|0|0|0,3:0|3:0|3:0|3:0,3:0:0:0:
140,42,191918,2,0,P|150:17|152:-9,3,54,12|0|0|0,3:0|3:0|3:0|3:0,3:0:0:0:
237,90,192251,2,0,P|258:73|273:51,3,54,12|0|0|0,3:0|3:0|3:0|3:0,3:0:0:0:
255,192,192585,1,12,3:0:0:0:
295,206,192668,1,0,3:0:0:0:
338,206,192751,1,0,3:0:0:0:
377,186,192835,1,0,3:0:0:0:
399,149,192918,2,0,B|395:117|409:91|409:91|382:108|385:144,1,108,12|0,3:0|3:0,3:0:0:0:
446,227,193168,5,0,3:0:0:0:
446,227,193251,2,0,L|498:215,3,54,14|0|0|0,3:0|3:0|3:0|3:0,3:0:0:0:
408,325,193585,2,0,L|355:313,3,54,12|0|0|0,3:0|3:0|3:0|3:0,3:0:0:0:
285,217,193918,2,0,L|337:205,3,54,12|0|0|0,3:0|3:0|3:0|3:0,3:0:0:0:
205,282,194251,2,0,P|191:304|188:331,1,54,12|0,3:0|3:0,3:0:0:0:
288,362,194418,2,0,P|301:339|304:312,1,54,0|0,3:0|3:0,3:0:0:0:
197,193,194585,2,0,B|155:183|155:183|149:185|149:185|65:197,1,108,12|0,3:0|3:0,3:0:0:0:
18,259,194835,5,0,3:0:0:0:
18,258,194918,2,0,P|6:283|8:310,3,54,14|0|0|0,3:0|3:0|3:0|3:0,3:0:0:0:
113,324,195251,2,0,P|124:299|122:272,3,54,12|0|0|0,3:0|3:0|3:0|3:0,3:0:0:0:
91,193,195585,2,0,P|79:168|81:141,3,54,12|0|0|0,3:0|3:0|3:0|3:0,3:0:0:0:
139,81,195918,1,12,3:0:0:0:
181,78,196001,1,0,3:0:0:0:
224,74,196085,1,0,3:0:0:0:
266,71,196168,1,0,3:0:0:0:
308,67,196251,2,0,B|346:53|346:53|226:22,1,162,0|0,3:0|2:0,3:0:0:0:
149,0,196585,5,12,3:0:0:0:
231,255,196845,1,12,3:0:0:0:
189,128,197116,5,12,3:0:0:0:
275,383,197371,1,12,3:0:0:0:
390,340,197627,5,14,3:0:0:0:
411,313,197710,1,0,3:0:0:0:
417,279,197793,1,0,3:0:0:0:
410,244,197877,1,0,3:0:0:0:
391,215,197960,1,12,3:0:0:0:
370,188,198043,1,0,3:0:0:0:
364,154,198127,1,0,3:0:0:0:
371,119,198210,1,0,3:0:0:0:
390,90,198293,2,0,B|461:74|461:74|442:86|432:108,1,90,12|0,3:0|3:0,3:0:0:0:
316,44,198627,5,12,3:0:0:0:
281,39,198710,1,0,3:0:0:0:
246,34,198793,1,0,3:0:0:0:
211,29,198877,1,0,3:0:0:0:
175,21,198960,2,0,P|207:65|194:125,1,90,12|0,3:0|3:0,3:0:0:0:
120,131,199210,1,0,3:0:0:0:
120,131,199293,2,0,P|88:87|101:27,1,90,12|0,3:0|3:0,3:0:0:0:
192,191,199627,6,0,L|240:198,3,45,12|0|0|0,3:0|3:0|3:0|3:0,3:0:0:0:
117,262,199960,2,0,L|68:269,3,45,12|0|0|0,3:0|3:0|3:0|3:0,3:0:0:0:
180,345,200293,2,0,L|291:326,1,90,14|0,3:0|3:0,3:0:0:0:
348,371,200543,2,0,L|412:386,1,45,0|12,3:0|3:0,3:0:0:0:
485,174,200793,5,0,3:0:0:0:
485,174,200877,1,0,3:0:0:0:
485,174,200960,2,0,L|388:195,1,90,14|2,3:0|3:0,3:0:0:0:
342,274,201293,1,14,3:0:0:0:
472,317,201460,1,2,3:0:0:0:
378,178,201627,2,0,B|355:128|396:83|396:83|384:130,1,135,14|0,3:0|2:0,3:0:0:0:
286,156,201960,6,0,P|266:106|290:57,1,90,14|2,3:0|3:0,3:0:0:0:
170,30,202293,1,14,3:0:0:0:
137,16,202377,1,0,3:0:0:0:
102,14,202460,1,0,3:0:0:0:
68,23,202543,1,0,3:0:0:0:
38,41,202627,5,6,3:0:0:0:
110,286,202877,1,2,3:0:0:0:
41,351,203127,5,2,3:0:0:0:
116,105,203377,1,2,3:0:0:0:
30,144,203627,5,10,3:0:0:0:
257,251,203884,1,8,3:0:0:0:
327,147,204155,5,12,3:0:0:0:
68,215,204421,1,12,3:0:0:0:
152,365,204687,6,0,P|180:363|208:350,3,53.9999983520508,14|0|0|0,3:0|3:0|3:0|3:0,3:0:0:0:
313,352,205009,2,0,P|325:326|328:296,3,53.9999983520508,12|0|0|0,3:0|3:0|3:0|3:0,3:0:0:0:
374,214,205332,2,0,P|358:190|333:173,3,53.9999983520508,12|0|0|0,3:0|3:0|3:0|3:0,3:0:0:0:
328,88,205654,1,12,3:0:0:0:
328,50,205735,1,0,3:0:0:0:
357,26,205816,1,0,3:0:0:0:
393,19,205896,1,0,3:0:0:0:
427,34,205977,2,0,L|416:100,1,53.9999983520508,12|0,3:0|3:0,3:0:0:0:
498,126,206138,2,0,L|506:179,1,53.9999983520508,0|0,3:0|3:0,3:0:0:0:
442,249,206299,6,0,L|388:239,3,53.9999983520508,14|0|0|0,3:0|3:0|3:0|3:0,3:0:0:0:
305,294,206622,1,12,3:0:0:0:
267,301,206703,1,0,3:0:0:0:
230,309,206783,1,0,3:0:0:0:
193,317,206864,1,0,3:0:0:0:
156,325,206945,2,0,L|90:313,3,53.9999983520508,12|0|0|0,3:0|3:0|3:0|3:0,3:0:0:0:
20,356,207267,1,12,3:0:0:0:
9,319,207348,1,0,3:0:0:0:
11,281,207428,1,0,3:0:0:0:
30,248,207509,1,0,3:0:0:0:
62,228,207590,2,0,L|130:238,1,53.9999983520508,12|0,3:0|3:0,3:0:0:0:
175,127,207751,2,0,L|121:134,1,53.9999983520508,0|0,3:0|3:0,3:0:0:0:
37,82,207912,6,0,L|28:28,3,53.9999983520508,14|0|0|0,3:0|3:0|3:0|3:0,3:0:0:0:
122,58,208236,1,12,3:0:0:0:
156,43,208317,1,0,3:0:0:0:
193,41,208398,1,0,3:0:0:0:
228,55,208479,1,0,3:0:0:0:
252,81,208560,2,0,P|290:48|271:-7,1,107.999996704102,12|0,3:0|3:0,3:0:0:0:
229,159,208884,5,14,3:0:0:0:
260,180,208966,1,0,3:0:0:0:
296,187,209047,1,0,3:0:0:0:
333,182,209128,1,0,3:0:0:0:
367,166,209209,1,12,3:0:0:0:
398,145,209290,1,0,3:0:0:0:
434,138,209371,1,0,3:0:0:0:
471,143,209452,1,0,3:0:0:0:
505,159,209533,6,0,L|497:222,1,59.4642857142858,2|0,3:0|3:0,3:0:0:0:
470,383,209780,2,0,L|480:315,1,58.5,2|0,3:0|3:0,3:0:0:0:
398,145,210027,6,0,L|390:203,1,49.5000015106202,2|0,3:0|3:0,3:0:0:0:
365,366,210268,2,0,L|372:317,1,49.5,2|0,3:0|3:0,3:0:0:0:
300,131,210510,6,0,L|293:171,1,40.5,2|0,3:0|3:0,3:0:0:0:
263,333,210751,2,0,L|269:292,1,40.5,2|0,3:0|3:0,3:0:0:0:
197,119,210993,6,0,L|192:152,1,33.7500000000001,6|0,3:0|3:0,3:0:0:0:
164,308,211235,2,0,L|168:274,1,33.7500000000001,6|0,3:0|3:0,3:0:0:0:
100,105,211477,6,0,L|95:133,1,29.2499986610413,2|0,3:0|3:0,3:0:0:0:
68,283,211722,2,0,L|72:254,1,29.2500000000002,2|0,3:0|3:0,3:0:0:0:
0,173,211968,5,0,3:0:0:0:
100,105,212128,1,10,3:0:0:0:
14,0,212281,2,0,B|0:42|0:42|16:88,1,90,10|0,3:0|3:0,3:0:0:0:
145,200,212589,1,10,3:0:0:0:
206,116,212743,2,0,B|220:74|220:74|204:28,1,90,10|0,3:0|3:0,3:0:0:0:
346,16,213051,6,0,B|446:-5|414:78|520:56,1,180,14|14,3:0|3:0,3:0:0:0:
512,57,213682,6,0,B|489:58|466:64|466:64|466:73|466:73|450:79|436:87|436:87|443:96|443:96|428:109|421:125|421:125|433:133|433:133|427:158|427:177|427:177|443:183|443:183|438:206|445:229|445:229|499:217|486:160,1,314.999990386963,2|0,2:0|3:0,2:0:0:0:
393,151,214163,6,0,P|314:176|311:238,1,144,6|0,3:0|3:0,3:0:0:0:
345,297,214507,2,0,P|384:306|424:318,1,72,8|0,3:0|3:0,3:0:0:0:
238,371,214738,1,2,3:2:0:0:
194,305,214853,1,2,3:2:0:0:
236,243,214969,2,0,P|271:237|306:228,1,72,10|2,3:2|3:2,3:0:0:0:
393,151,215200,1,2,3:2:0:0:
437,85,215315,1,2,3:2:0:0:
394,23,215430,2,0,P|354:17|311:5,1,72,10|2,3:2|3:2,3:0:0:0:
207,78,215661,1,0,3:0:0:0:
141,31,215777,2,0,P|69:40|0:55,1,144,2|2,3:2|3:2,3:0:0:0:
76,372,216353,5,10,3:2:0:0:
20,318,216469,1,2,3:2:0:0:
73,260,216584,2,0,P|109:270|165:281,1,72,2|2,3:2|3:2,3:0:0:0:
231,312,216815,2,0,P|267:303|323:291,1,72,10|2,3:2|3:2,3:0:0:0:
398,305,217046,2,0,P|409:339|395:372,2,72,2|2|8,3:2|3:2|3:0,3:0:0:0:
327,210,217392,2,0,P|329:139|380:91,1,144,2|2,3:2|3:2,3:2:0:0:
512,96,217738,2,0,L|370:75,1,144,10|12,3:2|3:0,3:0:0:0:
264,14,218200,5,12,3:0:0:0:
232,31,218315,1,12,3:0:0:0:
122,91,218546,1,12,3:0:0:0:
10,147,218777,1,12,3:0:0:0:
9,41,219007,1,12,3:0:0:0:
17,5,219123,1,12,3:0:0:0:
239,116,219353,5,12,3:0:0:0:
256,147,219469,1,12,3:0:0:0:
252,182,219584,1,0,3:0:0:0:
228,209,219700,1,12,3:0:0:0:
103,174,219930,5,12,3:0:0:0:
239,116,220161,1,12,3:0:0:0:
375,58,220392,1,12,3:0:0:0:
511,0,220738,5,14,3:0:0:0:
