osu file format v14

[General]
AudioFilename: audio.mp3
AudioLeadIn: 0
PreviewTime: 158017
Countdown: 0
SampleSet: Normal
StackLeniency: 0
Mode: 1
LetterboxInBreaks: 0
WidescreenStoryboard: 1

[Editor]
DistanceSpacing: 1.5
BeatDivisor: 4
GridSize: 32
TimelineZoom: 1.666292

[Metadata]
Title:Zetsu
TitleUnicode:絶
Artist:Yousei Teikoku
ArtistUnicode:妖精帝國
Creator:Genjuro
Version:uone's Kantan
Source:
Tags:metal japanese the age of villains antti yassu- tks uone ler1211 symphonic gothic Lantis LACM-15820
BeatmapID:3691465
BeatmapSetID:1770207

[Difficulty]
HPDrainRate:8
CircleSize:2
OverallDifficulty:3
ApproachRate:10
SliderMultiplier:1.4
SliderTickRate:1

[Events]
//Background and Video events
0,0,"bg.jpg",0,-30
//Break Periods
//Storyboard Layer 0 (Background)
//Storyboard Layer 1 (Fail)
//Storyboard Layer 2 (Pass)
//Storyboard Layer 3 (Foreground)
//Storyboard Layer 4 (Overlay)
//Storyboard Sound Samples

[TimingPoints]
194,264.31718061674,4,1,0,100,1,8
194,-102.714932127575,4,1,0,100,0,8
458,213.523131672598,4,1,0,100,1,8
458,-127.149321268165,4,1,0,100,0,8
564,223.048327137547,4,1,0,100,1,8
564,-121.719457013569,4,1,0,100,0,8
787,230.769230769231,4,1,0,100,1,1
787,-117.647058823529,4,1,0,100,0,1
3787,-117.647058823529,4,1,0,100,0,0
11758,234.375,4,1,0,100,1,8
11758,-115.837104072398,4,1,0,100,0,8
11875,234.375,4,1,0,100,1,0
11875,-115.837104072398,4,1,0,100,0,8
11992,228.136882129278,4,1,0,100,1,8
11992,-119.004524886808,4,1,0,100,0,8
12318,238.095238095239,4,1,0,100,1,8
12318,-114.027149321804,4,1,0,100,0,8
12556,249.480249480249,4,1,0,100,1,8
12556,-108.823529412821,4,1,0,100,0,8
12805,204.778156996587,4,1,0,100,1,0
12805,-132.579185521082,4,1,0,100,0,0
12907,252.100840336135,4,1,0,100,1,8
12907,-107.692307692473,4,1,0,100,0,8
13159,214.285714285715,4,1,0,100,1,8
13159,-126.696832580103,4,1,0,100,0,8
13373,243.902439024391,4,1,0,100,1,8
13373,-111.31221719455,4,1,0,100,0,8
13494,273.972602739726,4,1,0,100,1,8
13494,-99.0950226245644,4,1,0,100,0,8
13767,187.5,4,1,0,100,1,0
13767,-144.796380090498,4,1,0,100,0,0
13954,197.368421052632,4,1,0,100,1,8
13954,-137.556561086072,4,1,0,100,0,8
14052,273.972602739726,4,1,0,100,1,8
14052,-99.0950226245644,4,1,0,100,0,8
14325,227.272727272728,4,1,0,100,1,8
14325,-119.457013574834,4,1,0,100,0,8
14552,179.10447761194,4,1,0,100,1,8
14552,-151.58371040892,4,1,0,100,0,8
14641,230.769230769231,4,1,0,100,1,0
14641,-117.647058823529,4,1,0,100,0,0
15102,199.335548172758,4,1,0,100,1,8
15102,-136.199095023179,4,1,0,100,0,8
15201,240,4,1,0,100,1,8
15201,-113.122171945701,4,1,0,100,0,8
15441,230.769230769231,4,1,0,100,1,8
15441,-117.647058823529,4,1,0,100,0,8
15556,230.769230769231,4,1,0,100,1,0
15556,-117.647058823529,4,1,0,100,0,0
17402,-117.647058823529,4,1,0,75,0,0
18671,-117.647058823529,4,1,0,100,0,0
36685,230.769230769231,4,1,0,100,1,8
36685,-111.111111111111,4,1,0,100,0,8
36800,230.769230769231,4,1,0,100,1,0
36800,-111.111111111111,4,1,0,100,0,0
40940,293.040293040293,4,1,0,100,1,8
40940,-92.647058823107,4,1,0,100,0,8
41526,292.682926829269,5,1,0,100,1,0
41526,-98.5576923078344,5,1,0,100,0,0
42989,291.262135922331,5,1,0,100,1,0
42989,-99.0384615388615,5,1,0,100,0,0
44257,292.682926829269,5,1,0,100,1,0
44257,-98.5576923078344,5,1,0,100,0,0
45125,287.081339712919,5,1,0,100,1,0
45125,-100.480769231252,5,1,0,100,0,0
47421,331.034482758621,5,1,0,100,1,8
47421,-86.9565217391304,5,1,0,100,0,8
47917,329.670329670331,5,1,0,100,1,0
47917,-87.4999999997813,5,1,0,100,0,0
48906,250,4,1,0,100,1,0
48906,-115.384615385503,4,1,0,100,0,0
60906,260.869565217392,4,1,0,100,1,0
60906,-110.153256705,4,1,0,100,0,0
61036,-147.435897437032,4,1,0,50,0,0
62471,-147.435897437032,4,1,0,100,0,0
63123,-147.435897437032,4,1,0,50,0,0
64558,-147.435897437032,4,1,0,100,0,0
65210,-147.435897437032,4,1,0,50,0,0
66645,-147.435897437032,4,1,0,100,0,0
67297,-147.435897437032,4,1,0,50,0,0
68732,-147.435897437032,4,1,0,100,0,0
69384,-147.435897437032,4,1,0,75,0,0
70819,-147.435897437032,4,1,0,100,0,0
71471,-147.435897437032,4,1,0,75,0,0
72840,-147.435897437032,4,1,0,100,0,0
73427,461.538461538464,4,1,0,100,1,0
73427,-83.3333333333333,4,1,0,100,0,0
88196,-83.3333333333333,4,1,0,100,0,1
102965,-83.3333333333333,4,1,0,100,0,0
125119,344.332855093257,4,1,0,100,1,0
125119,-111.698717949026,4,1,0,100,0,0
126496,342.857142857144,4,1,0,100,1,1
126496,-103.550295858448,4,1,0,100,0,1
148353,-103.550295858448,4,1,0,75,0,1
148438,-103.550295858448,4,1,0,75,0,0
157953,-103.550295858448,4,1,0,100,0,0
170381,-103.550295858448,4,1,0,100,0,1
175867,342.857142857144,5,1,0,100,1,0
175867,-103.550295858448,5,1,0,100,0,0
182724,333.333333333334,5,1,0,100,1,0
182724,-106.508875740653,5,1,0,100,0,0
184390,341.685649202733,5,1,0,100,1,0
184390,-103.905325444618,5,1,0,100,0,0
186098,338.983050847459,5,1,0,100,1,0
186098,-104.733727811419,5,1,0,100,0,0
187792,340.328984685196,5,1,0,100,1,0
187792,-104.319526627578,5,1,0,100,0,0
189493,331.491712707183,5,1,0,100,1,0
189493,-107.100591716959,5,1,0,100,0,0
191150,333.333333333334,5,1,0,100,1,1
191150,-106.508875740653,5,1,0,100,0,1
196149,349.344978165939,5,1,0,100,1,0
196149,-101.627218935675,5,1,0,100,0,0
197197,333.333333333334,5,1,0,100,1,1
197197,-106.508875740653,5,1,0,100,0,1
202196,335.476656415991,3,1,0,100,1,0
202196,-105.828402367055,3,1,0,100,0,0
203202,344.827586206898,3,1,0,100,1,0
203202,-102.958579882303,3,1,0,100,0,0
204236,324.324324324325,5,1,0,100,1,1
204236,-109.467455621723,5,1,0,100,0,1
209100,324.324324324325,3,1,0,100,1,0
209100,-109.467455621723,3,1,0,100,0,0
211694,307.692307692309,7,1,0,100,1,0
211694,-115.384615385503,7,1,0,100,0,0
213724,230.769230769231,7,1,0,100,1,8
213724,-117.647058823529,7,1,0,100,0,8
213839,230.769230769231,4,1,0,100,1,0
213839,-117.647058823529,4,1,0,100,0,0
217531,-117.647058823529,4,1,0,100,0,1
220300,-117.647058823529,4,1,0,100,0,0

[HitObjects]
256,192,787,5,0,0:0:0:0:
256,192,1133,1,0,0:0:0:0:
256,192,1363,1,0,0:0:0:0:
256,192,1594,1,8,0:0:0:0:
256,192,2171,1,0,0:0:0:0:
256,192,2517,1,8,0:0:0:0:
256,192,2748,1,8,0:0:0:0:
256,192,2979,1,0,0:0:0:0:
256,192,3787,1,12,0:0:0:0:
256,192,4363,1,4,0:0:0:0:
256,192,4710,1,8,0:0:0:0:
256,192,5287,1,0,0:0:0:0:
256,192,5633,1,8,0:0:0:0:
256,192,6210,1,4,0:0:0:0:
256,192,6787,1,8,0:0:0:0:
256,192,7248,1,0,0:0:0:0:
256,192,8056,1,4,0:0:0:0:
256,192,8402,1,8,0:0:0:0:
256,192,8979,1,0,0:0:0:0:
256,192,9325,1,8,0:0:0:0:
256,192,9902,1,12,0:0:0:0:
256,192,10479,1,0,0:0:0:0:
256,192,10940,1,8,0:0:0:0:
256,192,11758,1,4,0:0:0:0:
256,192,12318,1,8,0:0:0:0:
256,192,12907,1,8,0:0:0:0:
256,192,13494,1,8,0:0:0:0:
256,192,14052,1,8,0:0:0:0:
256,192,14641,1,8,0:0:0:0:
256,192,15201,1,8,0:0:0:0:
256,192,15441,1,4,0:0:0:0:
256,192,16017,1,8,0:0:0:0:
256,192,16479,1,0,0:0:0:0:
256,192,16940,1,8,0:0:0:0:
256,192,17286,1,4,0:0:0:0:
256,192,19132,1,4,0:0:0:0:
256,192,19940,1,8,0:0:0:0:
256,192,20402,1,8,0:0:0:0:
256,192,20979,1,0,0:0:0:0:
256,192,21325,1,8,0:0:0:0:
256,192,21786,1,8,0:0:0:0:
256,192,22363,1,0,0:0:0:0:
256,192,22825,1,4,0:0:0:0:
256,192,23632,1,8,0:0:0:0:
256,192,24094,1,8,0:0:0:0:
256,192,24671,1,0,0:0:0:0:
256,192,25017,1,8,0:0:0:0:
256,192,25594,1,0,0:0:0:0:
256,192,25940,1,8,0:0:0:0:
256,192,26517,1,4,0:0:0:0:
256,192,27325,1,8,0:0:0:0:
256,192,27786,1,8,0:0:0:0:
256,192,28363,1,0,0:0:0:0:
256,192,28709,1,8,0:0:0:0:
256,192,29171,1,8,0:0:0:0:
256,192,29748,1,0,0:0:0:0:
256,192,30556,1,12,0:0:0:0:
256,192,31017,1,8,0:0:0:0:
256,192,31479,1,8,0:0:0:0:
256,192,32056,1,0,0:0:0:0:
256,192,32402,1,8,0:0:0:0:
256,192,32979,1,0,0:0:0:0:
256,192,33325,1,8,0:0:0:0:
256,192,33902,1,4,0:0:0:0:
256,192,34709,1,8,0:0:0:0:
256,192,35171,1,8,0:0:0:0:
256,192,35748,1,0,0:0:0:0:
256,192,36685,1,0,0:0:0:0:
256,192,37146,1,0,0:0:0:0:
256,192,37607,1,8,0:0:0:0:
256,192,38069,1,0,0:0:0:0:
256,192,38530,1,8,0:0:0:0:
256,192,38992,1,0,0:0:0:0:
256,192,39453,1,8,0:0:0:0:
256,192,39915,1,0,0:0:0:0:
256,192,40376,1,0,0:0:0:0:
256,192,40838,1,4,0:0:0:0:
256,192,41526,1,8,0:0:0:0:
256,192,42404,1,12,0:0:0:0:
256,192,42696,1,12,0:0:0:0:
256,192,42989,1,0,0:0:0:0:
256,192,43571,1,8,0:0:0:0:
256,192,44008,1,12,0:0:0:0:
256,192,45125,1,8,0:0:0:0:
256,192,45986,1,12,0:0:0:0:
256,192,46273,1,12,0:0:0:0:
256,192,46560,1,0,0:0:0:0:
256,192,47134,1,12,0:0:0:0:
256,192,48411,1,0,0:0:0:0:
256,192,48906,1,4,0:0:0:0:
256,192,49906,1,8,0:0:0:0:
256,192,50406,1,0,0:0:0:0:
256,192,50781,1,0,0:0:0:0:
256,192,51031,1,0,0:0:0:0:
256,192,51656,1,0,0:0:0:0:
256,192,51906,1,8,0:0:0:0:
256,192,52406,1,8,0:0:0:0:
256,192,52906,1,4,0:0:0:0:
256,192,53906,1,8,0:0:0:0:
256,192,54406,1,0,0:0:0:0:
256,192,54781,1,0,0:0:0:0:
256,192,55031,1,0,0:0:0:0:
256,192,55656,1,0,0:0:0:0:
256,192,55906,1,8,0:0:0:0:
256,192,56906,1,4,0:0:0:0:
256,192,57406,1,8,0:0:0:0:
256,192,57781,1,0,0:0:0:0:
256,192,58406,1,8,0:0:0:0:
256,192,58781,1,0,0:0:0:0:
256,192,59031,1,0,0:0:0:0:
256,192,59656,1,8,0:0:0:0:
256,192,59906,1,0,0:0:0:0:
256,192,60406,1,0,0:0:0:0:
256,192,60906,1,8,0:0:0:0:
256,192,62992,1,8,0:0:0:0:
256,192,65079,1,8,0:0:0:0:
256,192,67166,1,8,0:0:0:0:
256,192,69253,1,8,0:0:0:0:
256,192,71340,1,8,0:0:0:0:
256,192,73427,1,4,0:0:0:0:
256,192,74811,1,8,0:0:0:0:
256,192,75273,1,0,0:0:0:0:
256,192,75734,1,0,0:0:0:0:
256,192,76196,1,8,0:0:0:0:
256,192,77119,1,0,0:0:0:0:
256,192,77580,1,0,0:0:0:0:
256,192,78042,1,8,0:0:0:0:
256,192,78503,1,8,0:0:0:0:
256,192,78965,1,0,0:0:0:0:
256,192,79888,1,8,0:0:0:0:
256,192,80350,1,8,0:0:0:0:
256,224,80811,1,4,0:0:0:0:
256,192,81734,1,8,0:0:0:0:
256,192,82196,1,8,0:0:0:0:
256,192,82657,1,0,0:0:0:0:
256,192,83580,1,8,0:0:0:0:
256,192,84042,1,0,0:0:0:0:
256,192,84503,1,0,0:0:0:0:
256,192,85427,1,8,0:0:0:0:
256,192,85888,1,8,0:0:0:0:
256,192,86350,1,0,0:0:0:0:
256,192,86811,1,0,0:0:0:0:
256,192,87273,1,8,0:0:0:0:
256,192,88196,1,4,0:0:0:0:
256,192,89580,1,8,0:0:0:0:
256,192,90042,1,0,0:0:0:0:
256,192,90965,1,8,0:0:0:0:
256,192,91427,1,8,0:0:0:0:
256,192,91888,1,0,0:0:0:0:
256,192,92811,1,0,0:0:0:0:
256,192,93273,1,8,0:0:0:0:
256,192,93734,1,0,0:0:0:0:
256,192,94196,1,8,0:0:0:0:
256,192,94657,1,0,0:0:0:0:
256,192,95580,1,4,0:0:0:0:
256,192,96503,1,0,0:0:0:0:
256,192,96965,1,8,0:0:0:0:
256,192,97427,1,0,0:0:0:0:
256,192,98350,1,8,0:0:0:0:
256,192,98811,1,8,0:0:0:0:
256,192,99273,1,0,0:0:0:0:
256,192,100196,1,0,0:0:0:0:
256,192,100657,1,8,0:0:0:0:
256,192,101119,1,0,0:0:0:0:
256,192,101580,1,8,0:0:0:0:
256,192,102042,1,8,0:0:0:0:
256,192,102965,1,0,0:0:0:0:
256,192,104119,1,8,0:0:0:0:
256,192,104580,1,8,0:0:0:0:
256,192,105042,1,0,0:0:0:0:
256,192,105734,1,8,0:0:0:0:
256,192,106196,1,8,0:0:0:0:
256,192,106657,1,0,0:0:0:0:
256,192,107811,1,0,0:0:0:0:
256,192,108273,1,8,0:0:0:0:
256,192,108734,1,0,0:0:0:0:
256,192,109427,1,8,0:0:0:0:
256,192,110350,1,4,0:0:0:0:
256,192,111273,1,8,0:0:0:0:
256,192,111734,1,8,0:0:0:0:
256,192,112196,1,0,0:0:0:0:
256,192,112657,1,0,0:0:0:0:
256,192,113119,1,8,0:0:0:0:
256,192,114042,1,0,0:0:0:0:
256,192,114965,1,8,0:0:0:0:
256,192,115427,1,0,0:0:0:0:
256,192,115888,1,8,0:0:0:0:
256,192,116350,1,0,0:0:0:0:
256,192,116811,1,12,0:0:0:0:
256,192,117734,1,4,0:0:0:0:
256,192,118657,1,8,0:0:0:0:
256,192,119580,1,0,0:0:0:0:
256,192,120042,1,0,0:0:0:0:
256,192,120503,1,8,0:0:0:0:
256,192,120965,1,8,0:0:0:0:
256,192,121427,1,0,0:0:0:0:
256,192,122350,1,8,0:0:0:0:
256,192,122811,1,8,0:0:0:0:
256,192,123273,1,0,0:0:0:0:
256,192,123734,1,8,0:0:0:0:
256,192,124196,1,12,0:0:0:0:
256,192,124888,1,12,0:0:0:0:
256,192,126496,1,4,0:0:0:0:
256,192,127524,1,8,0:0:0:0:
256,192,128038,1,8,0:0:0:0:
256,192,128553,1,0,0:0:0:0:
256,192,128896,1,8,0:0:0:0:
256,192,129238,1,0,0:0:0:0:
256,192,129924,1,8,0:0:0:0:
256,192,130267,1,8,0:0:0:0:
256,192,130610,1,0,0:0:0:0:
256,192,130953,1,8,0:0:0:0:
256,192,131296,1,0,0:0:0:0:
256,192,131981,1,4,0:0:0:0:
256,192,132667,1,8,0:0:0:0:
256,192,133010,1,8,0:0:0:0:
256,192,133353,1,0,0:0:0:0:
256,192,134038,1,8,0:0:0:0:
256,192,134381,1,0,0:0:0:0:
256,192,134724,1,8,0:0:0:0:
256,192,135410,1,8,0:0:0:0:
256,192,135753,1,8,0:0:0:0:
256,192,136096,1,0,0:0:0:0:
256,192,136438,1,0,0:0:0:0:
256,192,136781,1,8,0:0:0:0:
256,192,137467,1,4,0:0:0:0:
448,384,137981,1,8,0:0:0:0:
256,192,138838,1,0,0:0:0:0:
256,192,139353,1,8,0:0:0:0:
256,192,139867,1,8,0:0:0:0:
256,192,140210,1,0,0:0:0:0:
256,192,140896,1,8,0:0:0:0:
256,192,141238,1,8,0:0:0:0:
256,192,141581,1,0,0:0:0:0:
256,192,141924,1,8,0:0:0:0:
256,192,142267,1,8,0:0:0:0:
256,192,142953,1,4,0:0:0:0:
256,192,143638,1,0,0:0:0:0:
256,192,143981,1,8,0:0:0:0:
256,192,144324,1,0,0:0:0:0:
256,192,145010,1,8,0:0:0:0:
256,192,145353,1,8,0:0:0:0:
256,192,145696,1,0,0:0:0:0:
256,192,146038,1,0,0:0:0:0:
256,192,146381,1,8,0:0:0:0:
256,192,147067,1,8,0:0:0:0:
256,192,147410,1,8,0:0:0:0:
256,192,147753,1,8,0:0:0:0:
256,192,148096,1,8,0:0:0:0:
256,192,148438,12,0,157867,0:0:0:0:
256,192,158038,5,0,0:0:0:0:
256,192,158381,1,0,0:0:0:0:
256,192,158724,1,8,0:0:0:0:
256,192,159410,1,4,0:0:0:0:
256,192,160438,1,12,0:0:0:0:
256,192,160781,1,4,0:0:0:0:
256,192,161810,1,12,0:0:0:0:
256,192,162153,1,4,0:0:0:0:
256,192,163181,1,4,0:0:0:0:
256,192,163524,1,4,0:0:0:0:
256,192,164210,1,0,0:0:0:0:
256,192,164553,1,0,0:0:0:0:
256,192,164896,1,12,0:0:0:0:
256,192,165924,1,12,0:0:0:0:
256,192,166267,1,4,0:0:0:0:
256,192,167296,1,12,0:0:0:0:
256,192,167638,1,4,0:0:0:0:
256,192,168667,1,12,0:0:0:0:
256,192,169010,1,12,0:0:0:0:
256,192,169696,1,0,0:0:0:0:
256,192,170038,1,0,0:0:0:0:
256,192,170381,1,8,0:0:0:0:
256,192,171067,1,8,0:0:0:0:
256,192,171410,1,0,0:0:0:0:
256,192,171753,1,8,0:0:0:0:
256,192,172438,1,8,0:0:0:0:
256,192,172781,1,0,0:0:0:0:
256,192,173124,1,8,0:0:0:0:
256,192,173810,1,8,0:0:0:0:
256,192,174153,1,0,0:0:0:0:
256,192,174496,1,8,0:0:0:0:
256,192,174838,1,8,0:0:0:0:
256,192,175181,1,8,0:0:0:0:
256,192,175524,1,8,0:0:0:0:
256,192,175867,1,4,0:0:0:0:
256,192,176895,1,0,0:0:0:0:
256,192,177238,1,8,0:0:0:0:
256,192,177581,1,0,0:0:0:0:
256,192,178095,1,8,0:0:0:0:
256,192,178609,1,0,0:0:0:0:
256,192,179295,1,0,0:0:0:0:
256,192,180324,1,0,0:0:0:0:
256,192,180667,1,8,0:0:0:0:
256,192,181009,1,0,0:0:0:0:
256,192,181524,1,8,0:0:0:0:
256,192,182038,1,8,0:0:0:0:
256,192,182724,1,4,0:0:0:0:
256,192,183724,1,8,0:0:0:0:
256,192,184057,1,8,0:0:0:0:
256,192,184390,1,0,0:0:0:0:
256,192,184902,1,8,0:0:0:0:
256,192,185415,1,0,0:0:0:0:
256,192,186098,1,0,0:0:0:0:
256,192,187114,1,0,0:0:0:0:
256,192,187453,1,8,0:0:0:0:
256,192,187792,1,0,0:0:0:0:
256,192,188302,1,8,0:0:0:0:
256,192,188812,1,0,0:0:0:0:
256,192,189493,1,0,0:0:0:0:
256,192,189990,1,8,0:0:0:0:
256,192,190487,1,8,0:0:0:0:
256,192,191150,1,4,0:0:0:0:
256,192,192150,1,8,0:0:0:0:
256,192,192483,1,8,0:0:0:0:
256,192,192816,1,0,0:0:0:0:
256,192,193316,1,8,0:0:0:0:
256,192,193816,1,0,0:0:0:0:
256,192,194150,1,8,0:0:0:0:
256,192,194483,1,0,0:0:0:0:
256,192,194983,1,0,0:0:0:0:
256,192,195483,1,8,0:0:0:0:
256,192,196149,1,12,0:0:0:0:
256,192,196673,1,0,0:0:0:0:
256,192,197197,1,12,0:0:0:0:
256,192,198197,1,8,0:0:0:0:
256,192,198530,1,8,0:0:0:0:
256,192,198863,1,0,0:0:0:0:
256,192,199363,1,0,0:0:0:0:
256,192,199863,1,8,0:0:0:0:
256,192,200197,1,8,0:0:0:0:
256,192,200530,1,0,0:0:0:0:
256,192,201030,1,0,0:0:0:0:
256,192,201530,1,8,0:0:0:0:
256,192,201863,1,0,0:0:0:0:
256,192,202196,1,12,0:0:0:0:
256,192,202699,1,0,0:0:0:0:
256,192,203202,1,8,0:0:0:0:
256,192,203719,1,0,0:0:0:0:
256,192,204236,1,4,0:0:0:0:
256,192,205208,1,8,0:0:0:0:
256,192,205533,1,8,0:0:0:0:
256,192,205857,1,0,0:0:0:0:
256,192,206344,1,8,0:0:0:0:
256,192,206830,1,8,0:0:0:0:
256,192,207154,1,8,0:0:0:0:
256,192,207479,1,0,0:0:0:0:
256,192,207965,1,8,0:0:0:0:
256,192,208452,1,0,0:0:0:0:
256,192,208776,1,0,0:0:0:0:
256,192,209100,1,12,0:0:0:0:
256,192,209586,1,0,0:0:0:0:
256,192,210072,1,12,0:0:0:0:
256,192,210559,1,0,0:0:0:0:
256,192,211045,1,12,0:0:0:0:
256,192,211694,1,8,0:0:0:0:
256,192,212617,1,12,0:0:0:0:
256,192,212924,1,12,0:0:0:0:
256,192,213724,1,4,0:0:0:0:
256,192,214531,1,8,0:0:0:0:
256,192,214992,1,8,0:0:0:0:
256,192,215569,1,0,0:0:0:0:
256,192,215915,1,8,0:0:0:0:
256,192,216377,1,8,0:0:0:0:
256,192,216954,1,0,0:0:0:0:
256,192,217531,1,0,0:0:0:0:
256,192,217877,1,0,0:0:0:0:
256,192,218108,1,0,0:0:0:0:
256,192,218339,1,8,0:0:0:0:
256,192,218915,1,0,0:0:0:0:
256,192,219262,1,8,0:0:0:0:
256,192,219492,1,8,0:0:0:0:
256,192,219723,1,0,0:0:0:0:
256,192,220300,1,12,0:0:0:0:
