osu file format v14

[General]
AudioFilename: audio.mp3
AudioLeadIn: 0
PreviewTime: 102581
Countdown: 0
SampleSet: Normal
StackLeniency: 0.7
Mode: 0
LetterboxInBreaks: 0
WidescreenStoryboard: 0

[Editor]
DistanceSpacing: 0.2
BeatDivisor: 4
GridSize: 32
TimelineZoom: 1.599999

[Metadata]
Title:Valkyrja
TitleUnicode:Valkyrja
Artist:Yousei Teikoku
ArtistUnicode:妖精帝國
Creator:Mordred
Version:Normal
Source:舞-乙HiME 乙女舞闘史!!
Tags:gothic lolita propaganda mai kinoto hime otome butou-shi butoushi opening rock das feenreich japanese 日本語
BeatmapID:2558915
BeatmapSetID:1225418

[Difficulty]
HPDrainRate:4
CircleSize:3
OverallDifficulty:4
ApproachRate:6
SliderMultiplier:0.999999999999999
SliderTickRate:1

[Events]
//Background and Video events
0,0,"80977951.jpg",0,0
//Break Periods
2,145822,165906
2,277622,287239
//Storyboard Layer 0 (Background)
//Storyboard Layer 1 (Fail)
//Storyboard Layer 2 (Pass)
//Storyboard Layer 3 (Foreground)
//Storyboard Layer 4 (Overlay)
//Storyboard Sound Samples

[TimingPoints]
5623,333.333333333333,4,2,1,60,1,0
16289,-100,4,2,1,60,0,0
26956,-100,4,2,1,60,0,0
37622,-100,4,1,1,70,0,0
58956,-100,4,2,1,60,0,0
80289,-100,4,1,2,70,0,0
88456,-100,4,1,1,70,0,0
90956,-100,4,1,2,70,0,0
102956,-90.9090909090909,4,1,2,80,0,1
145622,-100,4,1,1,70,0,0
166956,-100,4,2,1,60,0,0
177622,-111.111111111111,4,2,1,60,0,0
182956,-100,4,2,1,60,0,0
188289,-100,4,1,2,70,0,0
196456,-100,4,1,1,70,0,0
198956,-100,4,1,2,70,0,0
210956,-90.9090909090909,4,1,2,80,0,1
252289,-100,4,2,1,70,0,0
253622,-100,4,1,1,70,0,0
264289,-90.9090909090909,4,1,1,80,0,1
274956,-100,4,2,1,70,0,0
288289,-125,4,2,1,50,0,0
297622,-111.111111111111,4,2,1,60,0,0
298956,-111.111111111111,4,2,1,70,0,0
300289,-111.111111111111,4,2,1,50,0,0
301622,-90.9090909090909,4,1,2,70,0,1
341622,-90.9090909090909,4,1,1,60,0,1
342289,-90.9090909090909,4,1,1,65,0,1
342956,-90.9090909090909,4,1,1,70,0,1
343289,-90.9090909090909,4,1,1,75,0,1
343622,-90.9090909090909,4,1,1,80,0,1
343956,-90.9090909090909,4,1,1,85,0,1
344289,-100,4,1,1,70,0,0
345622,-100,4,1,1,70,0,0
354956,-100,4,1,1,70,0,0
355289,-100,4,1,1,70,0,0
365622,-90.9090909090909,4,1,1,70,0,0
376289,-83.3333333333333,4,1,1,70,0,0
384289,-100,4,1,1,50,0,0
385622,-100,4,1,1,60,0,0
386289,-100,4,1,1,70,0,0
386622,-100,4,1,1,80,0,0
386956,-100,4,1,1,90,0,0

[Colours]
Combo1 : 250,180,240
Combo2 : 110,190,225
Combo3 : 255,230,130
Combo4 : 150,230,140

[HitObjects]
32,320,16289,5,14,0:1:0:0:
85,127,16956,1,8,0:1:0:0:
128,321,17622,1,8,0:1:0:0:
181,128,18289,1,8,0:1:0:0:
224,322,18956,1,8,0:1:0:0:
277,129,19623,1,8,0:1:0:0:
320,323,20289,1,8,0:1:0:0:
373,130,20956,1,8,0:1:0:0:
490,291,21622,5,14,0:1:0:0:
303,217,22289,1,8,0:1:0:0:
461,94,22956,1,8,0:1:0:0:
387,281,23623,1,8,0:1:0:0:
200,207,24289,1,8,0:1:0:0:
274,20,24956,2,0,P|323:13|373:13,1,99.9999999999999,8|8,0:1|0:1,0:0:0:0:
427,41,25456,1,8,0:1:0:0:
427,41,25622,2,0,L|434:90,1,50,8|8,0:1|0:1,0:0:0:0:
466,136,25956,2,0,L|458:185,1,50,8|8,0:1|0:1,0:0:0:0:
419,224,26289,2,0,P|441:293|382:363,1,150,8|8,0:1|0:1,0:0:0:0:
353,382,26956,6,0,L|253:370,1,99.9999999999999,6|8,3:1|3:1,0:0:0:0:
173,295,27622,2,0,L|184:195,1,99.9999999999999,10|8,3:1|3:1,0:0:0:0:
292,173,28289,1,10,0:1:0:0:
304,65,28622,1,8,0:1:0:0:
205,21,28956,1,10,0:1:0:0:
133,102,29289,1,8,0:1:0:0:
24,86,29622,6,0,P|10:134|1:183,1,99.9999999999999,10|8,3:1|3:1,0:0:0:0:
33,288,30289,2,0,P|82:296|130:310,1,99.9999999999999,10|8,3:1|3:1,0:0:0:0:
224,367,30956,1,10,0:1:0:0:
289,279,31289,1,8,0:1:0:0:
198,216,31622,1,10,0:1:0:0:
215,107,31956,2,0,L|260:79,1,50,8|8,0:1|0:1,0:0:0:0:
274,28,32289,6,0,P|320:45|370:49,1,99.9999999999999,14|8,3:1|3:1,0:0:0:0:
470,94,32956,2,0,P|452:140|448:190,1,99.9999999999999,10|8,3:1|3:1,0:0:0:0:
492,290,33622,1,10,0:1:0:0:
408,361,33956,1,8,0:1:0:0:
311,309,34289,1,10,0:1:0:0:
212,358,34622,1,8,0:1:0:0:
102,343,34956,6,0,P|54:327|13:298,1,99.9999999999999,10|8,3:1|3:1,0:0:0:0:
0,189,35622,2,0,P|15:141|44:100,1,99.9999999999999,10|8,3:1|3:1,0:0:0:0:
143,52,36289,1,10,0:1:0:0:
223,126,36622,1,0,3:0:0:0:
223,126,36956,1,0,3:0:0:0:
429,52,37622,6,0,P|451:96|463:144,1,99.9999999999999,14|8,0:1|0:2,0:0:0:0:
396,232,38289,1,10,0:1:0:0:
426,337,38622,1,8,0:2:0:0:
320,367,38956,2,0,L|206:348,1,99.9999999999999,10|8,0:1|0:2,0:0:0:0:
116,383,39622,1,10,0:1:0:0:
24,322,39956,1,8,0:2:0:0:
72,223,40289,6,0,L|58:101,1,99.9999999999999,10|8,0:1|0:2,0:0:0:0:
104,22,40956,2,0,L|226:36,1,99.9999999999999,10|8,0:1|0:2,0:0:0:0:
304,76,41622,1,10,0:1:0:0:
222,150,41956,1,8,0:2:0:0:
306,220,42289,1,10,0:1:0:0:
229,298,42622,1,8,0:2:0:0:
313,368,42956,6,0,L|411:348,1,99.9999999999999,10|8,0:1|0:2,0:0:0:0:
485,267,43622,1,10,0:1:0:0:
427,173,43956,1,8,0:2:0:0:
459,68,44289,2,0,P|413:48|364:39,1,99.9999999999999,10|8,0:1|0:2,0:0:0:0:
264,85,44956,1,10,0:1:0:0:
318,180,45289,1,8,0:2:0:0:
291,285,45622,6,0,P|247:309|199:325,1,99.9999999999999,10|8,0:1|0:2,0:0:0:0:
102,376,46289,1,10,0:1:0:0:
15,308,46622,1,8,0:2:0:0:
34,199,46956,2,0,L|16:93,2,99.9999999999999,10|8|8,0:1|0:2|0:1,0:0:0:0:
119,268,47956,1,8,0:2:0:0:
195,189,48289,6,0,P|244:190|291:208,1,99.9999999999999,14|8,0:1|0:2,0:0:0:0:
301,318,48956,1,10,0:1:0:0:
407,344,49289,1,8,0:2:0:0:
482,265,49622,2,0,P|493:216|497:166,1,99.9999999999999,10|8,0:1|0:2,0:0:0:0:
448,67,50289,1,10,0:1:0:0:
350,117,50622,1,8,0:2:0:0:
269,41,50956,6,0,L|169:30,1,99.9999999999999,10|8,0:1|0:2,0:0:0:0:
64,63,51622,2,0,L|53:162,1,99.9999999999999,10|8,0:1|0:2,0:0:0:0:
6,261,52289,1,10,0:1:0:0:
74,346,52622,1,8,0:2:0:0:
166,286,52956,1,10,0:1:0:0:
250,356,53289,1,8,0:2:0:0:
352,315,53622,6,0,P|364:266|362:217,1,99.9999999999999,10|8,0:1|0:2,0:0:0:0:
283,140,54289,1,10,0:1:0:0:
182,185,54622,1,8,0:2:0:0:
81,140,54956,2,0,P|68:91|70:42,1,99.9999999999999,10|8,0:1|0:2,0:0:0:0:
172,0,55622,1,10,0:1:0:0:
264,59,55956,1,8,0:2:0:0:
364,15,56289,6,0,P|413:20|461:36,1,99.9999999999999,10|8,0:1|0:2,0:0:0:0:
503,137,56956,2,0,P|492:185|485:235,1,99.9999999999999,10|8,0:1|0:2,0:0:0:0:
495,344,57622,1,10,0:1:0:0:
389,374,57956,1,8,0:2:0:0:
315,291,58289,2,0,L|265:285,1,50,8|8,0:0|0:0,0:0:0:0:
218,314,58622,2,0,L|168:308,1,50,8|8,0:0|0:0,0:0:0:0:
122,339,58956,6,0,P|108:300|58:189,1,150,14|2,0:1|0:0,0:0:0:0:
14,102,59789,1,2,0:0:0:0:
14,102,59956,2,0,L|29:46,1,50,10|2,0:1|0:0,0:0:0:0:
73,23,60289,1,10,0:1:0:0:
177,58,60622,2,0,L|183:111,1,50,10|2,0:1|0:0,0:0:0:0:
150,153,60956,1,10,0:1:0:0:
226,231,61289,1,8,0:1:0:0:
172,326,61622,6,0,L|121:331,2,50,10|2|10,0:1|0:0|0:1,0:0:0:0:
217,357,62122,1,2,0:0:0:0:
328,384,62456,1,2,0:0:0:0:
328,384,62622,2,0,L|377:379,1,50,10|2,0:1|0:0,0:0:0:0:
432,378,62956,2,0,P|442:329|459:281,1,99.9999999999999,10|10,3:1|0:1,0:0:0:0:
498,179,63622,2,0,P|449:169|401:152,1,99.9999999999999,10|8,3:1|0:1,0:0:0:0:
372,113,64122,1,8,0:1:0:0:
372,113,64289,6,0,L|365:48,2,50,10|2|10,0:1|0:0|0:1,0:0:0:0:
319,130,64789,1,2,0:0:0:0:
348,240,65122,1,2,0:0:0:0:
348,240,65289,1,10,0:1:0:0:
292,333,65622,2,0,P|244:349|195:356,1,99.9999999999999,10|10,0:1|0:1,0:0:0:0:
144,333,66122,1,2,0:0:0:0:
144,333,66289,1,10,0:1:0:0:
34,336,66622,2,0,L|20:285,1,50,10|2,0:1|0:0,0:0:0:0:
44,237,66956,5,10,0:1:0:0:
0,135,67289,1,10,0:1:0:0:
84,62,67622,1,10,0:1:0:0:
182,111,67956,2,0,L|170:178,1,50,10|10,0:1|0:1,0:0:0:0:
144,207,68289,1,10,3:1:0:0:
194,304,68622,1,8,3:1:0:0:
295,260,68956,2,0,L|356:271,1,50,10|10,3:1|3:1,0:0:0:0:
375,314,69289,2,0,L|436:325,1,50,10|10,3:1|3:1,0:0:0:0:
479,322,69622,6,0,B|510:280|510:280|486:185,1,150,14|2,0:1|0:0,0:0:0:0:
502,75,70456,1,2,0:0:0:0:
502,75,70622,2,0,L|437:58,1,50,10|2,0:1|0:0,0:0:0:0:
413,23,70956,1,10,0:1:0:0:
318,78,71289,2,0,L|253:61,1,50,10|2,0:1|0:0,0:0:0:0:
229,26,71623,1,10,0:1:0:0:
143,94,71956,1,10,0:1:0:0:
41,68,72289,5,10,0:1:0:0:
41,68,72456,2,0,P|28:116|19:165,1,99.9999999999999,2|2,0:0|0:0,0:0:0:0:
43,272,73122,2,0,L|23:336,2,50,2|10|2,0:0|0:1|0:0,0:0:0:0:
96,259,73622,2,0,P|145:251|195:248,1,99.9999999999999,10|10,3:1|0:1,0:0:0:0:
267,331,74289,2,0,P|316:338|366:341,1,99.9999999999999,10|8,3:1|0:1,0:0:0:0:
412,310,74789,1,8,0:1:0:0:
412,310,74956,6,0,L|480:307,2,50,10|2|10,0:1|0:0|0:1,0:0:0:0:
395,257,75456,1,2,0:0:0:0:
454,164,75789,1,2,0:0:0:0:
454,164,75956,2,0,L|466:104,1,50,10|2,0:1|0:0,0:0:0:0:
428,72,76289,2,0,P|378:81|329:85,1,99.9999999999999,10|10,0:1|0:1,0:0:0:0:
291,126,76789,1,2,0:0:0:0:
291,126,76956,1,10,0:1:0:0:
366,206,77289,2,0,L|375:257,1,50,10|2,0:1|0:0,0:0:0:0:
360,308,77622,5,10,0:1:0:0:
251,288,77956,1,10,0:1:0:0:
183,375,78289,1,10,0:1:0:0:
74,355,78622,2,0,L|6:336,1,50,10|10,0:1|0:1,0:0:0:0:
4,289,78956,2,0,P|21:243|19:193,1,99.9999999999999,10|8,3:1|3:1,0:0:0:0:
6,84,79622,2,0,L|55:77,1,50,10|10,3:1|3:1,0:0:0:0:
101,108,79956,2,0,L|150:101,1,50,10|10,3:1|3:1,0:0:0:0:
199,76,80289,5,14,0:1:0:0:
279,150,80622,1,10,0:1:0:0:
203,230,80956,1,10,0:1:0:0:
234,335,81289,1,10,0:1:0:0:
341,359,81622,2,2,L|440:345,1,99.9999999999999,10|8,0:1|0:1,0:0:0:0:
494,353,82122,2,2,P|490:303|502:255,1,99.9999999999999,2|0,0:0|0:0,0:0:0:0:
475,207,82622,1,10,0:1:0:0:
500,99,82956,5,10,0:1:0:0:
425,17,83289,1,8,0:1:0:0:
326,65,83622,1,8,0:1:0:0:
224,21,83956,1,8,0:1:0:0:
129,76,84289,2,0,P|56:79|13:21,2,150,10|2|8,0:1|0:0|0:1,0:0:0:0:
224,21,85622,5,10,0:1:0:0:
326,65,85956,1,10,0:1:0:0:
425,17,86289,1,10,0:1:0:0:
500,99,86622,1,10,0:1:0:0:
431,185,86956,2,2,P|418:237|416:283,1,99.9999999999999,10|8,0:1|0:1,0:0:0:0:
437,334,87456,2,2,P|387:335|338:348,1,99.9999999999999,2|0,0:0|0:0,0:0:0:0:
296,382,87956,1,10,0:1:0:0:
192,344,88289,6,0,P|178:296|178:246,1,99.9999999999999,10|8,0:1|0:1,0:0:0:0:
282,209,88956,2,0,P|295:161|295:111,1,99.9999999999999,8|8,0:1|0:1,0:0:0:0:
251,10,89622,1,8,0:1:0:0:
162,75,89956,1,8,0:1:0:0:
55,46,90289,1,8,0:1:0:0:
19,149,90622,2,0,L|32:212,1,50,8|10,0:1|0:1,0:0:0:0:
2,246,90956,5,14,0:1:0:0:
84,318,91289,1,10,0:1:0:0:
183,271,91622,1,10,0:1:0:0:
265,343,91955,1,10,0:1:0:0:
361,289,92289,2,2,P|372:240|364:191,1,99.9999999999999,10|8,0:1|0:1,0:0:0:0:
316,163,92789,2,2,P|266:170|218:159,1,99.9999999999999,2|0,0:0|0:0,0:0:0:0:
181,118,93289,1,10,0:1:0:0:
241,26,93622,5,10,0:1:0:0:
342,69,93956,1,8,0:1:0:0:
435,11,94289,1,8,0:1:0:0:
511,89,94622,1,8,0:1:0:0:
459,186,94956,2,0,P|450:258|494:317,2,150,10|2|8,1:1|1:0|1:1,2:0:0:0:
511,89,96289,5,10,0:1:0:0:
435,11,96622,1,10,0:1:0:0:
342,69,96955,1,10,0:1:0:0:
241,26,97289,1,10,0:1:0:0:
146,82,97622,2,2,P|98:95|49:94,1,99.9999999999999,10|8,0:1|0:1,0:0:0:0:
9,132,98122,2,2,P|8:181|21:229,1,99.9999999999999,2|0,0:0|0:0,0:0:0:0:
3,282,98622,1,10,0:1:0:0:
80,359,98956,5,10,0:1:0:0:
180,313,99289,1,8,0:1:0:0:
266,380,99622,1,8,0:1:0:0:
368,340,99956,1,8,0:1:0:0:
283,272,100289,2,0,L|264:166,2,99.9999999999999,10|8|8,0:1|0:1|0:1,0:0:0:0:
368,340,101289,1,8,0:1:0:0:
477,312,101622,1,12,0:1:0:0:
477,312,101789,1,8,0:1:0:0:
502,93,102456,1,8,0:1:0:0:
502,93,102622,2,0,L|483:30,1,50,2|0,0:2|0:2,0:0:0:0:
442,3,102956,6,2,P|393:29|339:37,1,110.000003356934,14|8,0:1|0:2,0:0:0:0:
294,77,103456,2,2,P|277:130|271:185,1,110.000003356934,2|0,0:0|0:0,0:0:0:0:
309,232,103956,1,10,0:2:0:0:
293,351,104289,2,0,P|251:365|160:374,1,110.000003356934,10|8,0:1|0:2,0:0:0:0:
72,333,104956,1,8,0:1:0:0:
127,225,105289,2,0,L|111:163,1,55.0000016784668,10|2,0:2|0:0,0:0:0:0:
57,148,105622,6,2,L|78:33,1,110.000003356934,10|8,0:1|0:2,0:0:0:0:
127,7,106122,2,2,P|176:32|231:33,1,110.000003356934,2|0,0:0|0:0,0:0:0:0:
278,71,106622,1,10,0:2:0:0:
240,186,106956,2,0,L|256:294,1,110.000003356934,10|8,0:1|0:2,0:0:0:0:
356,362,107622,1,8,0:1:0:0:
462,304,107956,2,0,L|473:240,1,55.0000016784668,10|2,0:2|0:0,0:0:0:0:
511,204,108289,6,2,L|491:88,1,110.000003356934,10|8,0:1|0:2,0:0:0:0:
505,36,108789,2,2,P|454:53|400:49,1,110.000003356934,2|0,0:0|0:0,0:0:0:0:
357,6,109289,1,8,0:2:0:0:
289,105,109622,2,2,L|272:213,1,110.000003356934,10|8,0:1|0:2,0:0:0:0:
305,264,110122,2,2,L|196:280,1,110.000003356934,2|0,0:0|0:0,0:0:0:0:
155,325,110622,1,10,0:2:0:0:
41,281,110956,6,2,L|57:172,1,110.000003356934,10|8,0:1|0:2,0:0:0:0:
25,122,111456,2,2,L|133:105,1,110.000003356934,2|0,0:0|0:0,0:0:0:0:
175,62,111956,1,10,0:2:0:0:
243,161,112289,2,0,L|351:144,1,110.000003356934,10|10,0:1|0:2,0:0:0:0:
448,70,112956,2,0,L|460:123,1,55.0000016784668,10|8,0:1|0:1,0:0:0:0:
511,156,113289,2,0,L|498:209,1,55.0000016784668,10|10,0:2|0:1,0:0:0:0:
507,269,113622,6,2,P|452:266|403:290,1,110.000003356934,14|8,0:1|0:2,0:0:0:0:
368,339,114122,2,2,P|313:341|264:317,1,110.000003356934,2|0,0:0|0:0,0:0:0:0:
209,342,114622,1,10,0:2:0:0:
90,316,114956,2,0,L|69:191,1,110.000003356934,10|8,0:1|0:2,0:0:0:0:
21,97,115622,1,8,0:1:0:0:
119,26,115956,2,0,L|194:38,1,55.0000016784668,10|2,0:2|0:0,0:0:0:0:
233,31,116289,6,2,P|214:82|202:136,1,110.000003356934,10|8,0:1|0:2,0:0:0:0:
149,167,116789,2,2,P|161:220|179:272,1,110.000003356934,2|0,0:0|0:0,0:0:0:0:
176,332,117289,1,10,0:2:0:0:
287,378,117622,2,0,L|414:355,1,110.000003356934,10|8,0:1|0:2,0:0:0:0:
455,253,118289,1,8,0:1:0:0:
391,150,118622,2,0,L|400:88,1,55.0000016784668,10|2,0:2|0:0,0:0:0:0:
435,46,118956,6,2,L|325:55,1,110.000003356934,10|8,0:1|0:2,0:0:0:0:
281,97,119456,2,2,L|272:207,1,110.000003356934,2|0,0:0|0:0,0:0:0:0:
305,257,119956,1,8,0:2:0:0:
210,331,120289,2,2,P|161:355|108:346,1,110.000003356934,10|8,0:1|0:2,0:0:0:0:
50,363,120789,2,2,P|26:314|35:261,1,110.000003356934,2|0,0:0|0:0,0:0:0:0:
18,202,121289,1,10,0:2:0:0:
31,81,121622,5,10,0:1:0:0:
146,118,121956,1,10,0:2:0:0:
261,82,122289,1,10,0:1:0:0:
368,136,122622,1,10,0:2:0:0:
279,219,122956,2,0,P|263:285|261:340,1,110.000003356934,10|10,0:1|0:2,0:0:0:0:
367,383,123622,2,0,L|433:369,1,55.0000016784668,10|8,0:1|0:1,0:0:0:0:
480,383,123956,2,0,L|494:317,1,55.0000016784668,10|10,0:2|0:2,0:0:0:0:
456,279,124289,6,2,B|436:232|436:232|452:175,1,110.000003356934,14|10,0:1|0:2,0:0:0:0:
506,148,124789,2,2,B|526:101|526:101|509:44,1,110.000003356934,2|0,0:0|0:0,0:0:0:0:
457,13,125289,1,10,0:2:0:0:
344,56,125622,2,2,P|292:72|239:59,1,110.000003356934,10|8,0:1|0:2,0:0:0:0:
190,24,126122,2,2,P|137:11|85:27,1,110.000003356934,2|0,0:0|0:0,0:0:0:0:
45,74,126622,1,10,0:2:0:0:
144,142,126956,6,2,B|164:189|164:189|147:245,1,110.000003356934,10|10,0:1|0:2,0:0:0:0:
90,266,127456,2,2,B|70:313|70:313|86:369,1,110.000003356934,2|0,0:0|0:0,0:0:0:0:
146,384,127956,1,10,0:2:0:0:
243,312,128289,2,0,P|299:303|360:316,1,110.000003356934,10|8,0:1|0:2,0:0:0:0:
454,375,128956,2,0,P|458:323|479:259,1,110.000003356934,10|8,0:1|0:2,0:0:0:0:
495,148,129622,6,2,B|443:132|443:132|391:151,1,110.000003356934,14|10,0:1|0:2,0:0:0:0:
361,204,130122,2,2,B|309:220|309:220|257:200,1,110.000003356934,2|0,0:0|0:0,0:0:0:0:
204,229,130622,1,10,0:2:0:0:
85,203,130956,2,2,P|57:156|54:101,1,110.000003356934,10|8,0:1|0:2,0:0:0:0:
96,58,131456,2,2,P|150:55|197:27,1,110.000003356934,2|0,0:0|0:0,0:0:0:0:
255,44,131956,1,10,0:2:0:0:
221,160,132289,6,0,L|210:269,1,110.000003356934,10|8,0:1|0:2,0:0:0:0:
272,373,132956,2,0,L|381:383,1,110.000003356934,10|8,0:1|0:2,0:0:0:0:
486,323,133622,1,10,0:1:0:0:
401,244,133956,1,10,0:2:0:0:
401,244,134122,2,2,L|411:134,1,110.000003356934,2|8,0:0|0:1,0:0:0:0:
461,101,134622,2,0,L|455:46,1,55.0000016784668,8|8,0:2|0:1,0:0:0:0:
482,4,134956,6,2,L|362:18,1,110.000003356934,14|10,0:1|0:2,0:0:0:0:
335,64,135456,2,2,L|215:50,1,110.000003356934,2|0,0:0|0:0,0:0:0:0:
185,5,135956,1,10,0:2:0:0:
67,31,136289,2,2,P|53:83|64:137,1,110.000003356934,10|8,0:1|0:2,0:0:0:0:
110,176,136789,2,2,P|120:229|107:282,1,110.000003356934,2|0,0:0|0:0,0:0:0:0:
53,311,137289,1,10,0:2:0:0:
150,382,137622,6,2,L|259:370,1,110.000003356934,10|10,0:1|0:2,0:0:0:0:
297,322,138122,2,2,L|285:212,1,110.000003356934,2|0,0:0|0:0,0:0:0:0:
237,175,138622,1,10,0:2:0:0:
275,59,138956,2,0,L|384:47,1,110.000003356934,10|8,0:1|0:2,0:0:0:0:
477,123,139622,2,0,L|488:232,1,110.000003356934,10|8,0:1|0:2,0:0:0:0:
454,348,140289,6,2,B|402:363|402:363|348:347,1,110.000003356934,14|10,0:1|0:2,0:0:0:0:
299,311,140789,2,2,B|245:295|245:295|193:310,1,110.000003356934,2|0,0:0|0:0,0:0:0:0:
158,360,141289,1,10,0:2:0:0:
54,297,141622,2,2,P|37:244|35:189,1,110.000003356934,10|8,0:1|0:2,0:0:0:0:
1,140,142122,2,2,P|53:123|108:121,1,110.000003356934,2|0,0:0|0:0,0:0:0:0:
156,159,142622,1,10,0:2:0:0:
270,118,142956,5,10,3:1:0:0:
256,192,143122,12,14,145622,0:1:0:0:
32,322,166956,6,0,L|23:272,1,50,14|2,0:1|0:0,0:0:0:0:
50,226,167289,1,10,0:1:0:0:
50,226,167456,1,2,0:0:0:0:
7,124,167789,1,2,0:0:0:0:
7,124,167956,2,0,L|18:67,1,50,10|2,0:1|0:0,0:0:0:0:
61,43,168289,2,0,P|109:59|159:63,1,99.9999999999999,10|10,0:1|0:1,0:0:0:0:
207,37,168789,1,2,0:0:0:0:
207,37,168956,1,10,0:1:0:0:
293,104,169289,1,10,0:1:0:0:
212,178,169622,6,0,L|205:227,1,50,10|2,0:1|0:0,0:0:0:0:
167,268,169956,1,10,0:1:0:0:
167,268,170122,1,2,0:0:0:0:
244,346,170456,1,2,0:0:0:0:
244,346,170622,2,0,L|309:338,1,50,10|2,0:1|0:0,0:0:0:0:
342,365,170956,2,0,L|441:352,1,99.9999999999999,10|10,3:1|0:1,0:0:0:0:
503,262,171622,2,0,L|490:162,1,99.9999999999999,10|8,3:1|0:1,0:0:0:0:
448,127,172122,1,8,0:1:0:0:
447,127,172289,6,0,P|402:148|354:161,1,99.9999999999999,10|10,0:1|0:1,0:0:0:0:
304,139,172789,1,2,0:0:0:0:
202,179,173122,2,0,L|195:234,2,50,2|10|2,0:0|0:1|0:0,0:0:0:0:
168,134,173622,2,0,P|120:118|72:129,1,99.9999999999999,10|10,0:1|0:1,0:0:0:0:
29,163,174122,1,2,0:0:0:0:
29,163,174289,1,10,0:1:0:0:
15,272,174622,2,0,L|79:282,1,50,10|2,0:1|0:0,0:0:0:0:
102,320,174956,5,10,0:1:0:0:
188,251,175289,1,10,0:1:0:0:
123,161,175622,1,10,0:1:0:0:
167,60,175956,2,0,L|239:50,1,50,10|10,0:1|0:1,0:0:0:0:
268,72,176289,1,10,3:1:0:0:
367,25,176622,1,8,3:1:0:0:
443,104,176956,2,0,L|453:152,1,50,10|10,3:1|3:1,0:0:0:0:
497,185,177289,2,0,L|507:233,1,50,10|10,3:1|3:1,0:0:0:0:
494,286,177622,6,0,L|357:262,1,134.999995880127,14|8,0:1|0:1,0:0:0:0:
318,288,178289,1,10,0:2:0:0:
197,211,178789,1,8,0:1:0:0:
197,211,178956,2,0,P|181:146|202:82,1,134.999995880127,10|8,0:1|0:1,0:0:0:0:
187,35,179622,1,10,0:2:0:0:
92,5,179956,1,8,0:1:0:0:
45,92,180289,6,0,L|25:233,1,134.999995880127,10|8,0:1|0:1,0:0:0:0:
0,268,180956,1,10,0:2:0:0:
116,360,181456,1,8,0:1:0:0:
116,360,181622,2,0,L|205:356,1,89.999997253418,10|10,3:1|3:2,0:0:0:0:
263,275,182289,2,0,L|259:185,1,89.999997253418,10|10,3:1|3:2,0:0:0:0:
178,110,182956,6,0,L|189:55,1,50,14|2,0:1|0:0,0:0:0:0:
232,28,183289,1,10,0:2:0:0:
232,28,183456,1,2,0:0:0:0:
319,94,183789,2,0,L|384:87,1,50,2|10,0:0|0:2,0:0:0:0:
421,105,184122,1,2,0:0:0:0:
421,105,184289,2,0,P|440:150|453:199,1,99.9999999999999,10|10,0:1|0:2,0:0:0:0:
494,244,184789,1,2,0:0:0:0:
494,244,184956,1,10,0:1:0:0:
431,334,185289,2,0,L|380:341,1,50,10|2,0:2|0:0,0:0:0:0:
334,368,185622,5,10,0:1:0:0:
237,314,185956,1,10,0:2:0:0:
259,206,186289,1,10,0:1:0:0:
369,194,186622,2,0,L|379:132,1,50,10|10,0:2|0:1,0:0:0:0:
415,104,186956,1,10,3:1:0:0:
330,33,187289,1,8,3:2:0:0:
237,93,187622,2,0,L|187:99,1,50,10|10,3:1|3:1,0:0:0:0:
139,72,187956,2,0,L|89:78,1,50,10|10,3:2|3:2,0:0:0:0:
46,113,188289,6,0,P|28:74|21:14,2,99.9999999999999,14|10|10,0:1|0:2|0:1,0:0:0:0:
19,220,189289,1,10,0:2:0:0:
36,327,189622,2,2,P|85:339|135:338,1,99.9999999999999,10|8,0:1|0:2,0:0:0:0:
178,304,190122,2,2,P|189:255|188:205,1,99.9999999999999,2|0,0:0|0:0,0:0:0:0:
152,163,190622,1,10,0:2:0:0:
182,57,190956,5,10,0:1:0:0:
287,89,191289,1,8,0:2:0:0:
374,21,191622,1,8,0:1:0:0:
465,82,191956,1,8,0:2:0:0:
427,185,192289,2,2,P|424:234|439:282,1,99.9999999999999,10|8,0:1|0:2,0:0:0:0:
447,336,192789,2,2,P|397:333|349:348,1,99.9999999999999,2|0,0:0|0:0,0:0:0:0:
309,384,193289,1,8,0:2:0:0:
220,319,193622,5,10,0:1:0:0:
254,214,193956,1,10,0:2:0:0:
365,214,194289,1,10,0:1:0:0:
400,109,194622,1,10,0:2:0:0:
311,44,194956,2,2,L|211:34,1,99.9999999999999,10|8,0:1|0:2,0:0:0:0:
159,3,195456,2,2,L|59:13,1,99.9999999999999,2|0,0:0|0:0,0:0:0:0:
15,53,195956,1,10,0:2:0:0:
80,140,196289,6,0,P|94:187|93:237,1,99.9999999999999,10|8,0:1|0:2,0:0:0:0:
63,343,196956,2,0,P|110:328|160:329,1,99.9999999999999,8|8,0:1|0:2,0:0:0:0:
261,372,197622,1,8,0:1:0:0:
321,280,197956,1,8,0:2:0:0:
247,198,198289,2,0,L|237:148,1,50,8|10,0:1|0:1,0:0:0:0:
187,124,198622,2,0,L|196:74,1,50,8|10,0:2|0:1,0:0:0:0:
229,30,198956,6,0,L|129:20,2,99.9999999999999,14|10|10,0:1|0:2|0:1,0:0:0:0:
335,1,199956,1,10,0:2:0:0:
442,25,200289,2,2,P|458:69|467:134,1,99.9999999999999,10|8,0:1|0:2,0:0:0:0:
431,162,200789,2,2,P|438:211|456:258,1,99.9999999999999,2|0,0:0|0:0,0:0:0:0:
501,289,201289,1,10,0:2:0:0:
430,373,201622,5,10,0:1:0:0:
336,314,201956,1,8,0:2:0:0:
244,374,202289,1,8,0:1:0:0:
156,307,202622,1,8,0:2:0:0:
66,371,202956,2,2,L|46:261,1,99.9999999999999,10|8,0:1|0:2,0:0:0:0:
4,239,203456,2,2,L|24:129,1,99.9999999999999,2|0,0:0|0:0,0:0:0:0:
5,87,203956,1,8,0:2:0:0:
96,25,204289,5,10,0:1:0:0:
183,92,204622,1,10,0:2:0:0:
147,196,204956,1,10,0:1:0:0:
234,263,205289,1,10,0:2:0:0:
325,200,205622,2,2,P|334:151|332:102,1,99.9999999999999,10|8,0:1|0:2,0:0:0:0:
305,54,206122,2,2,P|354:63|403:61,1,99.9999999999999,2|0,0:0|0:0,0:0:0:0:
444,23,206622,1,10,0:2:0:0:
501,116,206956,5,10,0:1:0:0:
417,186,207289,1,8,0:2:0:0:
492,265,207622,1,8,0:1:0:0:
441,361,207956,1,8,0:2:0:0:
334,343,208289,2,0,L|219:359,2,99.9999999999999,10|8|8,0:1|0:2|0:1,0:0:0:0:
360,296,209122,1,8,0:1:0:0:
360,296,209289,2,0,L|366:246,1,50,8|8,0:2|0:2,0:0:0:0:
404,206,209622,1,12,0:1:0:0:
404,206,209789,1,8,0:1:0:0:
134,185,210456,1,8,0:1:0:0:
134,185,210622,2,0,L|115:122,1,50,2|0,0:2|0:2,0:0:0:0:
86,86,210956,6,2,P|141:88|193:73,1,110.000003356934,14|8,0:1|0:2,0:0:0:0:
247,99,211456,2,2,P|264:152|270:207,1,110.000003356934,2|0,0:0|0:0,0:0:0:0:
233,254,211956,1,10,0:2:0:0:
288,361,212289,2,0,P|330:375|421:384,1,110.000003356934,10|8,0:1|0:2,0:0:0:0:
503,330,212956,1,8,0:1:0:0:
417,244,213289,2,0,L|433:182,1,55.0000016784668,10|2,0:2|0:0,0:0:0:0:
474,149,213622,6,2,L|453:34,1,110.000003356934,10|8,0:1|0:2,0:0:0:0:
405,4,214122,2,2,P|356:29|301:30,1,110.000003356934,2|0,0:0|0:0,0:0:0:0:
250,61,214622,1,10,0:2:0:0:
293,174,214956,2,0,L|277:282,1,110.000003356934,10|8,0:1|0:2,0:0:0:0:
176,350,215622,1,8,0:1:0:0:
61,310,215956,2,0,L|50:246,1,55.0000016784668,10|2,0:2|0:0,0:0:0:0:
8,213,216289,6,2,L|28:97,1,110.000003356934,10|8,0:1|0:2,0:0:0:0:
13,45,216789,2,2,P|64:62|118:58,1,110.000003356934,2|0,0:0|0:0,0:0:0:0:
154,8,217289,1,8,0:2:0:0:
262,60,217622,2,2,L|279:168,1,110.000003356934,10|8,0:1|0:2,0:0:0:0:
322,211,218123,2,2,L|213:227,1,110.000003356934,2|0,0:0|0:0,0:0:0:0:
173,272,218622,1,10,0:2:0:0:
242,371,218956,6,2,L|351:355,1,110.000003356934,10|8,0:1|0:2,0:0:0:0:
408,373,219456,2,2,L|425:265,1,110.000003356934,2|0,0:0|0:0,0:0:0:0:
475,230,219956,1,10,0:2:0:0:
433,116,220289,2,0,L|325:99,1,110.000003356934,10|10,0:1|0:2,0:0:0:0:
215,152,220956,2,0,L|203:205,1,55.0000016784668,10|8,0:1|0:1,0:0:0:0:
249,244,221289,2,0,L|262:297,1,55.0000016784668,10|10,0:2|0:1,0:0:0:0:
299,345,221622,6,2,P|249:368|195:365,1,110.000003356934,14|8,0:1|0:2,0:0:0:0:
136,376,222122,2,2,P|138:321|114:272,1,110.000003356934,2|0,0:0|0:0,0:0:0:0:
55,260,222622,1,10,0:2:0:0:
6,148,222956,2,0,L|131:169,1,110.000003356934,10|8,0:1|0:2,0:0:0:0:
211,238,223622,1,8,0:1:0:0:
283,140,223956,2,0,L|295:64,1,55.0000016784668,10|2,0:2|0:0,0:0:0:0:
251,40,224289,6,2,P|302:20|356:8,1,110.000003356934,10|8,0:1|0:2,0:0:0:0:
411,34,224789,2,2,P|423:87|441:139,1,110.000003356934,2|0,0:0|0:0,0:0:0:0:
492,171,225289,1,10,0:2:0:0:
491,291,225622,2,0,L|364:314,1,110.000003356934,10|8,0:1|0:2,0:0:0:0:
275,367,226289,1,8,0:1:0:0:
173,301,226622,2,0,L|164:239,1,55.0000016784668,10|2,0:2|0:0,0:0:0:0:
211,207,226956,6,2,L|220:97,1,110.000003356934,10|8,0:1|0:2,0:0:0:0:
188,45,227456,2,2,L|78:36,1,110.000003356934,2|0,0:0|0:0,0:0:0:0:
28,71,227956,1,8,0:2:0:0:
88,175,228289,2,2,P|98:228|76:277,1,110.000003356934,10|8,0:1|0:2,0:0:0:0:
71,337,228789,2,2,P|120:359|173:348,1,110.000003356934,2|0,0:0|0:0,0:0:0:0:
233,357,229289,1,10,0:2:0:0:
351,384,229622,5,10,0:1:0:0:
437,298,229956,1,10,0:2:0:0:
355,208,230289,1,10,0:1:0:0:
418,105,230622,1,10,0:2:0:0:
338,13,230956,2,0,P|272:29|217:31,1,110.000003356934,10|10,0:1|0:2,0:0:0:0:
168,135,231622,2,0,L|221:146,1,55.0000016784668,10|8,0:1|0:1,0:0:0:0:
251,199,231956,2,0,L|304:210,1,55.0000016784668,10|10,0:2|0:2,0:0:0:0:
356,242,232289,6,2,B|376:289|376:289|360:346,1,110.000003356934,14|10,0:1|0:2,0:0:0:0:
306,373,232789,2,2,B|259:353|259:353|202:370,1,110.000003356934,2|0,0:0|0:0,0:0:0:0:
148,342,233289,1,10,0:2:0:0:
30,371,233622,2,2,P|14:319|26:266,1,110.000003356934,10|8,0:1|0:2,0:0:0:0:
70,224,234122,2,2,P|123:237|175:221,1,110.000003356934,2|0,0:0|0:0,0:0:0:0:
200,166,234622,1,10,0:2:0:0:
285,252,234956,6,2,B|331:272|331:272|388:255,1,110.000003356934,10|10,0:1|0:2,0:0:0:0:
448,265,235456,2,2,B|472:219|472:219|460:162,1,110.000003356934,2|0,0:0|0:0,0:0:0:0:
490,109,235956,1,10,0:2:0:0:
410,17,236289,2,0,P|354:8|293:21,1,110.000003356934,10|8,0:1|0:2,0:0:0:0:
252,128,236956,2,0,P|268:180|272:235,1,110.000003356934,10|8,0:1|0:2,0:0:0:0:
237,350,237622,6,2,B|185:366|185:366|133:347,1,110.000003356934,14|10,0:1|0:2,0:0:0:0:
76,369,238122,2,2,B|60:317|60:317|80:265,1,110.000003356934,2|0,0:0|0:0,0:0:0:0:
62,207,238622,1,10,0:2:0:0:
3,100,238956,2,2,P|50:72|105:69,1,110.000003356934,10|8,0:1|0:2,0:0:0:0:
128,124,239456,2,2,P|182:120|229:92,1,110.000003356934,2|0,0:0|0:0,0:0:0:0:
284,118,239956,1,10,0:2:0:0:
209,213,240289,6,0,L|220:322,1,110.000003356934,10|8,0:1|0:2,0:0:0:0:
329,375,240956,2,0,L|438:365,1,110.000003356934,10|8,0:1|0:2,0:0:0:0:
505,264,241622,1,10,0:1:0:0:
403,208,241956,1,10,0:2:0:0:
403,208,242122,2,2,L|393:98,1,110.000003356934,2|8,0:0|0:1,0:0:0:0:
362,46,242622,2,0,L|307:40,1,55.0000016784668,8|8,0:2|0:1,0:0:0:0:
256,73,242956,6,2,L|266:183,1,110.000003356934,14|10,0:1|0:2,0:0:0:0:
297,234,243456,2,2,L|187:246,1,110.000003356934,2|0,0:0|0:0,0:0:0:0:
153,297,243956,1,10,0:2:0:0:
39,255,244289,2,0,L|46:360,2,82.5000025177002,10|2|2,0:1|0:0|0:0,0:0:0:0:
10,201,244956,1,8,0:1:0:0:
116,143,245289,1,10,0:2:0:0:
45,44,245622,6,2,L|154:32,1,110.000003356934,10|10,0:1|0:2,0:0:0:0:
203,67,246122,2,2,L|215:177,1,110.000003356934,2|0,0:0|0:0,0:0:0:0:
180,226,246622,1,10,0:2:0:0:
227,337,246956,2,0,L|336:349,1,110.000003356934,10|8,0:1|0:2,0:0:0:0:
453,319,247622,2,0,L|464:210,1,110.000003356934,10|8,0:1|0:2,0:0:0:0:
502,94,248289,6,2,B|450:79|450:79|396:95,1,110.000003356934,14|10,0:1|0:2,0:0:0:0:
347,131,248789,2,2,B|293:147|293:147|241:132,1,110.000003356934,2|0,0:0|0:0,0:0:0:0:
206,82,249289,1,10,0:2:0:0:
94,129,249622,2,2,P|77:182|75:237,1,110.000003356934,10|8,0:1|0:2,0:0:0:0:
41,286,250122,2,2,P|93:303|148:305,1,110.000003356934,2|0,0:0|0:0,0:0:0:0:
192,345,250622,1,10,0:2:0:0:
312,361,250956,6,2,B|291:304|345:266|345:266|274:239|262:197|262:197|318:157|318:107|318:107|261:88|265:12,1,440.000013427734,10|10,3:1|0:1,0:0:0:0:
428,0,252789,1,10,0:1:0:0:
495,266,253622,6,0,P|451:288|403:300,1,99.9999999999999,14|8,0:1|0:2,0:0:0:0:
313,365,254289,1,10,0:1:0:0:
226,297,254622,1,8,0:2:0:0:
148,375,254956,2,0,L|34:356,1,99.9999999999999,10|8,0:1|0:2,0:0:0:0:
0,252,255622,1,10,0:1:0:0:
96,199,255956,1,8,0:2:0:0:
16,122,256289,2,0,L|27:22,1,99.9999999999999,10|8,0:1|0:2,0:0:0:0:
135,2,256956,2,0,L|234:13,1,99.9999999999999,10|8,0:1|0:2,0:0:0:0:
313,89,257622,1,10,0:1:0:0:
225,155,257956,1,8,0:2:0:0:
293,240,258289,1,10,0:1:0:0:
233,332,258622,1,8,0:2:0:0:
333,377,258956,6,0,L|431:357,1,99.9999999999999,10|8,0:1|0:2,0:0:0:0:
482,259,259622,1,10,0:1:0:0:
410,174,259956,1,8,0:2:0:0:
450,71,260289,2,0,P|404:51|355:42,1,99.9999999999999,10|8,0:1|0:2,0:0:0:0:
261,99,260956,1,10,0:1:0:0:
308,197,261289,1,8,0:2:0:0:
281,303,261622,6,0,P|231:312|182:317,1,99.9999999999999,10|8,0:1|0:2,0:0:0:0:
88,375,262289,1,10,0:1:0:0:
8,299,262622,1,8,0:2:0:0:
42,194,262956,2,0,L|24:88,2,99.9999999999999,10|8|8,0:1|0:2|0:1,0:0:0:0:
88,233,263789,1,8,0:1:0:0:
88,233,263956,2,0,L|160:242,1,50,8|8,0:2|0:2,0:0:0:0:
188,206,264289,5,14,0:1:0:0:
246,312,264622,1,8,0:2:0:0:
366,297,264956,2,0,L|427:309,1,55.0000016784668,10|2,0:1|0:0,0:0:0:0:
473,278,265289,2,0,L|486:217,1,55.0000016784668,10|2,0:2|0:0,0:0:0:0:
459,169,265622,1,10,0:1:0:0:
499,54,265956,1,10,0:2:0:0:
385,13,266289,2,0,L|324:21,1,55.0000016784668,10|2,0:1|0:0,0:0:0:0:
293,67,266622,2,0,L|232:75,1,55.0000016784668,10|2,0:2|0:0,0:0:0:0:
204,124,266956,5,10,0:1:0:0:
293,204,267289,1,10,0:2:0:0:
269,322,267622,1,10,0:1:0:0:
155,361,267956,1,10,0:2:0:0:
65,282,268289,2,0,L|59:227,1,55.0000016784668,10|2,0:1|0:0,0:0:0:0:
21,179,268622,2,0,L|55:136,1,55.0000016784668,10|2,0:2|0:0,0:0:0:0:
62,75,268956,2,0,L|116:69,1,55.0000016784668,10|2,0:1|0:0,0:0:0:0:
164,31,269289,2,0,L|206:65,1,55.0000016784668,10|2,0:2|0:0,0:0:0:0:
267,72,269622,5,10,0:1:0:0:
201,173,269956,1,10,0:2:0:0:
247,284,270289,2,0,L|313:292,1,55.0000016784668,10|2,0:1|0:0,0:0:0:0:
343,334,270622,2,0,L|409:326,1,55.0000016784668,10|2,0:2|0:0,0:0:0:0:
457,340,270956,1,10,0:1:0:0:
478,221,271289,1,10,0:2:0:0:
359,196,271622,2,0,L|347:138,1,55.0000016784668,10|2,0:1|0:0,0:0:0:0:
390,98,271956,2,0,L|378:40,1,55.0000016784668,10|2,0:2|0:0,0:0:0:0:
331,6,272289,5,10,0:1:0:0:
227,68,272622,1,10,0:2:0:0:
122,6,272956,2,0,L|67:2,1,55.0000016784668,10|2,0:1|0:0,0:0:0:0:
16,35,273289,2,0,L|12:89,1,55.0000016784668,10|2,0:2|0:0,0:0:0:0:
50,136,273622,1,10,0:1:0:0:
3,248,273956,1,10,0:2:0:0:
101,317,274289,2,0,B|147:339|175:318|175:318|196:344|217:348|217:348|257:335|301:348,1,192.500005874634,2|0,0:2|0:2,0:0:0:0:
52,81,288289,6,0,P|38:128|179:172,1,240,6|2,3:2|0:0,0:0:0:0:
210,93,289622,1,2,3:2:0:0:
420,26,290956,2,0,P|452:144|348:193,1,240,2|2,3:2|0:0,0:0:0:0:
280,177,292289,1,2,3:2:0:0:
32,352,293622,2,0,P|138:322|132:211,1,240,2|2,3:2|0:0,0:0:0:0:
44,205,294956,1,2,3:2:0:0:
87,34,295622,1,2,0:0:0:0:
259,77,296289,6,0,P|317:56|304:338,1,559.999999999999,2|2,3:2|0:0,0:0:0:0:
208,320,298956,2,0,P|51:339|52:180,1,359.999989013672,2|0,3:2|0:0,0:0:0:0:
70,3,301622,6,2,P|119:29|173:37,1,110.000003356934,14|8,0:1|0:2,0:0:0:0:
218,77,302122,2,2,P|235:130|241:185,1,110.000003356934,2|0,0:0|0:0,0:0:0:0:
203,232,302622,1,10,0:2:0:0:
219,351,302955,2,0,P|261:365|352:374,1,110.000003356934,10|8,0:1|0:2,0:0:0:0:
440,333,303622,1,8,0:1:0:0:
385,225,303955,2,0,L|401:163,1,55.0000016784668,10|2,0:2|0:0,0:0:0:0:
455,148,304288,6,2,L|434:33,1,110.000003356934,10|8,0:1|0:2,0:0:0:0:
385,7,304788,2,2,P|336:32|281:33,1,110.000003356934,2|0,0:0|0:0,0:0:0:0:
234,71,305288,1,10,0:2:0:0:
272,186,305622,2,0,L|256:294,1,110.000003356934,10|8,0:1|0:2,0:0:0:0:
156,362,306288,1,8,0:1:0:0:
50,304,306622,2,0,L|39:240,1,55.0000016784668,10|2,0:2|0:0,0:0:0:0:
1,204,306956,6,2,L|21:88,1,110.000003356934,10|8,0:1|0:2,0:0:0:0:
7,36,307455,2,2,P|58:53|112:49,1,110.000003356934,2|0,0:0|0:0,0:0:0:0:
155,6,307955,1,8,0:1:0:0:
223,105,308288,2,2,L|240:213,1,110.000003356934,10|8,0:1|0:2,0:0:0:0:
207,264,308788,2,2,L|316:280,1,110.000003356934,2|0,0:0|0:0,0:0:0:0:
357,325,309288,1,10,0:2:0:0:
471,281,309622,6,2,L|455:172,1,110.000003356934,10|8,0:1|0:2,0:0:0:0:
487,122,310122,2,2,L|379:105,1,110.000003356934,2|0,0:0|0:0,0:0:0:0:
337,62,310622,1,10,0:2:0:0:
269,161,310955,2,0,L|161:144,1,110.000003356934,10|10,0:1|0:2,0:0:0:0:
64,70,311622,2,0,L|52:123,1,55.0000016784668,10|8,0:1|0:1,0:0:0:0:
1,156,311955,2,0,L|14:209,1,55.0000016784668,10|10,0:2|0:1,0:0:0:0:
5,269,312288,6,2,P|60:266|109:290,1,110.000003356934,14|8,0:1|0:2,0:0:0:0:
144,339,312788,2,2,P|199:341|248:317,1,110.000003356934,2|0,0:0|0:0,0:0:0:0:
303,342,313288,1,10,0:2:0:0:
422,316,313622,2,0,L|443:191,1,110.000003356934,10|8,0:1|0:2,0:0:0:0:
491,97,314288,1,8,0:1:0:0:
393,26,314622,2,0,L|318:38,1,55.0000016784668,10|2,0:2|0:0,0:0:0:0:
279,31,314955,6,2,P|298:82|310:136,1,110.000003356934,10|8,0:1|0:2,0:0:0:0:
363,167,315455,2,2,P|351:220|333:272,1,110.000003356934,2|0,0:0|0:0,0:0:0:0:
336,332,315955,1,10,0:2:0:0:
225,378,316288,2,0,L|98:355,1,110.000003356934,10|8,0:1|0:2,0:0:0:0:
57,253,316955,1,8,0:1:0:0:
121,150,317289,2,0,L|112:88,1,55.0000016784668,10|2,0:2|0:0,0:0:0:0:
77,46,317622,6,2,L|187:55,1,110.000003356934,10|8,0:1|0:2,0:0:0:0:
231,97,318122,2,2,L|240:207,1,110.000003356934,2|0,0:0|0:0,0:0:0:0:
207,257,318622,1,8,0:2:0:0:
302,331,318955,2,2,P|351:355|404:346,1,110.000003356934,10|8,0:1|0:2,0:0:0:0:
462,363,319455,2,2,P|486:314|477:261,1,110.000003356934,2|0,0:0|0:0,0:0:0:0:
494,202,319955,1,10,0:2:0:0:
481,81,320288,5,10,0:1:0:0:
366,118,320622,1,10,0:2:0:0:
251,82,320955,1,10,0:1:0:0:
144,136,321288,1,10,0:2:0:0:
233,219,321622,2,0,P|249:285|251:340,1,110.000003356934,10|10,0:1|0:2,0:0:0:0:
145,383,322289,2,0,L|79:369,1,55.0000016784668,10|8,0:1|0:1,0:0:0:0:
32,383,322622,2,0,L|18:317,1,55.0000016784668,10|10,0:2|0:2,0:0:0:0:
56,279,322955,6,2,B|76:232|76:232|60:175,1,110.000003356934,14|10,0:1|0:2,0:0:0:0:
6,148,323455,2,2,B|-14:101|-14:101|3:44,1,110.000003356934,2|0,0:0|0:0,0:0:0:0:
55,13,323955,1,10,0:2:0:0:
168,56,324288,2,2,P|220:72|273:59,1,110.000003356934,10|8,0:1|0:2,0:0:0:0:
322,24,324788,2,2,P|375:11|427:27,1,110.000003356934,2|0,0:0|0:0,0:0:0:0:
467,74,325288,1,10,0:2:0:0:
368,142,325622,6,2,B|348:189|348:189|365:245,1,110.000003356934,10|10,0:1|0:2,0:0:0:0:
422,266,326122,2,2,B|442:313|442:313|426:369,1,110.000003356934,2|0,0:0|0:0,0:0:0:0:
366,384,326622,1,10,0:2:0:0:
269,312,326955,2,0,P|213:303|152:316,1,110.000003356934,10|8,0:1|0:2,0:0:0:0:
58,375,327622,2,0,P|54:323|33:259,1,110.000003356934,10|0,0:1|0:0,0:0:0:0:
17,148,328288,6,2,B|69:132|69:132|121:151,1,110.000003356934,14|10,0:1|0:2,0:0:0:0:
151,204,328788,2,2,B|203:220|203:220|255:200,1,110.000003356934,2|0,0:0|0:0,0:0:0:0:
308,229,329288,1,10,0:2:0:0:
427,203,329622,2,2,P|455:156|458:101,1,110.000003356934,10|8,0:1|0:2,0:0:0:0:
416,58,330122,2,2,P|362:55|315:27,1,110.000003356934,2|0,0:0|0:0,0:0:0:0:
257,44,330622,1,10,0:2:0:0:
291,160,330955,6,0,L|302:269,1,110.000003356934,10|8,0:1|0:2,0:0:0:0:
240,373,331622,2,0,L|131:383,1,110.000003356934,10|8,0:1|0:2,0:0:0:0:
26,323,332288,1,10,0:1:0:0:
111,244,332622,1,10,0:2:0:0:
111,244,332788,2,2,L|101:134,1,110.000003356934,2|8,0:0|0:1,0:0:0:0:
51,101,333289,2,0,L|57:46,1,55.0000016784668,8|8,0:2|0:1,0:0:0:0:
30,4,333622,6,2,L|150:18,1,110.000003356934,14|10,0:1|0:2,0:0:0:0:
177,64,334122,2,2,L|297:50,1,110.000003356934,2|0,0:0|0:0,0:0:0:0:
327,5,334622,1,10,0:2:0:0:
445,31,334955,2,2,P|459:83|448:137,1,110.000003356934,10|8,0:1|0:2,0:0:0:0:
402,176,335455,2,2,P|392:229|405:282,1,110.000003356934,2|0,0:0|0:0,0:0:0:0:
459,311,335955,1,10,0:2:0:0:
362,382,336288,6,2,L|253:370,1,110.000003356934,10|10,0:1|0:2,0:0:0:0:
215,322,336788,2,2,L|227:212,1,110.000003356934,2|0,0:0|0:0,0:0:0:0:
275,175,337288,1,10,0:2:0:0:
237,59,337622,2,0,L|128:47,1,110.000003356934,10|8,0:1|0:2,0:0:0:0:
35,123,338288,2,0,L|24:232,1,110.000003356934,10|8,0:1|0:2,0:0:0:0:
58,348,338955,6,2,B|110:363|110:363|164:347,1,110.000003356934,14|10,0:1|0:2,0:0:0:0:
213,311,339455,2,2,B|267:295|267:295|319:310,1,110.000003356934,2|0,0:0|0:0,0:0:0:0:
354,360,339955,1,10,0:2:0:0:
458,297,340288,2,2,P|475:244|477:189,1,110.000003356934,10|8,0:1|0:2,0:0:0:0:
511,140,340788,2,2,P|459:123|404:121,1,110.000003356934,2|0,0:0|0:0,0:0:0:0:
356,159,341288,1,10,0:2:0:0:
310,271,341622,6,2,P|238:349|190:32,1,770.000023498535,10|8,0:1|0:1,0:0:0:0:
262,115,344289,6,0,P|310:103|355:80,1,99.9999999999999,14|8,0:1|0:2,0:0:0:0:
433,3,344956,1,10,0:1:0:0:
506,84,345289,1,8,0:2:0:0:
433,166,345623,2,0,L|452:280,1,99.9999999999999,10|8,0:1|0:2,0:0:0:0:
505,358,346289,1,10,0:1:0:0:
397,384,346623,1,8,0:2:0:0:
324,301,346956,6,0,L|224:289,1,99.9999999999999,10|8,0:1|0:2,0:0:0:0:
133,351,347623,2,0,L|121:251,1,99.9999999999999,10|8,0:1|0:2,0:0:0:0:
41,176,348289,1,10,0:1:0:0:
78,72,348623,1,8,0:2:0:0:
187,77,348956,1,10,0:1:0:0:
209,184,349289,1,8,0:2:0:0:
121,251,349622,6,0,L|133:351,1,99.9999999999999,10|8,0:1|0:2,0:0:0:0:
240,374,350289,1,10,0:1:0:0:
328,308,350623,1,8,0:2:0:0:
421,366,350956,2,0,P|441:320|450:271,1,99.9999999999999,10|8,0:1|0:2,0:0:0:0:
376,188,351623,1,10,0:1:0:0:
448,105,351956,1,8,0:2:0:0:
364,32,352289,6,0,P|315:20|265:17,1,99.9999999999999,10|8,0:1|0:2,0:0:0:0:
198,104,352956,1,10,0:1:0:0:
251,200,353289,1,8,0:2:0:0:
214,304,353623,2,0,L|320:322,2,99.9999999999999,10|8|8,0:1|0:2|0:1,0:0:0:0:
169,334,354456,1,8,0:1:0:0:
169,334,354622,2,0,L|119:326,1,50,8|8,0:2|0:2,0:0:0:0:
63,350,354956,6,0,P|45:303|43:253,1,99.9999999999999,14|8,0:1|0:2,0:0:0:0:
108,165,355623,1,10,0:1:0:0:
60,65,355956,1,8,0:2:0:0:
150,2,356289,2,0,P|199:6|248:16,1,99.9999999999999,10|8,0:1|0:2,0:0:0:0:
320,100,356956,1,10,0:1:0:0:
259,191,357289,1,8,0:2:0:0:
154,155,357623,6,0,L|143:255,1,99.9999999999999,10|8,0:1|0:2,0:0:0:0:
198,349,358289,2,0,L|297:360,1,99.9999999999999,10|8,0:1|0:2,0:0:0:0:
406,384,358956,1,10,0:1:0:0:
471,295,359289,1,8,0:2:0:0:
393,216,359623,1,10,0:1:0:0:
454,124,359956,1,8,0:2:0:0:
379,43,360289,6,0,P|330:31|281:33,1,99.9999999999999,10|8,0:1|0:2,0:0:0:0:
223,127,360956,1,10,0:1:0:0:
123,80,361289,1,8,0:2:0:0:
22,124,361623,2,0,P|9:172|10:221,1,99.9999999999999,10|8,0:1|0:2,0:0:0:0:
4,331,362289,1,10,0:1:0:0:
110,361,362623,1,8,0:2:0:0:
183,279,362956,6,0,P|230:263|279:258,1,99.9999999999999,10|8,0:1|0:2,0:0:0:0:
386,286,363622,2,0,P|435:280|482:265,1,99.9999999999999,10|8,0:1|0:2,0:0:0:0:
509,158,364289,1,10,0:1:0:0:
464,57,364623,1,8,0:2:0:0:
355,72,364956,2,0,L|305:66,1,50,8|8,0:2|0:2,0:0:0:0:
255,90,365289,2,0,L|205:84,1,50,8|8,0:2|0:2,0:0:0:0:
172,134,365622,6,0,L|188:242,1,110.000003356934,14|10,0:1|0:2,0:0:0:0:
266,335,366289,1,10,0:1:0:0:
150,371,366622,1,10,0:2:0:0:
42,314,366956,2,0,L|25:205,1,110.000003356934,10|10,0:1|0:2,0:0:0:0:
80,97,367622,1,10,0:1:0:0:
179,166,367956,1,10,0:2:0:0:
254,70,368289,6,0,P|306:55|361:50,1,110.000003356934,10|10,0:1|0:2,0:0:0:0:
463,115,368956,2,0,P|478:167|483:222,1,110.000003356934,10|10,0:1|0:2,0:0:0:0:
429,330,369622,1,10,0:1:0:0:
310,313,369956,1,10,0:2:0:0:
290,195,370289,1,10,0:1:0:0:
397,140,370622,1,10,0:2:0:0:
377,22,370956,6,0,P|323:9|268:9,1,110.000003356934,10|10,0:1|0:2,0:0:0:0:
186,97,371622,1,10,0:1:0:0:
71,55,371956,1,10,0:2:0:0:
13,161,372289,2,0,P|4:215|-1:270,1,110.000003356934,10|10,0:1|0:2,0:0:0:0:
66,370,372956,1,10,0:1:0:0:
177,323,373289,1,10,0:2:0:0:
113,220,373622,6,0,P|101:166|116:114,1,110.000003356934,10|10,0:1|0:2,0:0:0:0:
210,37,374289,1,10,0:1:0:0:
307,108,374622,1,10,0:2:0:0:
409,44,374956,2,0,P|464:49|508:80,1,110.000003356934,10|2,0:1|0:2,0:0:0:0:
469,194,375622,2,0,L|480:247,1,55.0000016784668,10|10,0:1|0:1,0:0:0:0:
470,308,375956,2,0,L|416:319,1,55.0000016784668,10|10,0:1|0:2,0:0:0:0:
387,372,376289,6,0,L|268:355,1,119.999996337891,14|10,0:1|0:2,0:0:0:0:
199,242,376956,1,10,0:1:0:0:
274,133,377289,1,10,0:2:0:0:
182,35,377622,2,0,P|123:32|65:46,1,119.999996337891,10|10,0:1|0:2,0:0:0:0:
6,164,378289,1,10,0:1:0:0:
81,272,378622,1,10,0:2:0:0:
160,166,378956,6,0,P|217:149|276:156,1,119.999996337891,10|10,0:1|0:2,0:0:0:0:
344,268,379622,2,0,P|357:209|392:162,1,119.999996337891,10|10,0:1|0:2,0:0:0:0:
507,95,380289,1,10,0:1:0:0:
403,13,380622,1,10,0:2:0:0:
291,84,380956,1,10,0:1:0:0:
171,28,381289,1,10,0:2:0:0:
61,103,381622,6,0,P|44:160|38:219,1,119.999996337891,10|10,0:1|0:2,0:0:0:0:
0,352,382289,1,10,0:1:0:0:
128,322,382622,1,10,0:2:0:0:
251,369,382956,2,0,P|310:369|369:358,1,119.999996337891,10|10,0:1|0:2,0:0:0:0:
464,266,383622,1,10,0:1:0:0:
387,157,383956,1,10,0:2:0:0:
464,48,384289,5,10,0:1:0:0:
256,192,384456,12,6,386956,0:0:0:0:
