osu file format v14

[General]
AudioFilename: audio.mp3
AudioLeadIn: 0
PreviewTime: 102581
Countdown: 0
SampleSet: Soft
StackLeniency: 0.7
Mode: 0
LetterboxInBreaks: 0
WidescreenStoryboard: 0

[Editor]
DistanceSpacing: 0.2
BeatDivisor: 4
GridSize: 32
TimelineZoom: 2.4

[Metadata]
Title:Valkyrja
TitleUnicode:Valkyrja
Artist:Yousei Teikoku
ArtistUnicode:妖精帝國
Creator:Mordred
Version:Insane
Source:舞-乙HiME 乙女舞闘史!!
Tags:gothic lolita propaganda mai kinoto hime otome butou-shi butoushi opening rock das feenreich japanese 日本語
BeatmapID:2573530
BeatmapSetID:1225418

[Difficulty]
HPDrainRate:6
CircleSize:4
OverallDifficulty:8
ApproachRate:9
SliderMultiplier:1.6
SliderTickRate:1

[Events]
//Background and Video events
0,0,"80977951.jpg",0,0
//Break Periods
2,145822,165689
2,277622,287689
//Storyboard Layer 0 (Background)
//Storyboard Layer 1 (Fail)
//Storyboard Layer 2 (Pass)
//Storyboard Layer 3 (Foreground)
//Storyboard Layer 4 (Overlay)
//Storyboard Sound Samples

[TimingPoints]
5623,333.333333333333,4,2,1,60,1,0
16289,-100,4,2,1,60,0,0
26956,-100,4,2,1,60,0,0
37622,-100,4,1,1,70,0,0
58956,-100,4,2,1,60,0,0
80289,-100,4,1,2,70,0,0
88456,-100,4,1,1,70,0,0
90956,-100,4,1,2,70,0,0
102956,-83.3333333333333,4,1,2,80,0,1
145622,-100,4,1,1,70,0,0
166956,-100,4,2,1,60,0,0
177622,-142.857142857143,4,2,1,60,0,0
182956,-100,4,2,1,60,0,0
188289,-100,4,1,2,70,0,0
196456,-100,4,1,1,70,0,0
198956,-100,4,1,2,70,0,0
210956,-83.3333333333333,4,1,2,80,0,1
252289,-100,4,2,1,70,0,0
253622,-100,4,1,1,70,0,0
264289,-83.3333333333333,4,1,1,80,0,1
274956,-100,4,2,1,70,0,0
288289,-166.666666666667,4,2,1,50,0,0
297622,-166.666666666667,4,2,1,60,0,0
298956,-166.666666666667,4,2,1,70,0,0
300289,-166.666666666667,4,2,1,50,0,0
301622,-83.3333333333333,4,1,2,70,0,1
341622,-83.3333333333333,4,1,1,60,0,1
342289,-83.3333333333333,4,1,1,65,0,1
342956,-83.3333333333333,4,1,1,70,0,1
343289,-83.3333333333333,4,1,1,75,0,1
343622,-83.3333333333333,4,1,1,80,0,1
343956,-83.3333333333333,4,1,1,85,0,1
344289,-83.3333333333333,4,1,1,70,0,0
345622,-100,4,1,1,70,0,0
354956,-83.3333333333333,4,1,1,70,0,0
355289,-100,4,1,1,70,0,0
376289,-83.3333333333333,4,1,1,70,0,0
384289,-100,4,1,1,50,0,0
385622,-100,4,1,1,60,0,0
386289,-100,4,1,1,70,0,0
386622,-100,4,1,1,80,0,0
386956,-100,4,1,1,90,0,0

[Colours]
Combo1 : 250,180,240
Combo2 : 110,190,225
Combo3 : 255,230,130
Combo4 : 150,230,140

[HitObjects]
64,32,16289,5,14,0:1:0:0:
32,160,16956,1,8,0:1:0:0:
160,192,17622,1,8,0:1:0:0:
192,64,18289,1,8,0:1:0:0:
320,64,18956,1,8,0:1:0:0:
352,192,19623,1,8,0:1:0:0:
480,160,20289,1,8,0:1:0:0:
448,32,20956,1,8,0:1:0:0:
64,352,21622,5,14,0:1:0:0:
32,224,22289,1,8,0:1:0:0:
160,192,22955,1,8,0:1:0:0:
192,320,23622,1,8,0:1:0:0:
320,320,24289,1,8,0:1:0:0:
352,192,24956,1,8,0:1:0:0:
480,224,25289,1,8,0:1:0:0:
491,198,25456,1,8,0:1:0:0:
403,133,25622,1,8,0:1:0:0:
392,107,25789,1,8,0:1:0:0:
480,42,25955,1,8,0:1:0:0:
491,16,26122,1,8,0:1:0:0:
352,0,26289,1,8,0:1:0:0:
332,5,26372,1,8,0:1:0:0:
312,10,26456,1,8,0:1:0:0:
292,15,26539,1,8,0:1:0:0:
272,20,26622,2,0,L|219:13,3,40,8|8|8|8,0:1|0:1|0:1|0:1,0:0:0:0:
152,19,26956,5,6,3:1:0:0:
155,38,27039,1,0,3:0:0:0:
159,58,27122,1,0,3:0:0:0:
163,77,27205,1,0,3:0:0:0:
167,97,27289,1,8,3:1:0:0:
171,117,27372,1,0,3:0:0:0:
174,136,27455,1,0,3:0:0:0:
178,156,27539,1,0,3:0:0:0:
182,176,27622,2,0,L|171:221,3,40,10|0|0|0,3:1|3:0|3:0|3:0,0:0:0:0:
103,253,27956,2,0,L|114:298,3,40,8|0|0|0,3:1|3:0|3:0|3:0,0:0:0:0:
172,345,28289,2,0,P|211:353|250:358,1,80,10|0,0:1|0:0,0:0:0:0:
330,323,28622,2,0,P|338:284|343:245,1,80,8|0,0:1|0:0,0:0:0:0:
402,181,28956,2,0,P|441:173|480:168,1,80,10|0,0:1|0:0,0:0:0:0:
343,244,29289,2,0,P|303:238|264:230,1,80,8|0,0:1|0:0,0:0:0:0:
160,192,29622,5,10,3:1:0:0:
157,172,29705,1,0,3:1:0:0:
154,152,29788,1,0,3:1:0:0:
151,132,29871,1,0,3:1:0:0:
148,112,29955,1,8,3:1:0:0:
145,93,30038,1,0,3:1:0:0:
142,73,30121,1,0,3:1:0:0:
139,53,30205,1,0,3:1:0:0:
136,33,30289,2,0,L|96:27,3,40,10|0|0|0,3:1|3:1|3:1|3:1,0:0:0:0:
27,68,30622,2,0,L|21:107,3,40,8|0|0|0,3:1|3:1|3:1|3:1,0:0:0:0:
74,163,30956,2,0,P|85:201|91:240,1,80,10|0,0:1|0:0,0:0:0:0:
0,362,31289,2,0,P|27:333|58:307,1,80,8|0,0:1|0:0,0:0:0:0:
210,327,31622,2,0,P|171:317|133:303,1,80,10|0,0:1|0:0,0:0:0:0:
17,245,31956,1,8,0:1:0:0:
100,371,32122,1,8,0:1:0:0:
167,237,32289,5,14,3:1:0:0:
186,234,32372,1,0,3:1:0:0:
206,232,32455,1,0,3:1:0:0:
226,230,32538,1,0,3:1:0:0:
246,227,32622,1,8,3:1:0:0:
266,225,32705,1,0,3:1:0:0:
286,223,32788,1,0,3:1:0:0:
306,221,32872,1,0,3:1:0:0:
325,218,32956,2,0,L|337:166,3,40,10|0|0|0,3:1|3:1|3:1|3:1,0:0:0:0:
273,130,33289,2,0,L|261:78,3,40,8|0|0|0,3:1|3:1|3:1|3:1,0:0:0:0:
301,19,33622,2,0,P|340:12|380:9,1,80,10|0,0:1|0:0,0:0:0:0:
451,45,33956,2,0,P|458:84|461:124,1,80,8|0,0:1|0:0,0:0:0:0:
501,265,34289,2,0,P|504:225|512:186,1,80,10|0,0:1|0:0,0:0:0:0:
421,201,34622,2,0,P|418:241|411:281,1,80,8|0,0:1|0:0,0:0:0:0:
327,346,34956,5,10,3:1:0:0:
307,347,35039,1,0,3:3:0:0:
287,349,35122,1,0,3:3:0:0:
267,350,35206,1,0,3:3:0:0:
247,352,35289,1,8,3:1:0:0:
227,353,35372,1,0,3:3:0:0:
207,355,35456,1,0,3:3:0:0:
187,356,35539,1,0,3:3:0:0:
167,358,35622,2,0,L|119:350,3,40,10|0|0|0,3:1|3:3|3:3|3:3,0:0:0:0:
74,297,35956,2,0,L|66:249,3,40,8|0|0|0,3:1|3:3|3:3|3:3,0:0:0:0:
108,194,36289,1,10,0:1:0:0:
108,194,36372,1,8,0:1:0:0:
108,194,36456,1,8,0:1:0:0:
32,96,36622,1,0,3:0:0:0:
137,27,36789,1,8,0:1:0:0:
137,27,36872,1,8,0:1:0:0:
137,27,36956,2,0,L|182:22,2,40,0|0|0,3:0|3:0|3:0,0:0:0:0:
199,120,37289,1,0,3:2:0:0:
236,132,37372,1,8,3:2:0:0:
275,127,37455,1,8,3:2:0:0:
309,105,37539,1,8,3:2:0:0:
329,71,37622,6,0,P|307:147|294:226,1,160,14|8,0:1|0:2,0:0:0:0:
322,302,38122,1,0,0:0:0:0:
160,256,38289,1,10,0:1:0:0:
96,320,38456,1,0,0:0:0:0:
238,294,38622,1,8,0:2:0:0:
238,384,38789,1,0,0:0:0:0:
32,384,38956,2,0,L|7:266,1,120,10|0,0:1|2:0,0:0:0:0:
37,241,39289,2,0,L|53:162,1,80,8|0,0:2|0:0,0:0:0:0:
32,32,39622,1,10,0:1:0:0:
141,127,39789,1,0,0:0:0:0:
285,118,39956,1,8,0:2:0:0:
380,9,40122,1,0,0:0:0:0:
464,14,40289,6,0,P|477:51|488:90,1,80,10|0,0:1|0:0,0:0:0:0:
439,238,40622,2,0,P|428:199|414:161,1,80,8|0,0:2|0:0,0:0:0:0:
285,118,40956,1,10,0:1:0:0:
212,146,41122,1,0,0:0:0:0:
240,219,41289,1,8,0:2:0:0:
313,191,41456,1,0,0:0:0:0:
512,335,41622,2,0,L|353:313,1,160,10|8,0:1|0:2,0:0:0:0:
284,348,42122,1,0,0:0:0:0:
112,304,42289,1,10,0:1:0:0:
112,304,42456,1,0,0:1:0:0:
220,240,42622,1,8,0:2:0:0:
220,240,42706,1,0,0:1:0:0:
220,240,42789,1,0,0:1:0:0:
17,230,42956,6,0,L|0:70,2,160,10|8|10,0:1|0:2|0:1,0:0:0:0:
112,304,43789,1,0,0:0:0:0:
255,224,43956,2,0,B|295:214|335:211,1,80,8|0,0:2|0:0,0:0:0:0:
512,369,44289,2,0,B|453:364|393:349,1,120,10|0,0:1|2:0,0:0:0:0:
358,318,44622,2,0,B|348:278|345:238,1,80,8|0,0:2|0:0,0:0:0:0:
512,79,44956,1,10,0:1:0:0:
417,188,45122,1,0,0:0:0:0:
273,197,45289,1,8,0:2:0:0:
164,102,45456,1,0,0:0:0:0:
85,145,45622,6,0,P|13:115|0:40,2,160,10|8|10,0:1|0:2|0:1,0:0:0:0:
164,102,46456,1,0,0:0:0:0:
273,197,46622,1,8,0:2:0:0:
171,204,46789,1,0,0:0:0:0:
266,95,46956,2,0,P|305:88|344:79,1,80,10|0,0:1|0:0,0:0:0:0:
512,160,47289,2,0,P|472:153|433:144,1,80,8|0,0:2|0:0,0:0:0:0:
445,36,47622,1,8,0:1:0:0:
445,36,47706,1,8,0:1:0:0:
332,188,47872,1,8,0:1:0:0:
332,188,47956,1,8,0:2:0:0:
439,242,48122,1,8,0:2:0:0:
439,242,48206,1,8,0:2:0:0:
439,242,48289,6,0,P|448:300|417:350,1,120,14|0,0:1|2:0,0:0:0:0:
414,384,48622,2,0,L|334:375,1,80,8|0,0:2|0:0,0:0:0:0:
170,288,48956,1,10,0:1:0:0:
202,384,49122,1,0,0:0:0:0:
298,352,49289,1,8,0:2:0:0:
266,256,49456,1,0,0:0:0:0:
102,363,49622,2,0,P|63:356|26:343,1,80,10|0,0:1|0:0,0:0:0:0:
0,208,49956,2,0,P|39:215|76:228,1,80,8|0,0:2|0:0,0:0:0:0:
170,288,50289,1,10,0:1:0:0:
130,118,50456,1,0,0:0:0:0:
170,288,50622,1,8,0:2:0:0:
130,118,50789,1,0,0:0:0:0:
224,160,50956,6,0,P|300:163|346:101,2,160,10|8|10,0:1|0:2|0:1,0:0:0:0:
130,118,51789,1,0,0:0:0:0:
16,208,51956,2,0,P|8:247|4:286,1,80,8|0,0:2|0:0,0:0:0:0:
143,377,52289,2,0,L|118:220,1,160,10|8,0:1|0:2,0:0:0:0:
130,118,52789,1,0,0:0:0:0:
16,208,52956,1,10,0:1:0:0:
16,208,53122,1,0,0:0:0:0:
32,110,53289,1,8,0:2:0:0:
32,110,53372,1,0,0:0:0:0:
32,110,53456,1,0,0:0:0:0:
118,220,53622,6,0,P|192:235|237:175,2,160,10|8|10,0:1|0:2|0:1,0:0:0:0:
70,293,54456,1,0,0:0:0:0:
224,384,54622,1,8,0:2:0:0:
211,308,54789,1,0,0:0:0:0:
384,236,54956,2,0,L|365:354,1,120,10|0,0:1|2:0,0:0:0:0:
404,384,55289,2,0,L|391:304,1,80,8|0,0:2|0:0,0:0:0:0:
460,151,55622,1,10,0:1:0:0:
296,205,55789,1,0,0:0:0:0:
460,151,55956,1,8,0:2:0:0:
296,205,56122,1,0,0:0:0:0:
375,55,56289,6,0,P|370:95|359:134,1,80,10|0,0:1|0:0,0:0:0:0:
280,283,56622,2,0,P|285:243|296:205,1,80,8|0,0:2|0:0,0:0:0:0:
256,96,56956,1,10,0:1:0:0:
256,96,57122,1,0,0:0:0:0:
143,124,57289,1,8,0:2:0:0:
143,124,57455,1,0,0:0:0:0:
0,35,57622,2,0,P|18:93|30:152,1,120,10|0,0:1|2:0,0:0:0:0:
21,185,57956,2,0,P|8:223|0:261,1,80,8|0,0:2|0:0,0:0:0:0:
32,384,58289,1,8,0:0:0:0:
32,384,58372,1,8,0:0:0:0:
32,384,58456,1,8,0:0:0:0:
159,365,58622,1,8,0:0:0:0:
293,353,58789,1,8,0:0:0:0:
293,353,58872,1,8,0:0:0:0:
293,353,58956,6,0,P|331:362|371:366,1,80,14|2,0:1|0:0,0:0:0:0:
480,352,59289,1,10,0:1:0:0:
413,264,59456,2,0,P|404:226|400:186,1,80,2|8,0:0|0:1,0:0:0:0:
454,68,59789,1,2,0:0:0:0:
368,100,59956,1,10,0:1:0:0:
282,132,60122,1,2,0:0:0:0:
196,164,60289,2,0,P|172:240|141:314,1,160,10|10,0:1|0:1,0:0:0:0:
204,384,60789,1,2,0:0:0:0:
48,320,60956,2,0,L|36:241,1,80,10|0,0:1|0:0,0:0:0:0:
141,314,61289,2,0,L|129:235,1,80,8|0,0:1|0:0,0:0:0:0:
0,115,61622,5,10,0:1:0:0:
75,168,61789,1,2,0:0:0:0:
159,130,61956,1,10,0:1:0:0:
168,37,62122,2,0,P|205:25|245:18,1,80,2|8,0:0|0:1,0:0:0:0:
346,48,62456,1,2,0:0:0:0:
245,18,62622,1,10,0:1:0:0:
272,110,62789,1,2,0:0:0:0:
450,91,62956,1,10,3:1:0:0:
450,91,63039,1,0,3:0:0:0:
450,91,63122,1,0,3:0:0:0:
450,91,63206,1,0,3:0:0:0:
450,91,63289,2,0,P|462:128|471:167,1,80,10|0,0:1|0:0,0:0:0:0:
383,290,63622,1,10,3:1:0:0:
344,277,63706,1,0,3:1:0:0:
344,237,63789,1,0,3:1:0:0:
383,225,63872,1,0,3:1:0:0:
406,257,63956,1,8,0:1:0:0:
367,373,64122,1,8,0:1:0:0:
250,334,64289,6,0,P|211:328|171:326,1,80,10|2,0:1|0:0,0:0:0:0:
80,368,64622,1,10,0:1:0:0:
15,295,64789,2,0,P|9:256|7:216,1,80,2|8,0:0|0:1,0:0:0:0:
56,127,65122,1,2,0:0:0:0:
144,176,65289,2,0,P|183:174|223:168,1,80,10|0,0:1|0:0,0:0:0:0:
292,96,65622,2,0,P|269:172|256:251,1,160,10|10,0:1|0:1,0:0:0:0:
288,352,66122,1,2,0:0:0:0:
212,274,66289,2,0,P|173:262|134:256,1,80,10|0,0:1|0:0,0:0:0:0:
32,288,66622,1,10,0:1:0:0:
32,288,66789,1,2,0:0:0:0:
0,96,66956,6,0,P|8:135|21:172,1,80,10|0,0:1|0:0,0:0:0:0:
134,256,67289,2,0,P|142:216|155:179,1,80,10|0,0:1|0:0,0:0:0:0:
268,96,67622,2,0,P|276:135|289:172,1,80,10|0,0:1|0:0,0:0:0:0:
402,256,67956,2,0,P|410:216|423:179,1,80,10|10,0:1|0:1,0:0:0:0:
512,100,68289,1,10,3:1:0:0:
512,100,68372,1,0,3:1:0:0:
512,100,68456,1,0,3:1:0:0:
512,100,68539,1,0,3:1:0:0:
512,100,68622,1,8,3:1:0:0:
512,100,68706,1,0,3:1:0:0:
512,100,68789,1,0,3:1:0:0:
512,100,68872,1,0,3:1:0:0:
512,100,68956,2,0,L|472:97,1,40,10|0,3:1|3:0,0:0:0:0:
412,144,69122,2,0,L|372:141,1,40,10|0,3:1|3:0,0:0:0:0:
315,89,69289,2,0,L|275:86,1,40,10|0,3:1|3:0,0:0:0:0:
215,133,69455,2,0,L|175:130,1,40,10|0,3:1|3:0,0:0:0:0:
53,87,69622,6,0,P|43:48|38:9,1,80,14|2,0:1|0:0,0:0:0:0:
53,87,69956,1,10,0:1:0:0:
15,167,70122,2,0,P|4:207|0:245,1,80,2|8,0:0|0:1,0:0:0:0:
35,340,70456,1,2,0:0:0:0:
129,305,70622,1,10,0:1:0:0:
208,369,70789,1,2,0:0:0:0:
302,334,70956,2,0,P|341:335|381:343,1,80,10|0,0:1|0:0,0:0:0:0:
480,384,71289,1,10,0:1:0:0:
381,343,71456,1,2,0:0:0:0:
459,285,71622,1,10,0:1:0:0:
459,285,71789,1,0,0:0:0:0:
480,384,71956,1,10,0:1:0:0:
480,384,72122,1,0,0:0:0:0:
438,180,72289,5,10,0:1:0:0:
437,180,72456,2,0,L|358:194,1,80,2|8,0:0|0:1,0:0:0:0:
512,259,72789,2,0,L|433:273,1,80,2|8,0:0|0:1,0:0:0:0:
375,346,73122,1,2,0:0:0:0:
433,272,73289,1,10,0:1:0:0:
471,364,73456,1,2,0:0:0:0:
286,334,73622,1,10,3:1:0:0:
286,334,73706,1,0,3:1:0:0:
286,334,73789,1,0,3:1:0:0:
286,334,73872,1,0,3:1:0:0:
285,334,73956,2,0,P|248:350|209:356,1,80,10|0,0:1|0:0,0:0:0:0:
67,320,74289,1,10,3:1:0:0:
37,348,74373,1,0,3:0:0:0:
54,384,74456,1,0,3:0:0:0:
94,378,74539,1,0,3:0:0:0:
101,340,74623,1,8,0:1:0:0:
0,256,74789,1,8,0:1:0:0:
23,126,74956,6,0,P|61:117|101:114,1,80,10|2,0:1|0:0,0:0:0:0:
186,164,75289,1,10,0:1:0:0:
265,98,75456,2,0,P|274:59|277:19,1,80,2|8,0:0|0:1,0:0:0:0:
265,98,75789,1,2,0:0:0:0:
186,164,75956,1,10,0:1:0:0:
204,266,76122,1,2,0:0:0:0:
283,199,76289,2,0,P|361:185|441:180,1,160,10|10,0:1|0:1,0:0:0:0:
492,262,76789,1,2,0:0:0:0:
512,116,76956,2,0,L|497:33,1,80,10|0,0:1|0:0,0:0:0:0:
416,0,77289,1,10,0:1:0:0:
416,0,77456,1,2,0:0:0:0:
320,128,77622,6,0,P|282:140|242:145,1,80,10|0,0:1|0:0,0:0:0:0:
99,37,77956,2,0,P|138:41|176:54,1,80,10|0,0:1|0:0,0:0:0:0:
147,233,78289,2,0,P|134:195|130:156,1,80,10|0,0:1|0:0,0:0:0:0:
181,58,78622,1,10,0:1:0:0:
181,58,78789,1,10,0:1:0:0:
19,185,78956,1,10,3:1:0:0:
19,185,79039,1,0,3:1:0:0:
19,185,79122,1,0,3:1:0:0:
19,185,79206,1,0,3:1:0:0:
19,185,79289,1,8,3:1:0:0:
19,185,79372,1,0,3:1:0:0:
19,185,79456,1,0,3:0:0:0:
19,185,79539,1,0,3:0:0:0:
19,185,79622,2,0,L|26:224,1,40,10|8,3:1|3:1,0:0:0:0:
80,319,79789,2,0,L|87:279,1,40,10|0,3:1|3:0,0:0:0:0:
141,185,79956,2,0,L|148:224,1,40,10|0,3:1|3:0,0:0:0:0:
202,319,80122,2,0,L|209:279,1,40,10|0,3:1|3:0,0:0:0:0:
263,185,80289,6,0,L|341:171,1,80,14|0,0:1|0:0,0:0:0:0:
512,227,80622,2,0,L|433:240,1,80,10|0,0:1|0:0,0:0:0:0:
339,330,80956,2,0,L|353:252,1,80,10|0,0:1|0:0,0:0:0:0:
435,81,81289,2,0,L|422:160,1,80,10|0,0:1|0:0,0:0:0:0:
235,271,81622,2,2,P|179:218|187:140,1,160,10|8,0:1|0:1,0:0:0:0:
267,91,82122,2,2,L|107:74,1,160,2|0,0:0|0:0,0:0:0:0:
4,36,82622,2,0,P|16:74|22:116,1,80,10|0,0:1|0:0,0:0:0:0:
0,256,82956,5,10,0:1:0:0:
0,256,83122,1,0,0:0:0:0:
128,160,83289,1,8,0:1:0:0:
128,160,83455,1,0,0:0:0:0:
224,288,83623,1,8,0:1:0:0:
224,288,83789,1,0,0:0:0:0:
96,384,83956,1,8,0:1:0:0:
96,384,84122,1,0,0:0:0:0:
202,190,84289,2,2,P|281:180|360:165,1,160,10|8,0:1|0:1,0:0:0:0:
65,263,84789,2,2,P|145:273|224:288,1,160,2|0,0:0|0:0,0:0:0:0:
0,192,85289,1,8,0:1:0:0:
0,192,85372,1,0,0:0:0:0:
0,192,85456,1,0,0:0:0:0:
128,95,85622,6,0,P|139:57|144:18,1,80,10|0,0:1|0:0,0:0:0:0:
16,114,85956,2,0,P|5:152|0:192,1,80,10|0,0:1|0:0,0:0:0:0:
144,365,86289,2,0,P|139:326|128:288,1,80,10|0,0:1|0:0,0:0:0:0:
0,192,86623,2,0,P|5:231|16:269,1,80,10|0,0:1|0:0,0:0:0:0:
263,207,86956,2,2,P|184:194|104:187,1,160,10|8,0:1|0:1,0:0:0:0:
256,352,87456,2,2,P|335:344|414:332,1,160,2|0,0:0|0:0,0:0:0:0:
475,261,87956,2,0,L|485:181,1,80,10|0,0:1|0:0,0:0:0:0:
416,32,88289,5,10,0:1:0:0:
361,129,88456,1,2,0:0:0:0:
437,108,88622,1,8,0:1:0:0:
339,53,88789,1,2,0:0:0:0:
437,108,88956,5,8,0:1:0:0:
382,206,89122,1,2,0:0:0:0:
284,151,89288,1,8,0:1:0:0:
339,53,89456,1,2,0:0:0:0:
382,206,89622,5,8,0:1:0:0:
339,53,89789,1,2,0:0:0:0:
186,96,89956,1,8,0:1:0:0:
229,249,90123,1,2,0:0:0:0:
284,151,90289,5,8,0:1:0:0:
284,151,90372,1,0,0:0:0:0:
284,151,90456,1,2,0:0:0:0:
327,304,90622,1,8,0:1:0:0:
174,347,90789,1,10,0:1:0:0:
354,315,90956,6,0,P|392:326|431:335,1,80,14|0,0:1|0:0,0:0:0:0:
194,269,91289,2,0,P|182:307|174:347,1,80,10|0,0:1|0:0,0:0:0:0:
239,109,91622,2,0,P|200:97|161:88,1,80,10|0,0:1|0:0,0:0:0:0:
398,154,91956,2,0,P|409:115|418:76,1,80,10|0,0:1|0:0,0:0:0:0:
294,256,92289,2,2,P|373:245|453:240,1,160,10|8,0:1|0:1,0:0:0:0:
320,384,92789,2,2,P|240:378|160:368,1,160,2|0,0:0|0:0,0:0:0:0:
0,320,93289,2,0,P|39:317|79:312,1,80,10|0,0:1|0:0,0:0:0:0:
201,277,93622,5,10,0:1:0:0:
201,277,93788,1,0,0:0:0:0:
112,68,93956,1,8,0:1:0:0:
112,68,94122,1,0,0:0:0:0:
260,128,94289,1,8,0:1:0:0:
260,128,94455,1,0,0:0:0:0:
52,217,94621,1,0,0:0:0:0:
52,217,94788,1,0,0:0:0:0:
274,208,94956,2,2,P|199:191|176:118,1,160,10|8,0:1|0:1,0:0:0:0:
334,345,95456,2,2,P|346:267|365:189,1,160,2|0,0:0|0:0,0:0:0:0:
437,135,95956,1,8,0:1:0:0:
437,135,96039,1,0,0:0:0:0:
437,135,96122,1,0,0:0:0:0:
288,32,96289,6,0,P|248:39|208:40,1,80,10|0,0:1|0:0,0:0:0:0:
96,160,96622,2,0,P|103:199|104:239,1,80,10|0,0:1|0:0,0:0:0:0:
224,352,96956,2,0,P|263:344|303:343,1,80,10|0,0:1|0:0,0:0:0:0:
416,224,97289,2,0,P|408:184|407:144,1,80,10|0,0:1|0:0,0:0:0:0:
176,115,97622,2,2,P|240:156|309:123,1,160,10|8,0:1|0:1,0:0:0:0:
114,56,98122,2,2,P|130:134|137:213,1,160,2|0,0:0|0:0,0:0:0:0:
69,360,98622,2,0,P|72:320|80:281,1,80,10|0,0:1|0:0,0:0:0:0:
289,315,98956,5,10,0:1:0:0:
289,315,99122,1,0,0:0:0:0:
379,158,99289,1,8,0:1:0:0:
379,158,99455,1,0,0:0:0:0:
222,68,99622,1,8,0:1:0:0:
222,68,99788,1,0,0:0:0:0:
132,225,99956,1,8,0:1:0:0:
132,225,100122,1,0,0:0:0:0:
349,246,100289,5,10,0:1:0:0:
162,138,100456,1,0,0:0:0:0:
310,98,100622,1,8,0:1:0:0:
202,285,100789,1,0,0:0:0:0:
256,192,100956,5,8,0:1:0:0:
256,192,101039,1,8,0:1:0:0:
256,192,101122,1,8,0:1:0:0:
201,285,101289,2,0,P|164:298|125:305,1,80,8|8,0:1|0:1,0:0:0:0:
448,352,101622,1,12,0:1:0:0:
448,352,101789,1,8,0:1:0:0:
448,352,102456,1,8,0:1:0:0:
512,192,102622,1,2,0:2:0:0:
512,192,102706,1,0,0:2:0:0:
512,192,102789,1,0,0:2:0:0:
512,192,102872,1,0,0:2:0:0:
511,192,102956,6,2,P|425:221|353:164,1,191.999994140625,14|8,0:1|0:2,0:0:0:0:
256,64,103456,1,2,0:0:0:0:
219,196,103622,1,8,0:1:0:0:
315,294,103789,1,0,0:0:0:0:
352,162,103956,2,0,P|396:144|443:132,1,95.9999970703126,10|0,0:2|0:0,0:0:0:0:
205,287,104289,2,0,P|158:275|113:257,1,95.9999970703126,10|0,0:1|0:0,0:0:0:0:
69,151,104622,5,8,0:2:0:0:
69,151,104789,1,0,0:0:0:0:
69,151,104956,1,8,0:1:0:0:
69,151,105122,1,0,0:0:0:0:
27,68,105289,5,10,0:2:0:0:
18,227,105456,1,2,0:0:0:0:
161,156,105622,2,2,L|352:176,1,191.999994140625,10|8,0:1|0:2,0:0:0:0:
512,96,106122,1,2,0:0:0:0:
351,175,106289,1,8,0:1:0:0:
392,56,106456,1,0,0:0:0:0:
472,216,106622,2,0,P|465:263|453:309,1,95.9999970703126,10|0,0:2|0:0,0:0:0:0:
320,384,106956,2,0,P|326:336|338:290,1,95.9999970703126,10|0,0:1|0:0,0:0:0:0:
192,160,107289,2,0,P|144:166|98:178,1,95.9999970703126,8|0,0:2|0:0,0:0:0:0:
243,307,107622,2,0,P|291:301|338:289,1,95.9999970703126,8|0,0:1|0:0,0:0:0:0:
416,160,107956,1,10,0:2:0:0:
488,292,108122,1,2,0:0:0:0:
507,129,108289,6,2,P|411:116|317:96,1,191.999994140625,10|8,0:1|0:2,0:0:0:0:
160,160,108789,1,2,0:0:0:0:
317,96,108956,1,8,0:1:0:0:
226,211,109122,1,0,0:0:0:0:
250,44,109289,1,8,0:2:0:0:
305,179,109456,1,0,0:0:0:0:
171,76,109622,6,2,B|103:59|103:59|67:74|67:74|-16:51,1,191.999994140625,10|8,0:1|0:2,0:0:0:0:
306,180,110122,2,2,B|374:162|374:162|410:177|410:177|493:154,1,191.999994140625,2|0,0:0|0:0,0:0:0:0:
171,283,110622,1,10,0:2:0:0:
171,283,110706,1,0,0:0:0:0:
171,283,110789,1,0,0:0:0:0:
32,160,110956,2,2,P|58:252|70:347,1,191.999994140625,10|8,0:1|0:2,0:0:0:0:
304,384,111456,2,2,P|277:291|265:196,1,191.999994140625,2|0,0:0|0:0,0:0:0:0:
288,64,111956,1,10,0:2:0:0:
288,64,112039,1,0,0:0:0:0:
288,64,112122,1,0,0:0:0:0:
480,160,112289,2,0,L|384:147,1,95.9999970703126,10|0,0:1|0:0,0:0:0:0:
144,272,112622,2,0,L|239:284,1,95.9999970703126,10|0,0:2|0:0,0:0:0:0:
384,384,112956,1,10,0:1:0:0:
384,384,113122,1,8,0:1:0:0:
384,384,113289,1,10,0:2:0:0:
480,320,113456,1,10,0:1:0:0:
256,368,113622,6,2,L|65:343,1,191.999994140625,14|8,0:1|0:2,0:0:0:0:
0,192,114122,1,2,0:0:0:0:
65,343,114289,1,8,0:1:0:0:
216,278,114456,1,0,0:0:0:0:
151,127,114622,2,0,L|53:112,1,95.9999970703126,10|0,0:2|0:0,0:0:0:0:
216,278,114956,2,0,L|314:263,1,95.9999970703126,10|0,0:1|0:0,0:0:0:0:
119,323,115289,2,0,L|133:228,1,95.9999970703126,8|0,0:2|0:0,0:0:0:0:
242,73,115623,2,0,L|256:167,1,95.9999970703126,8|0,0:1|0:0,0:0:0:0:
311,264,115956,1,10,0:2:0:0:
256,167,116122,1,2,0:0:0:0:
366,352,116289,6,2,P|455:370|506:290,1,191.999994140625,10|8,0:1|0:2,0:0:0:0:
426,159,116789,1,2,0:0:0:0:
424,294,116956,1,8,0:1:0:0:
426,159,117122,1,0,0:0:0:0:
310,264,117289,2,0,P|264:276|216:279,1,95.9999970703126,10|0,0:2|0:0,0:0:0:0:
57,384,117622,2,0,P|103:371|151:368,1,95.9999970703126,10|0,0:1|0:0,0:0:0:0:
332,375,117956,2,0,P|285:362|237:359,1,95.9999970703126,8|0,0:2|0:0,0:0:0:0:
35,266,118289,2,0,P|81:278|129:281,1,95.9999970703126,8|0,0:1|0:0,0:0:0:0:
256,192,118622,1,10,0:2:0:0:
256,192,118789,1,2,0:0:0:0:
120,19,118956,6,2,P|146:111|164:205,1,191.999994140625,10|8,0:1|0:2,0:0:0:0:
151,368,119456,1,2,0:0:0:0:
35,266,119622,1,8,0:1:0:0:
151,368,119789,1,0,0:0:0:0:
164,205,119956,1,8,0:2:0:0:
151,368,120122,1,0,0:0:0:0:
364,311,120289,6,2,P|274:297|174:286,1,191.999994140625,10|8,0:1|0:2,0:0:0:0:
447,383,120789,2,2,P|409:302|437:201,1,191.999994140625,2|0,0:0|0:0,0:0:0:0:
512,46,121289,2,0,P|509:93|497:140,1,95.9999970703126,10|0,0:2|0:0,0:0:0:0:
370,290,121622,5,10,0:1:0:0:
370,290,121789,1,0,0:0:0:0:
283,42,121956,1,10,0:2:0:0:
283,42,122123,1,0,0:0:0:0:
113,241,122289,1,10,0:1:0:0:
113,241,122456,1,0,0:0:0:0:
256,192,122622,5,10,0:2:0:0:
256,192,122706,1,0,0:0:0:0:
256,192,122789,1,0,0:0:0:0:
140,92,122956,5,10,0:1:0:0:
140,92,123123,1,0,0:0:0:0:
398,141,123289,1,10,0:2:0:0:
398,141,123456,1,0,0:0:0:0:
228,340,123622,1,10,0:1:0:0:
256,192,123789,1,8,0:1:0:0:
316,279,123956,1,10,0:2:0:0:
175,259,124123,1,10,0:2:0:0:
175,259,124206,1,0,0:0:0:0:
175,259,124289,6,2,P|92:222|93:131,1,191.999994140625,14|10,0:1|0:2,0:0:0:0:
0,31,124789,2,2,P|42:110|132:101,1,191.999994140625,2|0,0:0|0:0,0:0:0:0:
221,57,125289,2,0,P|267:45|315:43,1,95.9999970703126,10|0,0:2|0:0,0:0:0:0:
432,129,125622,5,10,0:1:0:0:
454,104,125789,1,0,0:0:0:0:
460,71,125956,1,8,0:2:0:0:
341,155,126122,5,2,0:0:0:0:
351,186,126289,1,8,0:1:0:0:
377,208,126456,1,0,0:0:0:0:
363,63,126622,5,10,0:2:0:0:
332,56,126706,1,0,0:0:0:0:
300,67,126789,1,0,0:0:0:0:
256,192,126956,6,2,L|236:398,1,191.999994140625,10|10,0:1|0:2,0:0:0:0:
456,277,127456,2,2,P|380:326|300:282,1,191.999994140625,2|0,0:0|0:0,0:0:0:0:
256,192,127956,2,0,L|247:96,1,95.9999970703126,10|0,0:2|0:0,0:0:0:0:
20,41,128289,5,10,0:1:0:0:
24,70,128456,1,0,0:0:0:0:
28,99,128622,1,8,0:2:0:0:
32,128,128789,1,0,0:0:0:0:
20,343,128956,5,10,0:1:0:0:
24,314,129123,1,0,0:0:0:0:
28,285,129289,1,8,0:2:0:0:
32,256,129456,1,0,0:0:0:0:
192,192,129622,6,2,P|280:211|333:138,1,191.999994140625,14|10,0:1|0:2,0:0:0:0:
185,327,130122,2,2,P|165:232|142:139,1,191.999994140625,2|0,0:0|0:0,0:0:0:0:
0,48,130622,2,0,P|46:58|94:62,1,95.9999970703126,10|0,0:2|0:0,0:0:0:0:
286,114,130956,5,10,0:1:0:0:
300,143,131123,1,0,0:0:0:0:
298,177,131290,1,8,0:2:0:0:
204,65,131456,5,2,0:0:0:0:
222,37,131623,1,8,0:1:0:0:
253,23,131790,1,0,0:0:0:0:
202,159,131956,5,10,0:2:0:0:
170,158,132040,1,0,0:0:0:0:
142,139,132123,1,0,0:0:0:0:
298,177,132289,6,0,L|308:272,1,95.9999970703126,10|0,0:1|0:0,0:0:0:0:
192,384,132622,1,8,0:2:0:0:
308,272,132789,1,0,0:0:0:0:
192,384,132956,2,0,L|181:288,1,95.9999970703126,10|0,0:1|0:0,0:0:0:0:
32,160,133289,1,8,0:2:0:0:
181,288,133456,1,0,0:0:0:0:
31,159,133622,2,0,P|17:69|92:17,1,191.999994140625,10|10,0:1|0:2,0:0:0:0:
256,96,134122,1,2,0:0:0:0:
101,107,134289,1,8,0:1:0:0:
101,107,134372,1,8,0:2:0:0:
101,107,134456,1,8,0:1:0:0:
184,179,134622,1,8,0:2:0:0:
173,24,134789,1,8,0:1:0:0:
184,179,134956,6,2,L|381:205,1,191.999994140625,14|10,0:1|0:2,0:0:0:0:
64,320,135456,2,2,L|261:294,1,191.999994140625,2|0,0:0|0:0,0:0:0:0:
448,352,135956,2,0,L|352:339,1,95.9999970703126,10|0,0:2|0:0,0:0:0:0:
224,192,136289,5,10,0:1:0:0:
217,163,136456,1,0,0:0:0:0:
210,135,136622,1,8,0:2:0:0:
320,32,136789,5,2,0:0:0:0:
313,60,136955,1,8,0:1:0:0:
306,89,137122,1,0,0:0:0:0:
416,192,137290,5,2,0:0:0:0:
409,164,137372,1,0,0:0:0:0:
402,135,137456,1,0,0:0:0:0:
512,224,137622,6,2,P|500:315|400:331,1,191.999994140625,10|10,0:1|0:2,0:0:0:0:
205,363,138122,2,2,P|298:349|393:326,1,191.999994140625,2|0,0:0|0:0,0:0:0:0:
512,224,138622,2,0,P|465:216|417:205,1,95.9999970703126,10|0,0:2|0:0,0:0:0:0:
352,32,138956,5,10,0:1:0:0:
380,28,139122,1,0,0:0:0:0:
408,24,139289,1,8,0:2:0:0:
436,20,139456,1,0,0:0:0:0:
160,32,139622,5,10,0:1:0:0:
132,28,139788,1,0,0:0:0:0:
104,24,139955,1,8,0:2:0:0:
76,20,140122,1,0,0:0:0:0:
224,223,140289,6,2,P|284:154|255:67,1,191.999994140625,14|10,0:1|0:2,0:0:0:0:
5,174,140789,2,2,P|98:150|193:137,1,191.999994140625,2|0,0:0|0:0,0:0:0:0:
317,241,141289,2,0,P|270:234|224:223,1,95.9999970703126,10|0,0:2|0:0,0:0:0:0:
449,105,141622,5,10,0:1:0:0:
464,192,141789,1,0,0:0:0:0:
478,278,141956,1,8,0:2:0:0:
344,34,142122,5,2,0:0:0:0:
327,134,142289,1,8,0:1:0:0:
310,236,142456,1,0,0:0:0:0:
192,64,142622,5,10,0:2:0:0:
192,64,142706,1,0,0:0:0:0:
192,64,142789,1,0,0:0:0:0:
64,160,142956,6,0,L|9:151,3,47.9999985351563,10|0|0|0,3:1|3:0|3:0|3:0,0:0:0:0:
160,192,143289,2,0,L|215:183,3,47.9999985351563,8|0|0|0,3:2|3:0|3:0|3:0,0:0:0:0:
82,258,143622,2,0,L|74:305,1,47.9999985351563,8|0,3:1|3:1,0:0:0:0:
153,370,143789,2,0,L|160:322,1,47.9999985351563,8|0,3:1|3:0,0:0:0:0:
252,268,143956,2,0,L|244:315,1,47.9999985351563,8|0,3:2|3:0,0:0:0:0:
323,380,144123,2,0,L|330:332,1,47.9999985351563,8|0,3:1|3:0,0:0:0:0:
405,277,144289,1,8,3:1:0:0:
421,259,144372,1,0,3:0:0:0:
432,238,144455,1,0,3:0:0:0:
439,215,144539,1,0,3:0:0:0:
439,191,144622,1,8,3:2:0:0:
434,168,144705,1,0,3:0:0:0:
423,146,144789,1,0,3:0:0:0:
408,128,144872,1,0,3:0:0:0:
389,115,144956,2,0,P|360:112|322:113,1,47.9999985351563,8|8,0:1|0:1,0:0:0:0:
252,268,145122,2,0,P|280:270|318:269,1,47.9999985351563,8|8,0:1|0:1,0:0:0:0:
343,198,145289,1,8,0:1:0:0:
343,198,145622,5,14,0:1:0:0:
0,353,166289,5,8,3:2:0:0:
0,353,166372,1,8,3:2:0:0:
0,353,166456,1,8,3:2:0:0:
0,353,166539,1,8,3:2:0:0:
0,353,166622,1,8,3:2:0:0:
0,353,166706,1,8,3:2:0:0:
0,353,166789,1,8,3:2:0:0:
0,353,166872,1,8,3:2:0:0:
0,353,166956,6,0,P|6:313|20:275,1,80,14|2,0:1|0:0,0:0:0:0:
113,234,167289,1,10,0:1:0:0:
167,313,167456,2,0,P|204:326|244:333,1,80,2|8,0:0|0:1,0:0:0:0:
330,364,167789,1,2,0:0:0:0:
314,273,167956,1,10,0:1:0:0:
298,182,168122,1,2,0:0:0:0:
282,91,168289,2,0,P|364:109|440:112,1,160,10|10,0:1|0:1,0:0:0:0:
512,64,168789,1,2,0:0:0:0:
480,192,168956,2,0,L|496:281,1,80,10|0,0:1|0:0,0:0:0:0:
384,160,169289,2,0,L|400:249,1,80,10|0,0:1|0:0,0:0:0:0:
352,352,169622,5,10,0:1:0:0:
261,336,169789,1,2,0:0:0:0:
169,320,169955,1,10,0:1:0:0:
79,305,170122,2,0,L|60:227,1,80,2|8,0:0|0:1,0:0:0:0:
97,142,170456,1,2,0:0:0:0:
60,227,170622,1,10,0:1:0:0:
0,159,170789,1,2,0:0:0:0:
168,236,170956,1,10,3:1:0:0:
168,236,171039,1,0,3:1:0:0:
168,236,171122,1,0,3:1:0:0:
168,236,171206,1,0,3:1:0:0:
168,236,171289,2,0,P|206:247|245:254,1,80,10|0,0:1|0:0,0:0:0:0:
395,342,171622,1,10,3:1:0:0:
372,375,171706,1,0,3:1:0:0:
333,362,171790,1,0,0:0:0:0:
333,322,171873,1,0,3:1:0:0:
372,310,171956,1,8,0:1:0:0:
480,320,172122,1,8,0:1:0:0:
490,211,172289,6,0,P|474:133|449:57,1,160,10|10,0:1|0:1,0:0:0:0:
382,126,172789,2,0,P|394:163|402:203,1,80,2|8,0:0|0:1,0:0:0:0:
372,310,173122,1,2,0:0:0:0:
277,296,173289,1,10,0:1:0:0:
182,282,173456,1,2,0:0:0:0:
14,381,173622,2,0,P|82:344|87:268,1,160,10|10,0:1|0:1,0:0:0:0:
30,188,174122,1,2,0:0:0:0:
64,95,174289,2,0,P|101:83|141:78,1,80,10|0,0:1|0:0,0:0:0:0:
240,112,174622,1,10,0:1:0:0:
240,112,174789,1,2,0:0:0:0:
416,95,174956,6,0,P|428:58|445:21,1,80,10|0,0:1|0:0,0:0:0:0:
320,192,175289,2,0,P|307:229|290:266,1,80,10|0,0:1|0:0,0:0:0:0:
416,191,175622,2,0,P|453:204|490:221,1,80,10|0,0:1|0:0,0:0:0:0:
319,95,175955,2,0,P|282:83|245:66,1,80,10|10,0:1|0:1,0:0:0:0:
96,96,176289,1,10,3:1:0:0:
96,96,176372,1,0,3:1:0:0:
96,96,176456,1,0,3:1:0:0:
96,96,176539,1,0,3:1:0:0:
96,96,176622,1,8,3:1:0:0:
96,96,176706,1,0,3:1:0:0:
96,96,176789,1,0,3:1:0:0:
96,96,176872,1,0,3:1:0:0:
96,96,176956,2,0,L|46:103,1,40,10|0,3:1|3:0,0:0:0:0:
0,176,177122,2,0,L|39:181,1,40,10|0,3:1|3:0,0:0:0:0:
96,256,177289,2,0,L|56:261,1,40,10|0,3:1|3:0,0:0:0:0:
0,336,177456,2,0,L|39:341,1,40,10|0,3:1|3:0,0:0:0:0:
256,352,177622,6,0,P|202:318|119:380,1,167.999994873047,14|8,0:1|0:1,0:0:0:0:
274,380,178289,2,0,L|297:213,1,167.999994873047,10|8,0:2|0:1,0:0:0:0:
157,109,178956,2,0,L|180:276,1,167.999994873047,10|8,0:1|0:1,0:0:0:0:
341,133,179622,2,0,L|285:125,1,55.9999982910157,10|0,0:2|0:0,0:0:0:0:
43,175,179956,1,8,0:1:0:0:
43,175,180039,1,8,0:1:0:0:
43,175,180122,1,8,0:1:0:0:
43,175,180206,1,8,0:1:0:0:
42,174,180289,6,0,P|6:107|64:30,1,167.999994873047,10|8,0:1|0:1,0:0:0:0:
259,96,180956,2,0,L|91:108,1,167.999994873047,10|8,0:2|0:1,0:0:0:0:
0,264,181622,1,10,3:1:0:0:
3,295,181706,1,0,3:0:0:0:
34,300,181790,1,0,3:0:0:0:
49,272,181873,1,0,3:0:0:0:
27,250,181956,1,10,3:2:0:0:
0,119,182289,1,10,3:1:0:0:
3,88,182373,1,0,3:0:0:0:
34,83,182457,1,0,3:0:0:0:
49,111,182540,1,0,3:0:0:0:
27,133,182623,1,10,3:2:0:0:
0,264,182956,5,14,0:1:0:0:
173,341,183122,1,2,0:0:0:0:
64,352,183289,1,10,0:2:0:0:
109,252,183456,2,0,P|107:213|100:173,1,80,2|8,0:0|0:1,0:0:0:0:
160,96,183789,1,2,0:0:0:0:
261,151,183956,1,10,0:2:0:0:
351,79,184122,1,2,0:0:0:0:
451,134,184289,2,0,P|472:211|488:289,1,160,10|10,0:1|0:2,0:0:0:0:
416,384,184789,1,2,0:0:0:0:
320,320,184956,2,0,P|281:309|242:301,1,80,10|0,0:1|0:0,0:0:0:0:
144,352,185289,1,10,0:2:0:0:
144,352,185456,1,2,0:0:0:0:
64,229,185622,6,0,P|52:190|49:150,1,80,10|0,0:1|0:0,0:0:0:0:
162,3,185956,2,0,P|173:41|176:81,1,80,10|0,0:2|0:0,0:0:0:0:
0,67,186289,2,0,P|38:55|78:52,1,80,10|0,0:1|0:0,0:0:0:0:
147,179,186622,1,10,0:2:0:0:
147,179,186789,1,10,0:1:0:0:
305,120,186956,1,10,3:1:0:0:
305,120,187039,1,0,3:2:0:0:
305,120,187122,1,0,3:2:0:0:
305,120,187206,1,0,3:2:0:0:
305,120,187289,1,8,3:2:0:0:
305,120,187372,1,0,3:2:0:0:
305,120,187456,1,0,3:2:0:0:
305,120,187539,1,0,3:2:0:0:
305,120,187622,2,0,L|344:126,1,40,10|8,3:1|3:1,0:0:0:0:
448,192,187789,2,0,L|408:198,1,40,10|0,3:1|3:0,0:0:0:0:
305,264,187956,2,0,L|344:270,1,40,10|0,3:2|3:0,0:0:0:0:
448,336,188122,2,0,L|408:342,1,40,10|8,3:2|3:2,0:0:0:0:
288,384,188289,6,0,L|209:370,1,80,14|0,0:1|0:0,0:0:0:0:
32,256,188622,2,0,L|110:269,1,80,10|0,0:2|0:0,0:0:0:0:
305,264,188956,2,0,L|226:277,1,80,10|0,0:1|0:0,0:0:0:0:
49,376,189289,2,0,L|127:362,1,80,10|0,0:2|0:0,0:0:0:0:
186,191,189622,2,2,P|189:114|132:61,1,160,10|8,0:1|0:2,0:0:0:0:
42,45,190122,2,2,L|201:27,1,160,2|0,0:0|0:0,0:0:0:0:
320,0,190622,2,0,L|311:79,1,80,10|0,0:2|0:0,0:0:0:0:
352,224,190956,5,10,0:1:0:0:
352,224,191122,1,0,0:0:0:0:
464,106,191289,1,8,0:2:0:0:
464,106,191455,1,0,0:0:0:0:
510,261,191622,1,8,0:1:0:0:
510,261,191788,1,0,0:0:0:0:
396,379,191956,1,8,0:2:0:0:
396,379,192122,1,0,0:0:0:0:
351,223,192289,2,2,P|277:203|220:255,1,160,10|8,0:1|0:2,0:0:0:0:
192,352,192789,2,2,L|164:194,1,160,2|0,0:0|0:0,0:0:0:0:
64,288,193289,1,8,0:2:0:0:
64,288,193372,1,0,0:0:0:0:
64,288,193456,1,0,0:0:0:0:
0,64,193622,6,0,P|37:76|77:79,1,80,10|0,0:1|0:0,0:0:0:0:
240,32,193956,2,0,P|202:19|162:16,1,80,10|0,0:2|0:0,0:0:0:0:
208,160,194289,2,0,P|247:156|285:144,1,80,10|0,0:1|0:0,0:0:0:0:
426,42,194622,2,0,P|386:45|348:57,1,80,10|0,0:2|0:0,0:0:0:0:
398,292,194956,2,2,P|411:213|414:133,1,160,10|8,0:1|0:2,0:0:0:0:
305,384,195456,2,2,P|291:305|288:225,1,160,2|0,0:0|0:0,0:0:0:0:
208,161,195956,2,0,P|168:166|129:176,1,80,10|0,0:2|0:0,0:0:0:0:
21,378,196289,5,10,0:1:0:0:
76,281,196456,1,2,0:0:0:0:
0,302,196622,1,8,0:2:0:0:
98,357,196789,1,2,0:0:0:0:
0,302,196956,5,8,0:1:0:0:
55,204,197122,1,2,0:0:0:0:
153,259,197288,1,8,0:2:0:0:
98,357,197456,1,2,0:0:0:0:
55,204,197622,5,8,0:1:0:0:
98,357,197789,1,2,0:0:0:0:
251,314,197956,1,8,0:2:0:0:
208,161,198123,1,2,0:0:0:0:
153,259,198289,5,8,0:1:0:0:
153,259,198372,1,8,0:1:0:0:
153,259,198456,1,10,0:1:0:0:
110,106,198622,1,8,0:2:0:0:
263,63,198789,1,10,0:1:0:0:
306,216,198956,6,0,P|344:226|383:233,1,80,14|0,0:1|0:0,0:0:0:0:
153,259,199289,2,0,P|142:297|135:336,1,80,10|0,0:2|0:0,0:0:0:0:
110,105,199622,2,0,P|71:94|32:87,1,80,10|0,0:1|0:0,0:0:0:0:
263,62,199956,2,0,P|273:24|280:-14,1,80,10|0,0:2|0:0,0:0:0:0:
209,160,200289,2,2,P|287:147|367:142,1,160,10|8,0:1|0:2,0:0:0:0:
512,192,200789,2,2,P|459:193|421:286,1,160,2|0,0:0|0:0,0:0:0:0:
512,384,201289,2,0,P|515:334|510:303,1,80,10|0,0:2|0:0,0:0:0:0:
367,142,201622,5,10,0:1:0:0:
367,142,201789,1,0,0:0:0:0:
288,320,201956,1,8,0:2:0:0:
288,320,202123,1,0,0:0:0:0:
174,163,202289,1,8,0:1:0:0:
174,163,202456,1,0,0:0:0:0:
95,341,202622,1,8,0:2:0:0:
95,341,202789,1,0,0:0:0:0:
273,218,202956,2,2,P|288:139|292:59,1,160,10|8,0:1|0:2,0:0:0:0:
193,321,203456,2,2,P|177:242|174:163,1,160,2|0,0:0|0:0,0:0:0:0:
288,384,203956,1,8,0:2:0:0:
288,384,204039,1,0,0:0:0:0:
288,384,204122,1,0,0:0:0:0:
416,256,204289,6,0,P|455:248|495:247,1,80,10|0,0:1|0:0,0:0:0:0:
288,384,204622,2,0,P|248:382|208:375,1,80,10|0,0:2|0:0,0:0:0:0:
32,192,204956,2,0,P|36:231|47:270,1,80,10|0,0:1|0:0,0:0:0:0:
258,300,205289,2,0,P|253:260|242:221,1,80,10|0,0:2|0:0,0:0:0:0:
37,85,205622,2,2,P|115:102|194:114,1,160,10|8,0:1|0:2,0:0:0:0:
480,96,206122,2,2,P|401:78|322:66,1,160,2|0,0:0|0:0,0:0:0:0:
145,30,206622,2,0,P|184:21|223:15,1,80,10|0,0:2|0:0,0:0:0:0:
379,158,206956,5,10,0:1:0:0:
379,158,207122,1,0,0:0:0:0:
289,315,207289,1,8,0:2:0:0:
289,315,207455,1,0,0:0:0:0:
132,225,207622,1,8,0:1:0:0:
132,225,207788,1,0,0:0:0:0:
222,68,207956,1,8,0:2:0:0:
222,68,208122,1,0,0:0:0:0:
349,246,208289,5,10,0:1:0:0:
162,138,208456,1,0,0:0:0:0:
202,285,208622,1,8,0:2:0:0:
310,98,208789,1,0,0:0:0:0:
256,192,208956,5,8,0:1:0:0:
256,192,209039,1,8,0:1:0:0:
256,192,209122,1,8,0:1:0:0:
310,98,209289,1,8,0:2:0:0:
162,138,209456,2,0,L|123:128,1,40,8|8,0:2|0:2,0:0:0:0:
64,64,209622,1,12,0:1:0:0:
64,64,209789,1,8,0:1:0:0:
64,64,210456,1,8,0:1:0:0:
0,192,210622,1,2,0:2:0:0:
0,192,210706,1,0,0:2:0:0:
0,192,210789,1,0,0:2:0:0:
0,192,210872,1,0,0:2:0:0:
0,192,210956,6,2,P|23:278|113:285,1,191.999994140625,14|8,0:1|0:2,0:0:0:0:
224,192,211456,1,2,0:0:0:0:
360,241,211622,1,8,0:1:0:0:
250,334,211789,1,0,0:0:0:0:
114,285,211956,2,0,P|95:240|86:193,1,95.9999970703126,10|0,0:2|0:0,0:0:0:0:
251,100,212289,2,0,P|232:144|224:192,1,95.9999970703126,10|0,0:1|0:0,0:0:0:0:
371,252,212622,5,8,0:2:0:0:
371,252,212789,1,0,0:0:0:0:
371,252,212956,1,8,0:1:0:0:
371,252,213122,1,0,0:0:0:0:
256,288,213289,5,10,0:2:0:0:
460,334,213456,1,2,0:0:0:0:
398,135,213622,2,2,L|207:159,1,191.999994140625,10|8,0:1|0:2,0:0:0:0:
32,128,214122,1,2,0:0:0:0:
207,159,214289,1,8,0:1:0:0:
103,231,214456,1,0,0:0:0:0:
135,55,214622,2,0,P|181:44|229:41,1,95.9999970703126,10|0,0:2|0:0,0:0:0:0:
305,176,214956,2,0,P|257:173|210:161,1,95.9999970703126,10|0,0:1|0:0,0:0:0:0:
371,15,215289,2,0,L|381:110,1,95.9999970703126,8|0,0:2|0:0,0:0:0:0:
478,283,215622,2,0,L|467:187,1,95.9999970703126,8|0,0:1|0:0,0:0:0:0:
288,96,215956,5,10,0:2:0:0:
192,192,216122,1,2,0:0:0:0:
287,288,216289,2,2,P|222:352|131:335,1,191.999994140625,10|8,0:1|0:2,0:0:0:0:
0,384,216789,1,2,0:0:0:0:
22,247,216956,1,8,0:1:0:0:
130,334,217122,1,0,0:0:0:0:
22,246,217289,2,0,P|10:200|3:152,1,95.9999970703126,8|0,0:2|0:0,0:0:0:0:
130,0,217622,6,2,B|113:68|113:68|128:104|128:104|105:187,1,191.999994140625,10|8,0:1|0:2,0:0:0:0:
382,0,218122,2,2,B|399:68|399:68|384:104|384:104|407:187,1,191.999994140625,2|0,0:0|0:0,0:0:0:0:
256,64,218622,1,10,0:2:0:0:
256,64,218706,1,0,0:0:0:0:
256,64,218789,1,0,0:0:0:0:
341,259,218956,2,2,B|408:278|408:278|432:309|432:309|515:330,1,191.999994140625,10|8,0:1|0:2,0:0:0:0:
171,259,219456,2,2,B|103:278|103:278|79:309|79:309|-3:330,1,191.999994140625,2|0,0:0|0:0,0:0:0:0:
256,192,219956,1,10,0:2:0:0:
256,192,220039,1,0,0:0:0:0:
256,192,220122,1,0,0:0:0:0:
96,96,220289,6,0,P|97:143|103:191,1,95.9999970703126,10|0,0:1|0:0,0:0:0:0:
416,288,220622,2,0,P|414:240|408:192,1,95.9999970703126,10|0,0:2|0:0,0:0:0:0:
352,64,220956,1,10,0:1:0:0:
352,64,221122,1,8,0:1:0:0:
352,64,221289,1,10,0:2:0:0:
448,96,221456,1,10,0:1:0:0:
256,32,221622,6,2,L|65:55,1,191.999994140625,14|8,0:1|0:2,0:0:0:0:
7,208,222122,1,2,0:0:0:0:
65,54,222289,1,8,0:1:0:0:
219,113,222456,1,0,0:0:0:0:
159,266,222622,2,0,P|164:313|182:358,1,95.9999970703126,10|0,0:2|0:0,0:0:0:0:
303,183,222956,2,0,P|322:139|327:91,1,95.9999970703126,10|0,0:1|0:0,0:0:0:0:
416,320,223289,2,0,P|368:314|324:295,1,95.9999970703126,8|0,0:2|0:0,0:0:0:0:
101,203,223623,2,0,P|144:185|192:179,1,95.9999970703126,8|0,0:1|0:0,0:0:0:0:
390,233,223956,1,10,0:2:0:0:
303,183,224122,1,2,0:0:0:0:
224,320,224289,6,2,P|147:372|60:336,1,191.999994140625,10|8,0:1|0:2,0:0:0:0:
16,216,224789,1,2,0:0:0:0:
62,338,224956,1,8,0:1:0:0:
145,238,225122,1,0,0:0:0:0:
99,116,225289,2,0,L|3:104,1,95.9999970703126,10|0,0:2|0:0,0:0:0:0:
145,238,225622,2,0,L|240:226,1,95.9999970703126,10|0,0:1|0:0,0:0:0:0:
352,64,225956,2,0,L|340:159,1,95.9999970703126,8|0,0:2|0:0,0:0:0:0:
448,320,226289,2,0,L|436:224,1,95.9999970703126,8|0,0:1|0:0,0:0:0:0:
341,160,226622,1,10,0:2:0:0:
240,226,226789,1,2,0:0:0:0:
160,96,226956,6,2,P|148:191|128:285,1,191.999994140625,10|8,0:1|0:2,0:0:0:0:
32,384,227456,1,2,0:0:0:0:
128,285,227622,1,8,0:1:0:0:
224,384,227789,1,0,0:0:0:0:
128,285,227956,1,8,0:2:0:0:
32,384,228122,1,0,0:0:0:0:
223,301,228289,6,2,P|318:291|414:286,1,191.999994140625,10|8,0:1|0:2,0:0:0:0:
144,384,228789,2,2,P|180:297|147:209,1,191.999994140625,2|0,0:0|0:0,0:0:0:0:
0,128,229289,2,0,P|46:139|94:138,1,95.9999970703126,10|0,0:2|0:0,0:0:0:0:
255,51,229622,5,10,0:1:0:0:
255,51,229789,1,0,0:0:0:0:
342,299,229956,1,10,0:2:0:0:
342,299,230123,1,0,0:0:0:0:
512,100,230289,1,10,0:1:0:0:
512,100,230456,1,0,0:0:0:0:
369,149,230622,5,10,0:2:0:0:
369,149,230706,1,0,0:0:0:0:
369,149,230789,1,0,0:0:0:0:
485,249,230956,5,10,0:1:0:0:
485,249,231123,1,0,0:0:0:0:
227,200,231289,1,10,0:2:0:0:
227,200,231456,1,0,0:0:0:0:
397,1,231622,1,10,0:1:0:0:
369,149,231789,1,8,0:1:0:0:
457,89,231956,1,10,0:2:0:0:
315,67,232123,1,10,0:2:0:0:
315,67,232206,1,8,0:2:0:0:
314,67,232289,6,2,P|233:111|151:69,1,191.999994140625,14|10,0:1|0:2,0:0:0:0:
0,192,232789,2,2,P|92:166|187:155,1,191.999994140625,2|0,0:0|0:0,0:0:0:0:
288,224,233289,2,0,P|295:271|308:317,1,95.9999970703126,10|0,0:2|0:0,0:0:0:0:
480,192,233622,5,10,0:1:0:0:
485,163,233789,1,0,0:0:0:0:
491,134,233956,1,8,0:2:0:0:
352,64,234122,5,2,0:0:0:0:
358,93,234289,1,8,0:1:0:0:
363,122,234456,1,0,0:0:0:0:
224,192,234622,5,10,0:2:0:0:
230,163,234706,1,0,0:0:0:0:
235,134,234789,1,0,0:0:0:0:
95,63,234956,6,2,P|12:71|-11:173,1,191.999994140625,10|10,0:1|0:2,0:0:0:0:
96,326,235456,2,2,P|81:231|60:137,1,191.999994140625,2|2,0:0|0:0,0:0:0:0:
169,19,235956,2,0,P|158:65|151:113,1,95.9999970703126,10|0,0:2|0:0,0:0:0:0:
256,256,236289,5,10,0:1:0:0:
284,260,236456,1,0,0:0:0:0:
312,265,236622,1,8,0:2:0:0:
340,270,236789,1,0,0:0:0:0:
352,96,236956,5,10,0:1:0:0:
380,92,237123,1,0,0:0:0:0:
408,87,237289,1,8,0:2:0:0:
436,82,237456,1,0,0:0:0:0:
512,250,237622,6,2,P|457:175|368:190,1,191.999994140625,14|10,0:1|0:2,0:0:0:0:
291,383,238122,2,2,P|341:304|341:210,1,191.999994140625,2|2,0:0|0:0,0:0:0:0:
256,160,238622,2,0,P|210:173|162:180,1,95.9999970703126,10|0,0:2|0:0,0:0:0:0:
0,128,238956,5,10,0:1:0:0:
13,102,239122,1,0,0:0:0:0:
38,88,239289,1,8,0:2:0:0:
73,255,239456,5,2,0:0:0:0:
44,257,239622,1,8,0:1:0:0:
20,242,239789,1,0,0:0:0:0:
147,128,239956,5,10,0:2:0:0:
163,152,240039,1,0,0:0:0:0:
162,180,240122,1,0,0:0:0:0:
224,288,240289,6,0,L|319:299,1,95.9999970703126,10|0,0:1|0:0,0:0:0:0:
480,256,240622,1,8,0:2:0:0:
319,299,240789,1,0,0:0:0:0:
480,256,240956,2,0,L|491:160,1,95.9999970703126,10|0,0:1|0:0,0:0:0:0:
416,0,241289,1,8,0:2:0:0:
491,160,241456,1,0,0:0:0:0:
416,0,241622,2,0,L|225:22,1,191.999994140625,10|10,0:1|0:2,0:0:0:0:
128,128,242122,1,2,0:0:0:0:
229,123,242289,1,8,0:1:0:0:
229,123,242372,1,8,0:2:0:0:
229,123,242456,1,8,0:1:0:0:
26,132,242623,1,8,0:2:0:0:
123,26,242789,1,8,0:1:0:0:
132,228,242956,6,2,P|123:133|108:38,1,191.999994140625,14|10,0:1|0:2,0:0:0:0:
418,152,243456,2,2,P|323:141|229:123,1,191.999994140625,2|0,0:0|0:0,0:0:0:0:
294,55,243956,2,0,P|341:64|388:69,1,95.9999970703126,10|0,0:2|0:0,0:0:0:0:
512,224,244289,2,0,P|464:233|417:238,1,95.9999970703126,10|0,0:1|0:0,0:0:0:0:
391,275,244539,2,0,P|343:265|296:260,1,95.9999970703126,2|0,0:0|0:0,0:0:0:0:
262,287,244789,2,0,P|168:306|72:317,1,191.999994140625,2|0,0:0|0:0,0:0:0:0:
0,192,245289,2,0,P|46:201|94:207,1,95.9999970703126,10|0,0:2|0:0,0:0:0:0:
304,80,245622,6,2,P|215:60|162:133,1,191.999994140625,10|10,0:1|0:2,0:0:0:0:
400,48,246122,2,2,P|489:67|506:156,1,191.999994140625,2|0,0:0|0:0,0:0:0:0:
448,240,246622,2,0,P|401:250|353:256,1,95.9999970703126,10|0,0:2|0:0,0:0:0:0:
170,342,246956,5,10,0:1:0:0:
198,346,247122,1,0,0:0:0:0:
226,350,247289,1,8,0:2:0:0:
254,354,247456,1,0,0:0:0:0:
42,250,247622,5,10,0:1:0:0:
70,246,247788,1,0,0:0:0:0:
98,242,247955,1,8,0:2:0:0:
126,238,248122,1,0,0:0:0:0:
0,368,248289,6,2,L|30:170,1,191.999994140625,14|10,0:1|0:2,0:0:0:0:
0,37,248789,2,2,P|22:125|111:145,1,191.999994140625,2|0,0:0|0:0,0:0:0:0:
208,96,249289,2,0,P|254:84|302:79,1,95.9999970703126,10|0,0:2|0:0,0:0:0:0:
491,208,249622,5,10,0:1:0:0:
389,190,249789,1,0,0:0:0:0:
287,172,249956,1,8,0:2:0:0:
422,311,250122,5,2,0:0:0:0:
389,190,250289,1,8,0:1:0:0:
357,70,250456,1,0,0:0:0:0:
287,172,250622,5,10,0:2:0:0:
287,172,250706,1,0,0:0:0:0:
287,172,250789,1,0,0:0:0:0:
192,32,250956,6,0,L|144:28,3,47.9999985351563,10|0|0|0,3:1|3:0|3:0|3:0,0:0:0:0:
64,96,251289,2,0,L|60:143,3,47.9999985351563,8|0|0|0,3:2|3:0|3:0|3:0,0:0:0:0:
128,224,251622,1,8,0:1:0:0:
151,252,251705,1,0,0:0:0:0:
187,264,251788,1,0,0:0:0:0:
224,255,251872,1,0,0:0:0:0:
249,228,251956,1,8,0:2:0:0:
275,200,252039,1,8,0:2:0:0:
312,191,252123,1,8,0:2:0:0:
348,203,252206,1,8,0:2:0:0:
372,232,252289,5,10,0:1:0:0:
372,232,252789,1,10,0:1:0:0:
372,232,253289,1,8,0:0:0:0:
377,192,253372,1,8,0:0:0:0:
382,152,253455,1,8,0:0:0:0:
387,112,253539,1,8,0:0:0:0:
391,73,253622,6,0,P|312:65|234:48,1,160,14|8,0:1|0:2,0:0:0:0:
160,0,254122,1,0,0:0:0:0:
32,96,254289,1,10,0:1:0:0:
62,1,254456,1,0,0:0:0:0:
112,152,254622,1,8,0:2:0:0:
191,94,254789,1,0,0:0:0:0:
32,96,254956,2,0,P|18:154|10:213,1,120,10|0,0:1|2:0,0:0:0:0:
27,253,255289,2,0,P|66:258|105:267,1,80,8|0,0:2|0:0,0:0:0:0:
224,336,255622,1,10,0:1:0:0:
96,384,255789,1,0,0:0:0:0:
224,336,255956,1,8,0:2:0:0:
352,384,256122,1,0,0:0:0:0:
223,335,256289,6,0,P|211:298|206:258,1,80,10|0,0:1|0:0,0:0:0:0:
303,116,256622,2,0,P|298:155|285:193,1,80,8|0,0:2|0:0,0:0:0:0:
96,192,256956,1,10,0:1:0:0:
74,113,257122,1,0,0:0:0:0:
152,92,257289,1,8,0:2:0:0:
172,170,257456,1,0,0:0:0:0:
295,279,257622,2,0,P|332:291|441:246,1,160,10|8,0:1|0:2,0:0:0:0:
480,96,258122,1,0,0:0:0:0:
415,25,258289,2,0,L|309:12,1,80,10|0,0:1|0:0,0:0:0:0:
256,64,258622,1,8,0:2:0:0:
256,64,258706,1,0,0:2:0:0:
256,64,258789,1,0,0:2:0:0:
352,192,258956,6,0,P|363:250|369:310,1,120,10|0,0:1|2:0,0:0:0:0:
349,346,259289,2,0,P|309:350|270:358,1,80,8|0,0:2|0:0,0:0:0:0:
70,352,259622,1,10,0:1:0:0:
193,294,259789,1,0,0:0:0:0:
102,261,259956,1,8,0:2:0:0:
160,384,260123,1,0,0:0:0:0:
101,260,260289,2,0,P|90:202|85:142,1,120,10|0,0:1|2:0,0:0:0:0:
53,110,260622,2,0,P|92:107|132:99,1,80,8|0,0:2|0:0,0:0:0:0:
224,0,260956,1,10,0:1:0:0:
256,192,261122,1,0,0:0:0:0:
224,0,261289,1,8,0:2:0:0:
256,192,261456,1,0,0:0:0:0:
320,127,261622,6,0,P|396:118|451:173,2,160,10|8|10,0:1|0:2|0:1,0:0:0:0:
256,192,262456,1,0,0:0:0:0:
352,336,262622,2,0,P|364:297|368:258,1,80,8|0,0:2|0:0,0:0:0:0:
233,91,262956,2,0,L|154:77,1,80,10|0,0:1|0:0,0:0:0:0:
0,192,263289,2,0,L|78:178,1,80,8|0,0:2|0:0,0:0:0:0:
192,320,263622,1,8,0:1:0:0:
192,320,263706,1,8,0:2:0:0:
192,320,263789,1,8,0:1:0:0:
256,192,263956,1,8,0:2:0:0:
320,64,264122,1,8,0:2:0:0:
320,64,264206,1,8,0:2:0:0:
320,63,264289,6,0,P|410:44|480:104,1,191.999994140625,14|8,0:1|0:2,0:0:0:0:
464,224,264789,1,2,0:0:0:0:
352,160,264956,1,10,0:1:0:0:
352,160,265122,1,2,0:0:0:0:
288,320,265289,1,10,0:2:0:0:
288,320,265456,1,2,0:0:0:0:
128,256,265622,1,10,0:1:0:0:
187,331,265789,2,0,L|190:363,3,31.9999990234375,2|2|2|10,0:0|0:0|0:0|0:2,0:0:0:0:
128,256,266122,1,2,0:0:0:0:
11,345,266289,2,0,P|30:302|39:255,1,95.9999970703126,10|2,0:1|0:0,0:0:0:0:
0,69,266622,2,0,P|9:115|28:159,1,95.9999970703126,10|2,0:2|0:0,0:0:0:0:
192,192,266956,5,10,0:1:0:0:
192,192,267122,1,2,0:0:0:0:
320,32,267289,1,10,0:2:0:0:
320,32,267456,1,2,0:0:0:0:
512,96,267622,2,0,L|417:114,1,95.9999970703126,10|2,0:1|0:0,0:0:0:0:
144,80,267956,2,0,L|238:98,1,95.9999970703126,10|2,0:2|0:0,0:0:0:0:
399,224,268289,5,10,0:1:0:0:
363,329,268456,1,2,0:0:0:0:
278,274,268622,5,10,0:2:0:0:
242,168,268789,1,2,0:0:0:0:
156,224,268956,5,10,0:1:0:0:
121,329,269123,1,2,0:0:0:0:
35,384,269289,5,10,0:2:0:0:
0,279,269456,1,2,0:0:0:0:
156,224,269622,6,0,P|246:213|277:127,1,191.999994140625,10|10,0:1|0:2,0:0:0:0:
112,16,270122,1,2,0:0:0:0:
50,89,270289,2,0,P|95:108|143:105,1,95.9999970703126,10|2,0:1|0:0,0:0:0:0:
311,43,270622,2,0,P|263:41|219:60,1,95.9999970703126,10|2,0:2|0:0,0:0:0:0:
288,224,270956,1,10,0:1:0:0:
384,160,271122,2,0,L|394:111,3,31.9999990234375,2|2|2|10,0:0|0:0|0:0|0:2,0:0:0:0:
288,224,271456,1,2,0:0:0:0:
386,283,271622,2,0,P|381:330|361:374,1,95.9999970703126,10|2,0:1|0:0,0:0:0:0:
181,384,271956,2,0,P|185:336|205:292,1,95.9999970703126,10|2,0:2|0:0,0:0:0:0:
288,224,272289,5,10,0:1:0:0:
288,224,272456,1,2,0:0:0:0:
192,96,272622,1,10,0:2:0:0:
192,96,272789,1,2,0:0:0:0:
96,288,272956,1,10,0:1:0:0:
96,288,273122,1,2,0:0:0:0:
0,64,273289,1,10,0:2:0:0:
0,64,273456,1,2,0:0:0:0:
128,192,273622,5,10,0:1:0:0:
160,96,273789,2,0,L|154:52,3,31.9999990234375,2|2|2|10,0:0|0:0|0:0|0:2,0:0:0:0:
128,192,274122,1,2,0:0:0:0:
234,167,274289,1,2,0:2:0:0:
257,170,274372,1,0,0:2:0:0:
278,181,274455,1,0,0:2:0:0:
295,198,274538,1,0,0:2:0:0:
306,220,274622,1,0,0:2:0:0:
309,243,274705,1,0,0:2:0:0:
305,267,274788,1,0,0:2:0:0:
294,288,274872,1,0,0:2:0:0:
64,320,288289,5,6,3:2:0:0:
64,320,288456,2,0,P|16:241|65:164,1,191.999994140625,0|0,3:2|3:0,0:0:0:0:
159,150,289289,2,0,L|206:157,1,47.9999985351563,2|0,0:0|0:0,0:0:0:0:
325,292,289622,2,0,L|277:285,1,47.9999985351563,2|0,3:2|3:2,0:0:0:0:
261,254,289956,2,0,L|268:207,1,47.9999985351563,0|0,0:0|0:0,0:0:0:0:
299,190,290289,2,0,L|346:198,1,47.9999985351563,0|0,0:0|3:2,0:0:0:0:
363,228,290622,2,0,L|355:276,1,47.9999985351563,0|0,0:0|0:0,0:0:0:0:
512,352,290956,5,2,3:2:0:0:
512,352,291122,2,0,L|480:162,1,191.999994140625,0|0,3:2|3:2,0:0:0:0:
512,80,291956,2,0,L|464:72,1,47.9999985351563,2|0,0:0|0:0,0:0:0:0:
283,46,292289,2,0,P|291:68|292:95,1,47.9999985351563,2|0,3:2|3:2,0:0:0:0:
314,119,292622,2,0,P|336:110|363:110,1,47.9999985351563,0|0,0:0|0:0,0:0:0:0:
387,88,292956,2,0,P|378:65|378:39,1,47.9999985351563,0|0,0:0|3:2,0:0:0:0:
356,15,293289,2,0,P|333:23|307:23,1,47.9999985351563,0|0,0:0|0:0,0:0:0:0:
96,0,293622,5,2,3:2:0:0:
96,0,293789,2,0,P|151:72|109:153,1,191.999994140625,0|0,3:2|3:2,0:0:0:0:
59,237,294622,2,0,L|66:288,1,47.9999985351563,2|0,0:0|0:0,0:0:0:0:
273,359,294956,2,0,L|225:352,1,47.9999985351563,2|0,3:2|3:2,0:0:0:0:
157,320,295289,2,0,L|204:326,1,47.9999985351563,0|0,0:0|0:0,0:0:0:0:
352,192,295622,2,0,L|304:198,1,47.9999985351563,2|0,0:0|3:2,0:0:0:0:
236,231,295955,2,0,L|283:224,1,47.9999985351563,0|0,0:0|0:0,0:0:0:0:
459,312,296289,5,2,3:2:0:0:
474,283,296455,1,0,3:2:0:0:
481,251,296622,1,0,0:0:0:0:
480,219,296789,1,0,0:0:0:0:
470,188,296955,1,0,0:0:0:0:
453,160,297122,1,0,3:2:0:0:
429,138,297289,1,0,0:0:0:0:
400,123,297455,1,0,0:0:0:0:
369,117,297622,1,0,3:2:0:0:
336,118,297789,1,0,3:2:0:0:
305,128,297955,1,0,0:0:0:0:
278,146,298122,1,0,0:0:0:0:
257,170,298289,1,0,0:0:0:0:
242,200,298455,1,0,3:2:0:0:
236,231,298622,1,2,0:0:0:0:
0,99,298956,5,2,3:2:0:0:
0,99,299122,1,0,3:2:0:0:
16,202,299289,1,0,0:0:0:0:
16,202,299456,1,0,0:0:0:0:
93,51,299622,1,0,0:0:0:0:
93,51,299788,1,0,3:2:0:0:
120,220,299956,1,0,0:0:0:0:
120,220,300122,1,0,0:0:0:0:
168,126,300289,5,0,0:0:0:0:
32,288,300956,5,0,0:0:0:0:
32,288,301289,1,0,0:0:0:0:
32,288,301622,6,2,P|100:356|191:323,1,191.999994140625,14|8,0:1|0:2,0:0:0:0:
304,384,302122,1,2,0:0:0:0:
411,306,302289,1,8,0:1:0:0:
290,253,302456,1,0,0:0:0:0:
183,331,302622,2,0,P|135:326|89:312,1,95.9999970703126,10|0,0:2|0:0,0:0:0:0:
0,160,302956,2,0,P|47:164|93:178,1,95.9999970703126,10|0,0:1|0:0,0:0:0:0:
242,109,303289,5,8,0:2:0:0:
242,109,303456,1,0,0:0:0:0:
242,109,303622,1,8,0:1:0:0:
242,109,303789,1,0,0:0:0:0:
192,0,303956,5,10,0:2:0:0:
358,117,304123,1,2,0:0:0:0:
172,202,304289,2,2,P|142:288|205:354,1,191.999994140625,10|8,0:1|0:2,0:0:0:0:
384,304,304789,1,2,0:0:0:0:
205,354,304956,1,8,0:1:0:0:
269,239,305122,1,0,0:0:0:0:
499,368,305289,2,0,P|510:322|511:274,1,95.9999970703126,10|0,0:2|0:0,0:0:0:0:
257,145,305622,2,0,P|258:193|270:240,1,95.9999970703126,10|0,0:1|0:0,0:0:0:0:
512,128,305956,2,0,L|416:115,1,95.9999970703126,8|0,0:2|0:0,0:0:0:0:
160,32,306289,2,0,L|255:19,1,95.9999970703126,8|0,0:1|0:0,0:0:0:0:
337,130,306622,1,10,0:2:0:0:
416,32,306789,1,2,0:0:0:0:
480,208,306956,6,2,P|470:299|386:336,1,191.999994140625,10|8,0:1|0:2,0:0:0:0:
256,384,307456,1,2,0:0:0:0:
386,336,307622,1,8,0:1:0:0:
280,248,307789,1,0,0:0:0:0:
149,296,307956,2,0,P|102:290|55:280,1,95.9999970703126,8|0,0:1|0:0,0:0:0:0:
0,95,308289,6,2,P|89:111|107:200,1,191.999994140625,10|8,0:1|0:2,0:0:0:0:
384,32,308789,2,2,P|294:47|276:136,1,191.999994140625,2|0,0:0|0:0,0:0:0:0:
368,240,309289,1,10,0:2:0:0:
368,240,309372,1,0,0:0:0:0:
368,240,309456,1,0,0:0:0:0:
224,383,309622,2,2,P|279:313|236:234,1,191.999994140625,10|8,0:1|0:2,0:0:0:0:
8,336,310122,2,2,P|102:318|197:307,1,191.999994140625,2|0,0:0|0:0,0:0:0:0:
352,352,310622,1,10,0:2:0:0:
352,352,310706,1,0,0:0:0:0:
352,352,310789,1,0,0:0:0:0:
480,223,310956,6,0,P|489:177|492:129,1,95.9999970703126,10|0,0:1|0:0,0:0:0:0:
256,32,311289,2,0,P|246:78|243:126,1,95.9999970703126,10|0,0:2|0:0,0:0:0:0:
361,174,311622,1,10,0:1:0:0:
361,174,311789,1,8,0:1:0:0:
361,174,311956,1,10,0:2:0:0:
244,127,312122,1,10,0:1:0:0:
127,256,312289,6,2,P|38:243|17:155,1,191.999994140625,14|8,0:1|0:2,0:0:0:0:
96,32,312789,1,2,0:0:0:0:
17,154,312956,1,8,0:1:0:0:
163,162,313122,1,0,0:0:0:0:
242,39,313289,2,0,P|288:28|336:22,1,95.9999970703126,10|0,0:2|0:0,0:0:0:0:
512,128,313622,2,0,P|465:116|417:110,1,95.9999970703126,10|0,0:1|0:0,0:0:0:0:
256,256,313956,2,0,P|303:250|350:238,1,95.9999970703126,8|0,0:2|0:0,0:0:0:0:
163,162,314289,2,0,P|157:209|145:256,1,95.9999970703126,8|0,0:1|0:0,0:0:0:0:
64,352,314622,1,10,0:2:0:0:
193,366,314789,1,2,0:0:0:0:
323,380,314956,6,2,P|418:369|450:279,1,191.999994140625,10|8,0:1|0:2,0:0:0:0:
336,208,315456,1,2,0:0:0:0:
451,288,315622,1,8,0:1:0:0:
288,288,315789,1,0,0:0:0:0:
384,128,315956,2,0,L|366:33,1,95.9999970703126,10|0,0:2|0:0,0:0:0:0:
175,271,316289,2,0,L|193:366,1,95.9999970703126,10|0,0:1|0:0,0:0:0:0:
0,160,316622,2,0,L|94:177,1,95.9999970703126,8|0,0:2|0:0,0:0:0:0:
384,128,316956,2,0,L|289:110,1,95.9999970703126,8|0,0:1|0:0,0:0:0:0:
128,32,317289,1,10,0:2:0:0:
192,144,317456,1,2,0:0:0:0:
386,41,317622,6,2,P|467:102|444:197,1,191.999994140625,10|8,0:1|0:2,0:0:0:0:
342,299,318122,1,2,0:0:0:0:
320,219,318289,1,8,0:1:0:0:
477,260,318456,1,0,0:0:0:0:
420,318,318622,1,8,0:2:0:0:
377,161,318789,1,0,0:0:0:0:
240,368,318956,6,2,B|169:352|169:352|131:368|131:368|55:349,1,191.999994140625,10|8,0:1|0:2,0:0:0:0:
292,278,319456,2,2,B|363:262|363:262|401:278|401:278|477:260,1,191.999994140625,2|0,0:0|0:0,0:0:0:0:
512,128,319956,2,0,L|407:114,1,95.9999970703126,10|0,0:2|0:0,0:0:0:0:
256,0,320289,5,10,0:1:0:0:
256,0,320456,1,0,0:0:0:0:
336,176,320622,1,10,0:2:0:0:
336,176,320789,1,0,0:0:0:0:
161,256,320956,1,10,0:1:0:0:
161,256,321123,1,0,0:0:0:0:
81,80,321289,1,10,0:2:0:0:
81,80,321372,1,0,0:0:0:0:
81,80,321456,1,0,0:0:0:0:
209,128,321622,5,10,0:1:0:0:
209,128,321789,1,0,0:0:0:0:
34,208,321956,1,10,0:2:0:0:
34,208,322123,1,0,0:0:0:0:
114,384,322289,1,10,0:1:0:0:
161,256,322456,1,8,0:1:0:0:
19,352,322622,1,10,0:2:0:0:
262,294,322789,1,10,0:2:0:0:
262,294,322872,1,0,0:0:0:0:
262,294,322956,6,2,P|329:357|419:338,1,191.999994140625,14|10,0:1|0:2,0:0:0:0:
407,82,323456,2,2,P|375:172|354:266,1,191.999994140625,2|0,0:0|0:0,0:0:0:0:
512,362,323956,2,0,P|501:315|485:269,1,95.9999970703126,10|0,0:2|0:0,0:0:0:0:
320,128,324289,5,10,0:1:0:0:
282,121,324456,1,0,0:0:0:0:
244,114,324622,1,8,0:2:0:0:
173,265,324789,5,2,0:0:0:0:
211,258,324955,1,8,0:1:0:0:
249,251,325122,1,0,0:0:0:0:
106,88,325289,5,10,0:2:0:0:
113,126,325372,1,0,0:0:0:0:
120,164,325456,1,0,0:0:0:0:
0,336,325622,6,2,P|14:241|36:147,1,191.999994140625,10|10,0:1|0:2,0:0:0:0:
0,0,326122,2,2,P|17:86|108:86,1,191.999994140625,2|0,0:0|0:0,0:0:0:0:
224,31,326622,2,0,P|271:23|319:23,1,95.9999970703126,10|0,0:2|0:0,3:0:0:0:
480,128,326956,5,10,0:1:0:0:
485,165,327122,1,0,0:0:0:0:
490,202,327289,1,8,0:2:0:0:
495,239,327456,1,0,0:0:0:0:
320,384,327622,5,10,0:1:0:0:
325,347,327788,1,0,0:0:0:0:
330,310,327955,1,0,0:0:0:0:
335,273,328122,1,0,0:0:0:0:
159,320,328289,6,2,P|71:340|14:269,1,191.999994140625,14|10,0:1|0:2,0:0:0:0:
62,63,328789,2,2,P|85:156|101:250,1,191.999994140625,2|0,0:0|0:0,0:0:0:0:
192,352,329289,2,0,P|239:355|287:363,1,95.9999970703126,10|0,0:2|0:0,0:0:0:0:
448,288,329622,5,10,0:1:0:0:
454,250,329789,1,0,0:0:0:0:
460,212,329956,1,8,0:2:0:0:
285,182,330122,5,2,0:0:0:0:
314,206,330289,1,8,0:1:0:0:
344,230,330456,1,0,0:0:0:0:
458,93,330622,5,10,0:2:0:0:
423,106,330706,1,0,0:0:0:0:
387,120,330789,1,0,0:0:0:0:
160,32,330956,6,0,L|254:48,1,95.9999970703126,10|0,0:1|0:0,0:0:0:0:
387,120,331289,1,8,0:2:0:0:
254,48,331456,1,0,0:0:0:0:
387,120,331622,2,0,L|403:214,1,95.9999970703126,10|0,0:1|0:0,0:0:0:0:
288,384,331956,1,8,0:2:0:0:
403,214,332122,1,0,0:0:0:0:
288,384,332289,2,0,L|254:194,1,191.999994140625,10|10,0:1|0:2,0:0:0:0:
288,0,332789,1,2,0:0:0:0:
369,114,332956,1,8,0:1:0:0:
369,114,333039,1,8,0:2:0:0:
369,114,333122,1,8,0:1:0:0:
174,81,333289,1,8,0:2:0:0:
255,195,333456,1,8,0:1:0:0:
59,162,333622,6,2,P|11:241|44:327,1,191.999994140625,14|10,0:1|0:2,0:0:0:0:
300,290,334122,2,2,P|207:265|112:249,1,191.999994140625,2|0,0:0|0:0,0:0:0:0:
0,128,334622,2,0,P|47:120|93:107,1,95.9999970703126,10|0,0:2|0:0,0:0:0:0:
288,0,334956,5,10,0:1:0:0:
281,37,335122,1,0,0:0:0:0:
274,74,335289,1,8,0:2:0:0:
448,160,335456,5,2,0:0:0:0:
441,123,335622,1,8,0:1:0:0:
434,86,335789,1,0,0:0:0:0:
288,172,335956,5,10,0:2:0:0:
281,209,336039,1,0,0:0:0:0:
274,246,336122,1,0,0:0:0:0:
452,349,336289,6,2,P|374:303|299:355,1,191.999994140625,10|10,0:1|0:2,0:0:0:0:
0,320,336789,2,2,P|94:338|189:348,1,191.999994140625,2|0,0:0|0:0,0:0:0:0:
352,288,337289,2,0,P|361:241|368:193,1,95.9999970703126,10|0,0:2|0:0,0:0:0:0:
80,16,337622,5,10,0:1:0:0:
86,53,337789,1,0,0:0:0:0:
92,90,337956,1,8,0:2:0:0:
98,127,338122,1,0,0:0:0:0:
432,16,338289,5,10,0:1:0:0:
426,53,338456,1,0,0:0:0:0:
420,90,338623,1,8,0:2:0:0:
414,127,338789,1,0,0:0:0:0:
288,256,338956,6,2,P|373:225|434:292,1,191.999994140625,14|10,0:1|0:2,0:0:0:0:
160,352,339456,2,2,P|181:258|188:162,1,191.999994140625,2|0,0:0|0:0,0:0:0:0:
75,34,339956,2,0,P|83:81|98:127,1,95.9999970703126,10|0,0:2|0:0,0:0:0:0:
240,240,340289,5,10,0:1:0:0:
368,208,340456,1,0,0:0:0:0:
496,176,340622,1,8,0:2:0:0:
330,346,340789,5,2,0:0:0:0:
368,208,340956,1,8,0:1:0:0:
407,71,341122,1,0,0:0:0:0:
503,183,341289,5,10,0:2:0:0:
503,183,341372,1,0,0:0:0:0:
503,183,341456,1,0,0:0:0:0:
287,147,341622,6,0,L|239:153,3,47.9999985351563,10|0|0|0,0:1|0:0|0:0|0:0,0:0:0:0:
368,208,341956,2,0,L|415:214,3,47.9999985351563,8|0|0|0,0:1|0:0|0:0|0:0,0:0:0:0:
324,293,342289,1,8,0:1:0:0:
305,316,342372,1,0,0:0:0:0:
280,332,342455,1,0,0:0:0:0:
251,341,342538,1,0,0:0:0:0:
221,340,342622,1,8,0:1:0:0:
193,330,342705,1,0,0:0:0:0:
169,312,342788,1,0,0:0:0:0:
152,288,342872,1,0,0:0:0:0:
142,260,342956,2,0,L|153:195,3,47.9999985351563,8|0|0|0,0:1|0:0|0:0|0:0,0:0:0:0:
81,137,343289,2,0,L|70:71,3,47.9999985351563,8|0|0|0,0:1|0:0|0:0|0:0,0:0:0:0:
142,13,343622,1,8,0:1:0:0:
177,17,343705,1,0,0:0:0:0:
213,21,343788,1,0,0:0:0:0:
249,25,343871,1,0,0:0:0:0:
285,29,343955,1,8,0:1:0:0:
320,33,344038,1,0,0:0:0:0:
356,37,344121,1,0,0:0:0:0:
392,41,344205,1,0,0:0:0:0:
428,45,344289,6,0,L|476:231,1,191.999994140625,14|8,0:1|0:2,0:0:0:0:
426,382,344789,1,0,0:0:0:0:
506,323,344956,1,10,0:1:0:0:
346,323,345122,1,0,0:0:0:0:
377,230,345289,1,8,0:2:0:0:
476,231,345456,1,0,0:0:0:0:
345,323,345622,2,0,P|288:338|228:344,1,120,10|0,0:1|2:0,0:0:0:0:
205,376,345956,2,0,P|165:369|127:358,1,80,8|0,0:2|0:0,0:0:0:0:
0,224,346289,1,10,0:1:0:0:
32,384,346456,1,0,0:0:0:0:
0,224,346622,1,8,0:2:0:0:
32,384,346789,1,0,0:0:0:0:
118,277,346956,6,0,P|194:264|255:312,2,160,10|8|10,0:1|0:2|0:1,0:0:0:0:
118,277,347789,1,0,0:0:0:0:
0,224,347956,2,0,P|-12:186|-12:146,1,80,8|0,0:2|0:0,0:0:0:0:
88,19,348289,2,0,L|69:112,1,80,10|0,0:1|0:0,0:0:0:0:
128,192,348622,2,0,L|221:211,1,80,8|0,0:2|0:0,0:0:0:0:
309,168,348956,1,10,0:1:0:0:
223,99,349122,1,0,0:0:0:0:
298,271,349289,1,8,0:2:0:0:
298,271,349372,1,0,0:0:0:0:
298,271,349456,1,0,0:0:0:0:
470,195,349622,6,0,P|487:139|466:85,1,120,10|0,0:1|2:0,0:0:0:0:
461,44,349956,2,0,L|381:34,1,80,8|0,0:2|0:0,0:0:0:0:
240,69,350289,1,10,0:1:0:0:
298,0,350456,1,0,0:0:0:0:
376,126,350622,1,8,0:2:0:0:
382,34,350789,1,0,0:0:0:0:
288,149,350956,2,0,P|273:207|262:266,1,120,10|0,0:1|2:0,0:0:0:0:
242,299,351289,2,0,P|203:308|164:317,1,80,8|0,0:2|0:0,0:0:0:0:
17,384,351622,1,10,0:1:0:0:
86,288,351789,1,0,0:0:0:0:
79,171,351956,1,8,0:2:0:0:
0,84,352122,1,0,0:0:0:0:
60,17,352289,6,0,P|138:3|218:0,2,160,10|8|10,0:1|0:2|0:1,0:0:0:0:
0,84,353122,1,0,0:0:0:0:
79,171,353289,2,0,L|158:179,1,80,8|0,0:2|0:0,0:0:0:0:
323,121,353622,2,0,P|335:83|339:44,1,80,10|0,0:1|0:0,0:0:0:0:
188,262,353956,2,0,P|176:300|172:339,1,80,8|0,0:2|0:0,0:0:0:0:
256,192,354289,1,8,0:1:0:0:
256,192,354372,1,8,0:2:0:0:
256,192,354456,1,8,0:1:0:0:
373,290,354622,1,8,0:2:0:0:
512,224,354789,1,8,0:2:0:0:
460,384,354956,6,0,L|480:193,1,191.999994140625,14|8,0:1|0:2,0:0:0:0:
512,96,355456,1,0,0:0:0:0:
320,32,355622,1,10,0:1:0:0:
320,32,355789,1,0,0:0:0:0:
256,160,355956,1,8,0:2:0:0:
256,160,356122,1,0,0:0:0:0:
126,95,356289,2,0,P|69:90|27:130,1,120,10|0,0:1|2:0,0:0:0:0:
0,160,356622,2,0,L|13:238,1,80,8|0,0:2|0:0,0:0:0:0:
32,384,356956,1,10,0:1:0:0:
114,283,357123,1,0,0:0:0:0:
240,257,357290,1,8,0:2:0:0:
355,315,357456,1,0,0:0:0:0:
445,294,357622,6,0,L|465:120,2,160,10|8|10,0:1|0:2|0:1,0:0:0:0:
355,315,358456,1,0,0:0:0:0:
256,160,358622,2,0,L|176:150,1,80,8|0,0:2|0:0,0:0:0:0:
32,320,358956,2,0,L|111:310,1,80,10|0,0:1|0:0,0:0:0:0:
224,384,359289,2,0,L|303:374,1,80,8|0,0:2|0:0,0:0:0:0:
416,256,359622,1,10,0:1:0:0:
419,371,359789,1,0,0:0:0:0:
306,265,359956,1,8,0:2:0:0:
306,265,360039,1,0,0:0:0:0:
306,265,360122,1,0,0:0:0:0:
413,151,360289,6,0,P|439:99|424:42,1,120,10|0,0:1|2:0,0:0:0:0:
391,22,360622,2,0,L|311:15,1,80,8|0,0:2|0:0,0:0:0:0:
160,96,360956,1,10,0:1:0:0:
205,1,361122,1,0,0:0:0:0:
237,170,361289,1,8,0:2:0:0:
331,119,361456,1,0,0:0:0:0:
401,303,361622,2,0,L|277:280,1,120,10|0,0:1|2:0,0:0:0:0:
241,310,361956,2,0,L|162:295,1,80,8|0,0:2|0:0,0:0:0:0:
32,192,362289,1,10,0:1:0:0:
64,384,362456,1,0,0:0:0:0:
32,192,362622,1,8,0:2:0:0:
64,384,362789,1,0,0:0:0:0:
162,295,362956,6,0,P|182:221|131:152,1,160,10|8,0:1|0:2,0:0:0:0:
0,96,363456,1,0,0:0:0:0:
64,16,363622,2,0,P|103:9|143:5,1,80,10|0,0:1|0:0,0:0:0:0:
352,64,363956,2,0,P|313:57|273:53,1,80,8|0,0:2|0:0,0:0:0:0:
138,156,364289,2,0,P|120:234|109:313,2,160,10|8|8,0:1|0:2|0:2,0:0:0:0:
153,150,365039,1,8,0:2:0:0:
167,144,365122,1,8,0:2:0:0:
182,138,365206,1,8,0:2:0:0:
196,132,365289,1,8,0:2:0:0:
210,126,365372,1,8,0:2:0:0:
225,120,365456,1,8,0:2:0:0:
239,114,365539,1,8,0:2:0:0:
253,108,365622,6,0,L|444:135,1,160,14|10,0:1|0:2,0:0:0:0:
512,192,366122,1,0,0:0:0:0:
415,351,366289,2,0,P|404:313|403:273,1,80,10|0,0:1|0:0,0:0:0:0:
253,207,366622,1,10,0:2:0:0:
253,207,366706,1,0,0:0:0:0:
253,207,366789,1,0,0:0:0:0:
253,207,366872,1,0,0:0:0:0:
253,207,366956,2,0,P|175:225|95:232,1,160,10|10,0:1|0:2,0:0:0:0:
16,192,367456,1,0,0:0:0:0:
128,384,367622,2,0,P|137:345|140:305,1,80,10|0,0:1|0:0,0:0:0:0:
96,96,367956,1,10,0:2:0:0:
96,96,368039,1,0,0:0:0:0:
96,96,368122,1,0,0:0:0:0:
96,96,368206,1,0,0:0:0:0:
96,96,368289,6,0,P|172:73|252:64,1,160,10|10,0:1|0:2,0:0:0:0:
416,160,368789,1,0,0:0:0:0:
496,112,368956,2,0,P|505:73|504:33,1,80,10|0,0:1|0:0,0:0:0:0:
310,143,369289,1,10,0:2:0:0:
314,172,369372,1,0,0:0:0:0:
319,202,369455,1,0,0:0:0:0:
323,231,369538,1,0,0:0:0:0:
328,261,369622,2,0,L|406:278,1,80,10|0,0:1|0:0,0:0:0:0:
496,112,369956,2,0,L|417:129,1,80,10|0,0:2|0:0,0:0:0:0:
224,224,370289,1,10,0:1:0:0:
204,225,370372,1,0,0:0:0:0:
184,220,370455,1,0,0:0:0:0:
167,210,370538,1,0,0:0:0:0:
153,196,370622,1,10,0:2:0:0:
144,178,370705,1,0,0:0:0:0:
140,159,370788,1,0,0:0:0:0:
142,139,370872,1,0,0:0:0:0:
149,120,370956,6,0,L|131:281,1,160,10|10,0:1|0:2,0:0:0:0:
64,352,371456,1,0,0:0:0:0:
224,288,371622,2,0,L|303:279,1,80,10|0,0:1|0:0,0:0:0:0:
480,384,371956,1,10,0:2:0:0:
480,384,372039,1,0,0:0:0:0:
480,384,372122,1,0,0:0:0:0:
480,384,372206,1,0,0:0:0:0:
479,383,372289,2,0,P|466:304|463:224,1,160,10|10,0:1|0:2,0:0:0:0:
512,128,372789,1,0,0:0:0:0:
352,32,372956,1,10,0:1:0:0:
460,32,373122,1,0,0:0:0:0:
403,128,373289,1,10,0:2:0:0:
363,130,373372,1,0,0:0:0:0:
323,132,373455,1,0,0:0:0:0:
283,135,373538,1,0,0:0:0:0:
243,137,373622,6,0,P|229:100|221:60,1,80,10|0,0:1|0:0,0:0:0:0:
384,224,373956,2,0,P|376:263|362:300,1,80,10|0,0:2|0:0,0:0:0:0:
192,374,374289,1,10,0:1:0:0:
172,375,374372,1,0,0:0:0:0:
152,376,374455,1,0,0:0:0:0:
132,378,374538,1,0,0:0:0:0:
112,379,374622,1,10,0:2:0:0:
92,380,374705,1,0,0:0:0:0:
72,382,374788,1,0,0:0:0:0:
52,383,374872,1,0,0:0:0:0:
32,384,374956,2,0,L|47:305,1,80,10|0,0:1|0:0,0:0:0:0:
192,128,375289,2,0,L|176:206,1,80,2|0,0:2|0:0,0:0:0:0:
32,64,375622,1,10,0:1:0:0:
32,64,375706,1,8,0:2:0:0:
32,64,375789,1,8,0:1:0:0:
80,176,375956,1,10,0:1:0:0:
144,16,376122,1,8,0:2:0:0:
144,16,376206,1,8,0:2:0:0:
144,16,376289,6,0,P|224:65|316:47,1,191.999994140625,14|10,0:1|0:2,0:0:0:0:
416,0,376789,1,0,0:0:0:0:
512,160,376956,2,0,L|499:269,1,95.9999970703126,10|0,0:1|0:0,0:0:0:0:
263,316,377289,1,10,0:2:0:0:
287,281,377372,1,0,0:0:0:0:
327,265,377456,1,0,0:0:0:0:
369,272,377538,1,0,0:0:0:0:
400,299,377622,2,0,P|356:228|385:124,1,191.999994140625,10|10,0:1|0:2,0:0:0:0:
448,64,378122,1,0,0:0:0:0:
265,182,378289,2,0,L|170:170,1,95.9999970703126,10|0,0:1|0:0,0:0:0:0:
0,305,378622,1,10,0:2:0:0:
42,299,378705,1,0,0:0:0:0:
85,294,378788,1,0,0:0:0:0:
128,288,378871,1,0,0:0:0:0:
171,283,378956,6,0,L|313:305,1,143.999995605469,10|0,0:1|2:0,0:0:0:0:
336,343,379289,2,0,L|430:328,1,95.9999970703126,10|0,0:2|0:0,0:0:0:0:
512,128,379622,2,0,L|497:222,1,95.9999970703126,10|0,0:1|0:0,0:0:0:0:
336,225,379956,1,10,0:2:0:0:
330,186,380039,1,0,0:0:0:0:
326,147,380122,1,0,0:0:0:0:
320,108,380205,1,0,0:0:0:0:
316,70,380289,2,0,L|220:57,1,95.9999970703126,10|0,0:1|0:0,0:0:0:0:
96,160,380622,2,0,L|191:148,1,95.9999970703126,10|0,0:2|0:0,0:0:0:0:
330,186,380956,1,10,0:1:0:0:
348,198,381039,1,0,0:0:0:0:
363,218,381122,1,0,0:0:0:0:
371,240,381205,1,0,0:0:0:0:
373,264,381289,1,10,0:2:0:0:
368,287,381372,1,0,0:0:0:0:
357,307,381455,1,0,0:0:0:0:
340,325,381539,1,0,0:0:0:0:
319,336,381622,6,0,L|127:317,1,191.999994140625,10|10,0:1|0:2,0:0:0:0:
32,352,382122,1,0,0:0:0:0:
128,224,382289,2,0,P|143:178|146:130,1,95.9999970703126,10|0,0:1|0:0,0:0:0:0:
0,34,382622,1,10,0:2:0:0:
33,60,382705,1,0,0:0:0:0:
75,69,382788,1,0,0:0:0:0:
116,59,382871,1,0,0:0:0:0:
149,30,382956,2,0,P|195:17|242:15,1,95.9999970703126,10|0,0:1|0:0,0:0:0:0:
384,192,383289,2,0,P|336:185|291:168,1,95.9999970703126,10|0,0:2|0:0,0:0:0:0:
489,32,383622,1,10,0:1:0:0:
493,65,383705,1,0,0:0:0:0:
497,98,383788,1,0,0:0:0:0:
502,131,383871,1,0,0:0:0:0:
506,165,383956,2,0,L|490:259,1,95.9999970703126,10|0,0:2|0:0,0:0:0:0:
347,324,384289,5,10,0:1:0:0:
339,323,384372,1,0,0:0:0:0:
331,322,384456,1,0,0:0:0:0:
323,321,384539,1,0,0:0:0:0:
315,320,384622,1,10,0:0:0:0:
307,319,384706,1,0,0:0:0:0:
299,318,384789,1,0,0:0:0:0:
291,317,384872,1,0,0:0:0:0:
283,316,384956,2,0,L|235:323,7,40,10|0|0|0|10|0|0|0,0:1|0:0|0:0|0:0|0:1|0:0|0:0|0:0,0:0:0:0:
188,378,385622,2,0,L|140:370,3,40,10|0|0|0,0:1|0:0|0:0|0:0,0:0:0:0:
93,315,385956,2,0,L|45:322,3,40,10|0|0|0,0:1|0:0|0:0|0:0,0:0:0:0:
141,251,386289,1,10,0:1:0:0:
148,233,386372,1,0,0:2:0:0:
152,216,386455,1,0,0:2:0:0:
153,198,386538,1,0,0:2:0:0:
150,180,386622,1,10,0:1:0:0:
144,163,386705,1,8,0:2:0:0:
135,148,386788,1,8,0:2:0:0:
122,134,386872,1,8,0:2:0:0:
108,124,386955,1,6,0:1:0:0:
