osu file format v14

[General]
AudioFilename: audio.mp3
AudioLeadIn: 0
PreviewTime: 102581
Countdown: 0
SampleSet: Soft
StackLeniency: 0.6
Mode: 0
LetterboxInBreaks: 0
WidescreenStoryboard: 0

[Editor]
DistanceSpacing: 0.2
BeatDivisor: 4
GridSize: 32
TimelineZoom: 2.899999

[Metadata]
Title:Valkyrja
TitleUnicode:Valkyrja
Artist:Yousei Teikoku
ArtistUnicode:妖精帝國
Creator:Mordred
Version:Hard
Source:舞-乙HiME 乙女舞闘史!!
Tags:gothic lolita propaganda mai kinoto hime otome butou-shi butoushi opening rock das feenreich japanese 日本語
BeatmapID:2565653
BeatmapSetID:1225418

[Difficulty]
HPDrainRate:5
CircleSize:3.7
OverallDifficulty:7
ApproachRate:8
SliderMultiplier:1.4
SliderTickRate:1

[Events]
//Background and Video events
0,0,"80977951.jpg",0,0
//Break Periods
2,145822,166206
2,277622,287539
//Storyboard Layer 0 (Background)
//Storyboard Layer 1 (Fail)
//Storyboard Layer 2 (Pass)
//Storyboard Layer 3 (Foreground)
//Storyboard Layer 4 (Overlay)
//Storyboard Sound Samples

[TimingPoints]
5623,333.333333333333,4,2,1,60,1,0
16289,-100,4,2,1,60,0,0
26956,-100,4,2,1,60,0,0
37622,-100,4,1,1,70,0,0
58956,-100,4,2,1,60,0,0
80289,-100,4,1,2,70,0,0
88456,-100,4,1,1,70,0,0
90956,-100,4,1,2,70,0,0
102956,-83.3333333333333,4,1,2,80,0,1
145622,-100,4,1,1,70,0,0
166956,-100,4,2,1,60,0,0
177622,-125,4,2,1,60,0,0
182956,-100,4,2,1,60,0,0
188289,-100,4,1,2,70,0,0
196456,-100,4,1,1,70,0,0
198956,-100,4,1,2,70,0,0
210956,-83.3333333333333,4,1,2,80,0,1
252289,-100,4,2,1,70,0,0
253622,-100,4,1,1,70,0,0
264289,-83.3333333333333,4,1,1,80,0,1
274956,-100,4,2,1,70,0,0
288289,-166.666666666667,4,2,1,50,0,0
297622,-166.666666666667,4,2,1,60,0,0
298956,-166.666666666667,4,2,1,70,0,0
300289,-166.666666666667,4,2,1,50,0,0
301622,-83.3333333333333,4,1,2,70,0,1
341622,-83.3333333333333,4,1,1,60,0,1
342289,-83.3333333333333,4,1,1,65,0,1
342956,-83.3333333333333,4,1,1,70,0,1
343289,-83.3333333333333,4,1,1,75,0,1
343622,-83.3333333333333,4,1,1,80,0,1
343956,-83.3333333333333,4,1,1,85,0,1
344289,-83.3333333333333,4,1,1,70,0,0
344956,-100,4,1,1,70,0,0
354956,-83.3333333333333,4,1,1,70,0,0
355289,-100,4,1,1,70,0,0
365622,-90.9090909090909,4,1,1,70,0,0
376289,-83.3333333333333,4,1,1,70,0,0
384289,-83.3333333333333,4,1,1,50,0,0
385622,-83.3333333333333,4,1,1,60,0,0
386289,-83.3333333333333,4,1,1,70,0,0
386622,-83.3333333333333,4,1,1,80,0,0
386956,-83.3333333333333,4,1,1,90,0,0

[Colours]
Combo1 : 250,180,240
Combo2 : 110,190,225
Combo3 : 255,230,130
Combo4 : 150,230,140

[HitObjects]
256,352,16289,5,14,0:1:0:0:
0,320,16956,1,8,0:1:0:0:
256,256,17622,1,8,0:1:0:0:
0,224,18289,1,8,0:1:0:0:
256,160,18956,1,8,0:1:0:0:
0,128,19622,1,8,0:1:0:0:
256,64,20289,1,8,0:1:0:0:
0,32,20956,1,8,0:1:0:0:
256,352,21622,5,14,0:1:0:0:
512,320,22289,1,8,0:1:0:0:
256,256,22956,1,8,0:1:0:0:
512,224,23622,1,8,0:1:0:0:
256,160,24289,1,8,0:1:0:0:
512,128,24956,1,8,0:1:0:0:
366,121,25289,2,0,P|349:90|347:55,1,70,8|8,0:1|0:1,0:0:0:0:
266,13,25622,2,0,P|225:31|181:25,1,70,8|8,0:1|0:1,0:0:0:0:
158,112,25956,2,0,P|176:152|170:196,1,70,8|8,0:1|0:1,0:0:0:0:
135,265,26289,1,8,0:1:0:0:
135,265,26372,1,8,0:1:0:0:
135,265,26455,1,8,0:1:0:0:
135,265,26539,1,8,0:1:0:0:
135,265,26622,2,0,L|100:269,3,35,8|8|8|8,0:1|0:1|0:1|0:1,0:0:0:0:
87,303,26956,6,0,L|42:295,7,35,6|0|0|0|8|0|0|0,3:1|3:0|3:0|3:0|3:1|3:0|3:0|3:0,0:0:0:0:
74,341,27622,2,0,L|29:333,7,35,2|0|0|0|8|0|0|0,3:2|3:0|3:0|3:0|3:1|3:0|3:0|3:0,0:0:0:0:
114,360,28289,2,0,P|148:365|183:364,1,70,10|0,0:1|0:0,0:0:0:0:
244,296,28622,2,0,P|248:261|247:226,1,70,8|0,0:1|0:0,0:0:0:0:
166,182,28956,2,0,P|159:147|160:112,1,70,10|0,0:1|0:0,0:0:0:0:
208,35,29289,2,0,P|242:29|277:30,1,70,8|0,0:1|0:0,0:0:0:0:
354,79,29622,2,0,L|365:144,7,35,10|0|0|0|8|0|0|0,3:1|3:1|3:1|3:1|3:1|3:1|0:0|0:0,0:0:0:0:
347,153,30289,2,0,L|341:187,7,35,10|0|0|0|8|0|0|0,3:1|3:1|3:1|3:1|3:1|3:1|0:0|0:0,0:0:0:0:
386,151,30956,2,0,P|420:145|455:146,1,70,10|0,0:1|0:0,0:0:0:0:
509,220,31289,2,0,P|514:264|508:308,1,70,8|0,0:1|0:0,0:0:0:0:
447,354,31622,2,0,P|412:358|377:357,1,70,10|0,0:1|0:0,0:0:0:0:
300,307,31956,1,8,0:1:0:0:
330,221,32122,1,8,0:1:0:0:
263,158,32289,6,0,L|218:153,7,35,14|0|0|0|8|0|0|0,3:1|3:1|3:1|3:1|3:1|3:1|3:1|3:1,0:0:0:0:
196,197,32956,2,0,L|151:202,7,35,10|0|0|0|8|0|0|0,3:1|3:1|3:1|3:1|3:1|3:1|3:1|3:1,0:0:0:0:
183,157,33622,2,0,L|162:69,1,70,10|0,0:1|0:0,0:0:0:0:
72,72,33956,2,0,L|92:159,1,70,8|0,0:1|0:0,0:0:0:0:
32,208,34289,2,0,L|52:295,1,70,10|0,0:1|0:0,0:0:0:0:
101,350,34622,2,0,L|188:329,1,70,8|0,0:1|0:0,0:0:0:0:
261,330,34956,2,0,L|250:286,7,35,10|0|0|0|8|0|0|0,3:1|3:3|3:3|3:3|3:1|3:3|3:3|0:0,0:0:0:0:
267,257,35622,2,0,L|278:213,7,35,10|0|0|0|8|0|0|0,3:1|3:3|3:3|3:3|3:1|3:3|3:3|0:0,0:0:0:0:
238,199,36289,1,10,0:1:0:0:
238,199,36372,1,8,0:1:0:0:
238,199,36456,1,8,0:1:0:0:
131,237,36622,2,0,P|86:234|44:217,1,70,0|8,3:0|0:1,0:0:0:0:
54,210,36872,1,8,0:1:0:0:
45,194,36956,1,0,3:0:0:0:
106,39,37289,1,0,3:2:0:0:
106,39,37372,1,8,3:2:0:0:
106,39,37456,1,8,3:2:0:0:
106,39,37539,1,8,3:2:0:0:
106,39,37622,6,0,P|171:80|226:57,1,140,14|8,0:1|0:2,0:0:0:0:
316,8,38122,1,0,0:0:0:0:
416,38,38289,2,0,P|438:66|454:97,1,70,10|0,0:1|0:0,0:0:0:0:
337,182,38622,2,0,L|350:114,1,70,8|0,0:2|0:0,0:0:0:0:
435,175,38956,2,0,L|410:307,1,105,10|0,0:1|0:0,0:0:0:0:
426,329,39289,2,0,L|337:345,1,70,8|0,0:2|0:0,0:0:0:0:
261,310,39622,1,10,0:1:0:0:
261,310,39789,1,0,0:0:0:0:
170,360,39956,1,8,0:2:0:0:
170,360,40122,1,0,0:0:0:0:
72,321,40289,6,0,L|47:183,2,140,10|8|10,0:1|0:2|0:1,0:0:0:0:
170,360,41122,1,0,0:0:0:0:
261,310,41289,2,0,P|294:297|329:294,1,70,8|0,0:2|0:0,0:0:0:0:
442,384,41622,2,0,P|430:351|427:316,1,70,10|0,0:1|0:0,0:0:0:0:
488,239,41956,2,0,P|499:205|502:171,1,70,8|0,0:2|0:0,0:0:0:0:
468,76,42289,1,10,0:1:0:0:
468,76,42456,1,0,0:1:0:0:
376,118,42622,1,8,0:2:0:0:
376,118,42706,1,0,0:1:0:0:
376,118,42789,1,0,0:1:0:0:
303,41,42956,6,0,P|235:24|170:46,1,140,10|8,0:1|0:2,0:0:0:0:
65,37,43456,1,0,0:0:0:0:
13,127,43622,2,0,P|2:161|-1:196,1,70,10|0,0:1|0:0,0:0:0:0:
84,257,43956,2,0,P|96:214|95:169,1,70,8|0,0:2|0:0,0:0:0:0:
178,122,44289,2,0,L|281:105,1,105,10|0,0:1|2:0,0:0:0:0:
321,139,44622,2,0,L|390:149,1,70,8|0,0:2|0:0,0:0:0:0:
477,217,44956,1,10,0:1:0:0:
477,217,45122,1,0,0:0:0:0:
403,291,45289,1,8,0:2:0:0:
403,291,45456,1,0,0:0:0:0:
500,328,45622,6,0,P|455:379|386:382,2,140,10|8|10,0:1|0:2|0:1,0:0:0:0:
403,291,46456,1,0,0:0:0:0:
477,217,46622,2,0,L|485:147,1,70,8|0,0:2|0:0,0:0:0:0:
511,45,46956,2,0,P|459:56|407:61,1,105,10|0,0:1|2:0,0:0:0:0:
360,38,47289,2,0,L|352:108,1,70,8|0,0:2|0:0,0:0:0:0:
275,179,47622,1,8,0:1:0:0:
275,179,47706,2,0,L|283:249,1,70,8|8,0:1|0:1,0:0:0:0:
321,284,47956,1,8,0:2:0:0:
274,380,48122,1,8,0:2:0:0:
274,380,48206,1,8,0:2:0:0:
274,380,48289,6,0,L|134:365,1,140,14|8,0:1|0:2,0:0:0:0:
30,378,48789,1,0,0:0:0:0:
4,275,48956,2,0,P|-3:240|-1:205,1,70,10|0,0:1|0:0,0:0:0:0:
74,132,49289,2,0,P|108:134|143:127,1,70,8|0,0:2|0:0,0:0:0:0:
221,196,49622,2,0,P|235:246|244:298,1,105,10|0,0:1|2:0,0:0:0:0:
278,338,49956,2,0,P|311:346|346:350,1,70,8|0,0:2|0:0,0:0:0:0:
451,384,50289,1,10,0:1:0:0:
451,384,50456,1,0,0:0:0:0:
506,297,50622,1,8,0:2:0:0:
506,297,50789,1,0,0:0:0:0:
433,220,50956,6,0,P|417:153|455:96,2,140,10|8|10,0:1|0:2|0:1,0:0:0:0:
506,297,51789,1,0,0:0:0:0:
451,384,51956,2,0,L|360:374,1,70,8|0,0:2|0:0,0:0:0:0:
276,384,52289,2,0,P|284:350|289:315,1,70,10|0,0:1|0:0,0:0:0:0:
233,225,52622,2,0,P|238:190|246:156,1,70,8|0,0:2|0:0,0:0:0:0:
310,46,52956,2,0,P|275:54|241:58,1,70,10|0,0:1|0:0,0:0:0:0:
145,15,53289,2,0,P|110:20|76:28,1,70,8|0,0:2|0:0,0:0:0:0:
15,113,53622,6,0,L|-1:252,1,140,10|8,0:1|0:2,0:0:0:0:
33,351,54122,1,0,0:0:0:0:
117,288,54289,2,0,L|186:276,1,70,10|0,0:1|0:0,0:0:0:0:
319,369,54622,2,0,L|251:358,1,70,8|0,0:2|0:0,0:0:0:0:
288,259,54956,2,0,L|391:242,1,105,10|0,0:1|2:0,0:0:0:0:
438,264,55289,2,0,L|449:194,1,70,8|0,0:2|0:0,0:0:0:0:
508,109,55622,1,10,0:1:0:0:
508,109,55789,1,0,0:0:0:0:
460,20,55956,1,8,0:2:0:0:
460,20,56122,1,0,0:0:0:0:
355,6,56289,6,0,P|303:14|252:27,1,105,10|0,0:1|2:0,0:0:0:0:
221,65,56622,2,0,P|213:99|207:133,1,70,8|0,0:2|0:0,0:0:0:0:
160,228,56956,2,0,P|108:219|57:206,1,105,10|0,0:1|2:0,0:0:0:0:
26,169,57289,2,0,P|18:134|12:100,1,70,8|0,0:2|0:0,0:0:0:0:
80,20,57622,2,0,L|148:32,1,70,10|0,0:1|0:0,0:0:0:0:
224,106,57956,2,0,L|292:118,1,70,8|0,0:2|0:0,0:0:0:0:
388,68,58289,1,8,0:0:0:0:
388,68,58372,1,8,0:0:0:0:
388,68,58456,1,8,0:0:0:0:
483,110,58622,1,8,0:0:0:0:
466,219,58789,1,8,0:0:0:0:
466,219,58872,1,8,0:0:0:0:
466,218,58956,6,0,P|459:253|456:288,2,70,14|2|10,0:1|0:0|0:1,0:0:0:0:
367,240,59456,2,0,P|305:253|232:277,1,140,2|2,0:0|0:0,0:0:0:0:
183,353,59956,2,0,P|139:358|98:358,1,70,10|2,0:1|0:0,0:0:0:0:
34,311,60289,2,0,P|23:259|19:207,1,105,10|0,0:1|0:0,0:0:0:0:
41,167,60622,2,0,P|52:133|61:99,1,70,10|2,0:1|0:0,0:0:0:0:
128,37,60956,1,10,0:1:0:0:
128,37,61122,1,0,0:0:0:0:
207,80,61289,1,8,0:1:0:0:
207,80,61456,1,0,0:0:0:0:
285,36,61622,6,0,P|320:28|354:23,2,70,10|2|10,0:1|0:0|0:1,0:0:0:0:
207,80,62122,2,0,P|193:148|183:217,1,140,2|2,0:0|0:0,0:0:0:0:
123,287,62622,2,0,P|156:298|188:312,1,70,10|2,0:1|0:0,0:0:0:0:
283,369,62956,1,10,3:1:0:0:
283,369,63039,1,0,3:0:0:0:
283,369,63122,1,0,3:0:0:0:
283,369,63206,1,0,3:0:0:0:
283,369,63289,2,0,P|317:366|436:337,1,140,10|10,0:1|3:1,0:0:0:0:
429,327,63706,1,0,3:1:0:0:
438,312,63789,1,0,3:1:0:0:
447,297,63872,1,0,3:1:0:0:
456,282,63956,2,0,L|470:207,1,70,8|8,0:1|0:1,0:0:0:0:
419,118,64289,6,0,P|452:107|486:102,2,70,10|2|10,0:1|0:0|0:1,0:0:0:0:
345,171,64789,2,0,L|319:308,1,140,2|2,0:0|0:0,0:0:0:0:
256,374,65289,2,0,P|221:379|186:380,1,70,10|0,0:1|0:0,0:0:0:0:
95,384,65622,2,0,P|76:316|55:249,1,140,10|10,0:1|0:1,0:0:0:0:
2,175,66122,1,2,0:0:0:0:
2,175,66289,2,0,P|9:139|18:107,1,70,10|0,0:1|0:0,0:0:0:0:
80,40,66622,1,10,0:1:0:0:
80,40,66789,1,2,0:0:0:0:
147,98,66956,6,0,P|181:107|216:110,1,70,10|0,0:1|0:0,0:0:0:0:
314,13,67289,2,0,P|306:47|303:82,1,70,10|0,0:1|0:0,0:0:0:0:
399,179,67622,2,0,P|365:170|330:167,1,70,10|0,0:1|0:0,0:0:0:0:
232,264,67956,2,0,P|240:230|243:195,1,70,10|10,0:1|0:1,0:0:0:0:
215,109,68289,2,0,L|180:104,3,35,10|0|0|0,3:1|3:1|3:1|3:1,0:0:0:0:
135,116,68622,2,0,L|100:111,3,35,8|0|0|0,3:1|3:1|3:1|3:1,0:0:0:0:
55,123,68956,1,10,3:1:0:0:
55,123,69122,1,10,3:1:0:0:
78,215,69289,1,10,3:1:0:0:
78,215,69456,1,10,3:1:0:0:
17,281,69622,6,0,P|10:316|6:351,2,70,14|2|10,0:1|0:0|0:1,0:0:0:0:
77,215,70122,2,0,P|112:209|147:208,1,70,2|8,0:0|0:1,0:0:0:0:
219,265,70456,1,2,0:0:0:0:
297,217,70622,1,10,0:1:0:0:
297,217,70789,1,2,0:0:0:0:
247,140,70956,2,0,P|241:105|240:70,1,70,10|0,0:1|0:0,0:0:0:0:
309,10,71289,2,0,P|343:4|378:3,1,70,10|2,0:1|0:0,0:0:0:0:
457,49,71622,1,10,0:1:0:0:
457,49,71789,1,0,0:0:0:0:
432,136,71956,1,10,0:1:0:0:
432,136,72122,1,0,0:0:0:0:
491,205,72289,5,10,0:1:0:0:
490,204,72456,2,0,P|495:239|497:274,1,70,2|8,0:0|0:1,0:0:0:0:
454,355,72789,2,0,P|419:359|384:361,1,70,2|8,0:0|0:1,0:0:0:0:
296,336,73122,1,2,0:0:0:0:
326,250,73289,2,0,P|323:215|319:180,1,70,10|2,0:1|0:0,0:0:0:0:
256,124,73622,1,10,3:1:0:0:
256,124,73706,1,0,3:1:0:0:
256,124,73789,1,0,3:1:0:0:
256,124,73872,1,0,3:1:0:0:
256,124,73956,2,0,P|186:115|116:109,1,140,10|10,0:1|3:1,0:0:0:0:
102,119,74372,1,0,3:0:0:0:
87,129,74456,1,0,3:0:0:0:
72,139,74539,1,0,3:0:0:0:
57,148,74622,2,0,P|47:182|41:217,1,70,8|8,0:1|0:1,0:0:0:0:
77,308,74956,6,0,P|42:302|7:298,2,70,10|2|10,0:1|0:0|0:1,0:0:0:0:
147,364,75456,2,0,P|182:359|216:350,1,70,2|8,0:0|0:1,0:0:0:0:
247,265,75789,1,2,0:0:0:0:
173,220,75956,1,10,0:1:0:0:
173,220,76122,1,2,0:0:0:0:
183,129,76289,2,0,P|246:101|314:112,1,140,10|10,0:1|0:1,0:0:0:0:
372,182,76789,1,2,0:0:0:0:
459,157,76956,2,0,P|469:123|476:89,1,70,10|0,0:1|0:0,0:0:0:0:
420,24,77289,1,10,0:1:0:0:
420,24,77456,1,2,0:0:0:0:
352,84,77622,6,0,P|317:92|283:94,1,70,10|0,0:1|0:0,0:0:0:0:
186,0,77956,2,0,P|194:34|196:68,1,70,10|0,0:1|0:0,0:0:0:0:
101,166,78289,2,0,P|135:157|169:155,1,70,10|0,0:1|0:0,0:0:0:0:
267,251,78622,2,0,P|258:217|255:182,1,70,10|10,0:1|0:1,0:0:0:0:
283,94,78956,2,0,L|332:88,3,35,10|0|0|0,3:1|3:1|3:1|3:1,0:0:0:0:
353,61,79289,2,0,L|402:67,3,35,8|0|0|0,3:1|3:1|3:0|3:0,0:0:0:0:
430,50,79622,2,0,L|444:118,1,70,10|10,3:1|3:1,0:0:0:0:
501,190,79956,2,0,L|486:258,1,70,10|10,3:1|3:1,0:0:0:0:
416,337,80289,6,0,L|347:350,1,70,14|0,0:1|0:0,0:0:0:0:
224,266,80622,2,0,L|292:279,1,70,10|0,0:1|0:0,0:0:0:0:
416,195,80956,2,0,L|347:208,1,70,10|0,0:1|0:0,0:0:0:0:
224,124,81289,2,0,L|292:137,1,70,10|0,0:1|0:0,0:0:0:0:
415,71,81622,2,2,L|277:43,1,140,10|8,0:1|0:1,0:0:0:0:
160,0,82122,2,2,P|182:64|146:122,1,140,2|0,0:0|0:0,0:0:0:0:
62,172,82622,2,0,P|50:205|48:239,1,70,10|0,0:1|0:0,0:0:0:0:
113,313,82956,6,0,L|181:325,1,70,10|0,0:1|0:0,0:0:0:0:
326,238,83289,2,0,L|257:225,1,70,8|0,0:1|0:0,0:0:0:0:
155,167,83622,2,0,L|167:235,1,70,8|0,0:1|0:0,0:0:0:0:
284,384,83956,2,0,L|271:315,1,70,8|0,0:1|0:0,0:0:0:0:
326,237,84289,2,2,P|392:223|444:266,1,140,10|8,0:1|0:1,0:0:0:0:
482,357,84789,2,2,L|507:196,1,140,2|0,0:0|0:0,0:0:0:0:
460,130,85289,2,0,L|390:140,1,70,8|0,0:1|0:0,0:0:0:0:
256,96,85622,6,0,P|242:63|237:29,1,70,10|0,0:1|0:0,0:0:0:0:
368,0,85956,2,0,P|362:34|349:66,1,70,10|0,0:1|0:0,0:0:0:0:
297,169,86289,2,0,P|283:201|278:235,1,70,10|0,0:1|0:0,0:0:0:0:
409,207,86622,2,0,P|403:172|390:140,1,70,10|0,0:1|0:0,0:0:0:0:
256,96,86956,2,2,L|93:78,1,140,10|8,0:1|0:1,0:0:0:0:
4,35,87456,2,2,P|34:95|12:160,1,140,2|0,0:0|0:0,0:0:0:0:
10,257,87956,2,0,P|43:269|77:278,1,70,10|0,0:1|0:0,0:0:0:0:
202,226,88289,6,0,L|219:158,1,70,10|2,0:1|0:0,0:0:0:0:
283,83,88622,2,0,L|265:150,1,70,8|2,0:1|0:0,0:0:0:0:
328,226,88956,2,0,L|395:243,1,70,8|2,0:1|0:0,0:0:0:0:
448,352,89289,2,0,L|380:334,1,70,8|2,0:1|0:0,0:0:0:0:
264,374,89622,2,0,L|196:356,1,70,8|2,0:1|0:0,0:0:0:0:
64,288,89956,2,0,L|131:270,1,70,8|2,0:1|0:0,0:0:0:0:
196,179,90289,1,8,0:1:0:0:
196,179,90372,1,0,0:0:0:0:
196,179,90456,1,2,0:0:0:0:
114,110,90622,1,8,0:1:0:0:
114,110,90789,1,10,0:1:0:0:
182,21,90956,6,0,L|251:12,1,70,14|0,0:1|0:0,0:0:0:0:
377,102,91289,2,0,L|307:93,1,70,10|0,0:1|0:0,0:0:0:0:
182,183,91622,2,0,L|251:174,1,70,10|0,0:1|0:0,0:0:0:0:
377,264,91956,2,0,L|307:255,1,70,10|0,0:1|0:0,0:0:0:0:
182,345,92289,2,2,L|43:327,1,140,10|8,0:1|0:1,0:0:0:0:
0,224,92789,2,2,L|138:241,1,140,2|0,0:0|0:0,0:0:0:0:
182,345,93289,2,0,L|251:336,1,70,10|0,0:1|0:0,0:0:0:0:
323,230,93622,6,0,P|360:234|398:244,1,70,10|0,0:1|0:0,0:0:0:0:
338,384,93956,2,0,P|342:346|352:308,1,70,8|0,0:1|0:0,0:0:0:0:
492,369,94289,2,0,P|454:365|416:355,1,70,8|0,0:1|0:0,0:0:0:0:
477,215,94622,2,0,P|473:252|463:290,1,70,8|0,0:1|0:0,0:0:0:0:
323,230,94956,2,2,L|306:91,1,140,10|8,0:1|0:1,0:0:0:0:
215,29,95456,2,2,P|277:55|341:30,1,140,2|0,0:0|0:0,0:0:0:0:
438,46,95956,2,0,P|449:79|455:113,1,70,8|0,0:1|0:0,0:0:0:0:
462,243,96289,6,0,L|394:255,1,70,10|0,0:1|0:0,0:0:0:0:
249,168,96622,2,0,L|318:155,1,70,10|0,0:1|0:0,0:0:0:0:
420,97,96956,2,0,L|408:165,1,70,10|0,0:1|0:0,0:0:0:0:
291,314,97289,2,0,L|304:245,1,70,10|0,0:1|0:0,0:0:0:0:
233,149,97622,2,2,P|169:124|104:148,1,140,10|8,0:1|0:1,0:0:0:0:
15,235,98122,2,2,L|0:96,1,140,2|0,0:0|0:0,0:0:0:0:
83,0,98622,2,0,L|90:69,1,70,10|0,0:1|0:0,0:0:0:0:
171,203,98956,5,10,0:1:0:0:
480,160,99289,1,8,0:1:0:0:
304,27,99622,1,8,0:1:0:0:
347,336,99956,1,8,0:1:0:0:
90,69,100289,1,10,0:1:0:0:
133,378,100622,1,8,0:1:0:0:
219,203,100956,1,8,0:1:0:0:
219,203,101039,1,8,0:1:0:0:
219,203,101122,1,8,0:1:0:0:
288,288,101289,2,0,L|357:299,1,70,8|8,0:1|0:1,0:0:0:0:
480,256,101622,1,12,0:1:0:0:
480,256,101789,1,8,0:1:0:0:
480,256,102456,1,8,0:1:0:0:
512,172,102622,1,2,0:2:0:0:
512,172,102706,1,0,0:2:0:0:
512,172,102789,1,0,0:2:0:0:
512,172,102872,1,0,0:2:0:0:
512,171,102956,6,2,P|508:89|442:41,1,167.999994873047,14|8,0:1|0:2,0:0:0:0:
352,84,103456,1,2,0:0:0:0:
264,35,103622,1,8,0:1:0:0:
168,69,103789,1,0,0:0:0:0:
69,48,103956,2,0,P|58:89|57:131,1,83.9999974365235,10|0,0:2|0:0,0:0:0:0:
166,235,104289,2,0,P|165:193|155:153,1,83.9999974365235,10|0,0:1|0:0,0:0:0:0:
61,231,104622,2,0,P|62:272|73:313,1,83.9999974365235,8|0,0:2|0:0,0:0:0:0:
155,373,104956,2,0,P|196:371|237:360,1,83.9999974365235,8|0,0:1|0:0,0:0:0:0:
336,380,105289,1,10,0:2:0:0:
388,293,105456,1,2,0:0:0:0:
323,215,105622,6,2,L|295:49,1,167.999994873047,10|8,0:1|0:2,0:0:0:0:
385,4,106122,1,2,0:0:0:0:
475,47,106289,1,8,0:1:0:0:
429,137,106456,1,0,0:0:0:0:
491,215,106622,2,0,L|504:297,1,83.9999974365235,10|0,0:2|0:0,0:0:0:0:
384,384,106956,2,0,L|397:301,1,83.9999974365235,10|0,0:1|0:0,0:0:0:0:
304,244,107289,2,0,L|221:257,1,83.9999974365235,8|0,0:2|0:0,0:0:0:0:
172,355,107622,2,0,L|89:341,1,83.9999974365235,8|0,0:1|0:0,0:0:0:0:
9,278,107956,1,10,0:2:0:0:
73,200,108122,1,2,0:0:0:0:
11,117,108289,6,2,P|6:39|78:7,1,167.999994873047,10|8,0:1|0:2,0:0:0:0:
163,63,108789,1,2,0:0:0:0:
254,20,108956,1,8,0:1:0:0:
337,75,109122,1,0,0:0:0:0:
300,169,109289,2,0,P|290:209|286:251,1,83.9999974365235,8|0,0:2|0:0,0:0:0:0:
424,324,109622,2,2,L|396:159,1,167.999994873047,10|8,0:1|0:2,0:0:0:0:
431,22,110122,2,2,P|366:72|285:61,1,167.999994873047,2|0,0:0|0:0,0:0:0:0:
181,29,110622,2,0,P|139:35|99:48,1,83.9999974365235,10|0,0:2|0:0,0:0:0:0:
24,148,110956,6,2,B|98:158|98:158|118:177|118:177|190:185,1,167.999994873047,10|8,0:1|0:2,0:0:0:0:
327,240,111456,2,2,B|253:250|253:250|233:269|233:269|161:277,1,167.999994873047,2|0,0:0|0:0,0:0:0:0:
18,340,111956,2,0,L|101:352,1,83.9999974365235,10|0,0:2|0:0,0:0:0:0:
224,384,112289,1,10,0:1:0:0:
288,128,112622,1,10,0:2:0:0:
478,312,112956,1,10,0:1:0:0:
478,312,113122,1,8,0:1:0:0:
478,312,113289,1,10,0:2:0:0:
445,216,113456,1,10,0:1:0:0:
497,129,113622,6,2,P|505:50|439:5,1,167.999994873047,14|8,0:1|0:2,0:0:0:0:
338,13,114122,1,2,0:0:0:0:
307,109,114289,1,8,0:1:0:0:
377,181,114456,1,0,0:0:0:0:
345,276,114622,2,0,P|306:289|264:296,1,83.9999974365235,10|0,0:2|0:0,0:0:0:0:
133,195,114956,2,0,P|175:202|215:216,1,83.9999974365235,10|0,0:1|0:0,0:0:0:0:
179,335,115289,2,0,P|137:328|97:314,1,83.9999974365235,8|0,0:2|0:0,0:0:0:0:
28,241,115622,2,0,P|34:199|48:159,1,83.9999974365235,8|0,0:1|0:0,0:0:0:0:
8,66,115956,1,10,0:2:0:0:
90,9,116122,1,2,0:0:0:0:
175,63,116289,6,2,P|217:81|343:31,1,167.999994873047,10|8,0:1|0:2,0:0:0:0:
421,6,116789,1,2,0:0:0:0:
501,66,116956,1,8,0:1:0:0:
434,141,117122,1,0,0:0:0:0:
488,226,117289,2,0,P|499:274|503:322,1,83.9999974365235,10|0,0:2|0:0,0:0:0:0:
388,384,117622,2,0,P|397:343|402:301,1,83.9999974365235,10|0,0:1|0:0,0:0:0:0:
288,226,117956,2,0,P|297:266|302:308,1,83.9999974365235,8|0,0:2|0:0,0:0:0:0:
188,384,118289,2,0,P|197:343|202:301,1,83.9999974365235,8|0,0:1|0:0,0:0:0:0:
160,209,118622,1,10,0:2:0:0:
223,130,118789,1,2,0:0:0:0:
169,42,118956,6,2,P|91:18|15:50,1,167.999994873047,10|8,0:1|0:2,0:0:0:0:
0,151,119456,1,2,0:0:0:0:
73,219,119622,1,8,0:1:0:0:
10,298,119789,1,0,0:0:0:0:
76,374,119956,2,0,L|171:380,1,83.9999974365235,8|0,0:2|0:0,0:0:0:0:
309,359,120289,2,2,P|237:328|244:250,1,167.999994873047,10|8,0:1|0:2,0:0:0:0:
344,192,120789,2,2,L|176:209,1,167.999994873047,2|0,0:0|0:0,0:0:0:0:
80,272,121289,2,0,L|56:191,1,83.9999974365235,10|0,0:2|0:0,0:0:0:0:
98,79,121622,5,10,0:1:0:0:
432,111,121956,1,10,0:2:0:0:
80,272,122289,1,10,0:1:0:0:
413,304,122622,1,10,0:2:0:0:
274,0,122956,1,10,0:1:0:0:
237,384,123289,1,10,0:2:0:0:
256,192,123622,1,10,0:1:0:0:
256,192,123789,1,8,0:1:0:0:
256,192,123956,1,10,0:2:0:0:
169,249,124122,1,10,0:2:0:0:
169,249,124206,1,0,0:0:0:0:
168,249,124289,6,2,P|88:260|33:201,1,167.999994873047,14|10,0:1|0:2,0:0:0:0:
80,80,124789,2,2,L|246:59,1,167.999994873047,2|0,0:0|0:0,0:0:0:0:
352,0,125289,2,0,L|435:10,1,83.9999974365235,10|0,0:2|0:0,0:0:0:0:
512,144,125622,2,2,P|440:104|361:138,1,167.999994873047,10|8,0:1|0:2,0:0:0:0:
336,240,126122,2,2,L|305:74,1,167.999994873047,2|0,0:0|0:0,0:0:0:0:
208,16,126622,2,0,L|124:5,1,83.9999974365235,10|0,0:2|0:0,0:0:0:0:
0,128,126956,6,2,L|166:102,1,167.999994873047,10|10,0:1|0:2,0:0:0:0:
302,182,127456,2,2,P|220:178|165:238,1,167.999994873047,2|0,0:0|0:0,0:0:0:0:
79,345,127956,2,0,P|120:336|161:334,1,83.9999974365235,10|0,0:2|0:0,0:0:0:0:
288,384,128289,2,0,L|319:261,1,125.999996154785,10|0,0:1|2:0,0:0:0:0:
359,259,128622,2,0,L|379:177,1,83.9999974365235,8|0,0:2|0:0,0:0:0:0:
230,254,128956,2,0,L|198:131,1,125.999996154785,10|0,0:1|2:0,0:0:0:0:
159,129,129289,2,0,L|138:47,1,83.9999974365235,8|0,0:2|0:0,0:0:0:0:
272,0,129622,6,2,P|323:62|404:43,1,167.999994873047,14|10,0:1|0:2,0:0:0:0:
512,0,130122,2,2,P|491:81|481:164,1,167.999994873047,2|0,0:0|0:0,0:0:0:0:
512,273,130622,2,0,P|471:261|430:252,1,83.9999974365235,10|0,0:2|0:0,0:0:0:0:
306,322,130956,2,2,P|370:274|368:193,1,167.999994873047,10|8,0:1|0:2,0:0:0:0:
256,128,131456,2,2,L|88:112,1,167.999994873047,2|0,0:0|0:0,0:0:0:0:
0,224,131956,2,0,L|83:213,1,83.9999974365235,10|0,0:2|0:0,0:0:0:0:
208,256,132289,5,10,0:1:0:0:
208,256,132456,1,0,0:0:0:0:
272,176,132622,2,0,L|283:92,1,83.9999974365235,8|0,0:2|0:0,0:0:0:0:
384,0,132956,1,10,0:1:0:0:
384,0,133122,1,0,0:0:0:0:
448,80,133289,2,0,L|459:163,1,83.9999974365235,8|0,0:2|0:0,0:0:0:0:
511,287,133622,6,0,P|434:262|367:308,1,167.999994873047,10|10,0:1|0:2,0:0:0:0:
248,384,134122,2,0,P|261:344|268:302,1,83.9999974365235,2|8,0:0|0:1,0:0:0:0:
259,283,134372,1,8,0:2:0:0:
249,264,134456,1,8,0:1:0:0:
144,304,134622,1,8,0:2:0:0:
144,304,134789,1,8,0:1:0:0:
40,258,134956,6,2,L|19:91,1,167.999994873047,14|10,0:1|0:2,0:0:0:0:
156,0,135456,2,2,P|112:67|151:136,1,167.999994873047,2|0,0:0|0:0,0:0:0:0:
240,176,135956,2,0,L|323:167,1,83.9999974365235,10|0,0:2|0:0,0:0:0:0:
454,88,136289,2,2,L|434:254,1,167.999994873047,10|8,0:1|0:2,0:0:0:0:
512,384,136789,2,2,P|438:348|361:377,1,167.999994873047,2|0,0:0|0:0,0:0:0:0:
240,384,137289,2,0,P|198:377|158:366,1,83.9999974365235,10|0,0:2|0:0,0:0:0:0:
32,288,137622,6,2,L|202:269,1,167.999994873047,10|10,0:1|0:2,0:0:0:0:
304,176,138122,2,2,L|137:157,1,167.999994873047,2|0,0:0|0:0,0:0:0:0:
32,192,138622,2,0,L|12:101,1,83.9999974365235,10|0,0:2|0:0,0:0:0:0:
112,16,138956,1,10,0:1:0:0:
112,16,139122,1,0,0:0:0:0:
192,64,139289,2,0,L|275:73,1,83.9999974365235,8|0,0:2|0:0,0:0:0:0:
416,32,139622,1,10,0:1:0:0:
416,32,139789,1,0,0:0:0:0:
464,112,139956,2,0,L|473:195,1,83.9999974365235,8|0,0:2|0:0,0:0:0:0:
384,288,140289,6,2,L|365:121,1,167.999994873047,14|10,0:1|0:2,0:0:0:0:
256,32,140789,2,2,L|274:198,1,167.999994873047,2|0,0:0|0:0,0:0:0:0:
224,288,141289,2,0,P|184:303|144:313,1,83.9999974365235,10|0,0:2|0:0,0:0:0:0:
50,279,141622,1,10,0:1:0:0:
50,279,141789,1,0,0:0:0:0:
50,279,141956,1,8,0:2:0:0:
99,186,142122,1,2,0:0:0:0:
99,186,142289,1,8,0:1:0:0:
99,186,142456,1,0,0:0:0:0:
13,119,142622,2,0,P|13:77|28:38,1,83.9999974365235,10|0,0:2|0:0,0:0:0:0:
160,0,142956,5,10,3:1:0:0:
256,192,143039,12,8,145289,3:1:0:0:
256,192,145622,5,14,0:1:0:0:
37,332,166956,6,0,P|28:298|27:263,1,70,14|2,0:1|0:0,0:0:0:0:
56,176,167289,1,10,0:1:0:0:
139,211,167456,2,0,P|208:216|278:213,1,140,2|2,0:0|0:0,0:0:0:0:
347,152,167956,2,0,P|355:117|360:83,1,70,10|2,0:1|0:0,0:0:0:0:
457,88,168289,2,0,P|444:138|434:190,1,105,10|0,0:1|0:0,0:0:0:0:
462,226,168622,2,0,P|470:260|475:294,1,70,10|2,0:1|0:0,0:0:0:0:
435,376,168956,1,10,0:1:0:0:
435,376,169122,1,0,0:0:0:0:
348,348,169289,1,10,0:1:0:0:
348,348,169456,1,0,0:0:0:0:
262,377,169622,6,0,L|192:368,2,70,10|2|10,0:1|0:0|0:1,0:0:0:0:
348,348,170122,2,0,P|336:278|319:211,1,140,2|2,0:0|0:0,0:0:0:0:
371,136,170622,2,0,L|379:66,1,70,10|2,0:1|0:0,0:0:0:0:
304,23,170956,1,10,3:1:0:0:
304,23,171039,1,0,3:1:0:0:
304,23,171122,1,0,3:1:0:0:
304,23,171206,1,0,3:1:0:0:
304,23,171289,2,0,P|242:53|174:39,1,140,10|10,0:1|3:1,0:0:0:0:
157,44,171706,1,0,3:1:0:0:
140,49,171789,1,0,3:1:0:0:
123,54,171872,1,0,3:1:0:0:
106,59,171956,2,0,L|94:128,1,70,8|8,0:1|0:1,0:0:0:0:
20,204,172289,6,0,P|39:271|51:340,1,140,10|10,0:1|0:1,0:0:0:0:
136,372,172789,2,0,P|171:366|206:364,1,70,2|8,0:0|0:1,0:0:0:0:
276,305,173122,1,2,0:0:0:0:
207,245,173289,2,0,P|197:211|191:176,1,70,10|2,0:1|0:0,0:0:0:0:
230,95,173622,2,0,P|297:73|366:59,1,140,10|10,0:1|0:1,0:0:0:0:
439,4,174122,1,2,0:0:0:0:
494,76,174289,2,0,L|489:145,1,70,10|0,0:1|0:0,0:0:0:0:
429,215,174622,1,10,0:1:0:0:
429,215,174789,1,2,0:0:0:0:
464,299,174956,6,0,P|430:309|396:315,1,70,10|0,0:1|0:0,0:0:0:0:
313,384,175289,2,0,P|302:350|296:316,1,70,10|0,0:1|0:0,0:0:0:0:
228,232,175622,2,0,P|261:222|295:216,1,70,10|0,0:1|0:0,0:0:0:0:
379,148,175956,2,0,P|389:181|395:215,1,70,10|10,0:1|0:1,0:0:0:0:
396,315,176289,2,0,L|351:311,3,35,10|0|0|0,3:1|3:1|3:1|3:1,0:0:0:0:
319,329,176622,2,0,L|274:325,3,35,8|0|0|0,3:1|3:1|3:1|3:1,0:0:0:0:
245,347,176956,1,10,3:1:0:0:
245,347,177122,1,10,3:1:0:0:
161,306,177289,1,10,3:1:0:0:
161,306,177456,1,10,3:1:0:0:
74,351,177622,6,0,P|32:334|14:215,1,168,14|8,0:1|0:1,0:0:0:0:
81,153,178289,2,0,L|259:139,1,168,10|8,0:2|0:1,0:0:0:0:
310,60,178956,2,0,P|295:142|285:226,1,168,10|8,0:1|0:1,0:0:0:0:
324,318,179622,2,0,P|350:326|378:331,1,56,10|0,0:2|0:0,0:0:0:0:
486,305,179956,1,8,0:1:0:0:
486,305,180039,1,8,0:1:0:0:
486,305,180122,1,8,0:1:0:0:
486,305,180206,1,8,0:1:0:0:
486,305,180289,6,0,P|476:221|460:138,1,168,10|8,0:1|0:1,0:0:0:0:
499,45,180956,2,0,P|434:100|350:88,1,168,10|8,0:2|0:1,0:0:0:0:
268,40,181622,2,0,L|273:11,3,28,10|0|0|0,3:1|3:0|3:0|3:0,0:0:0:0:
242,60,181956,1,10,3:2:0:0:
69,27,182289,2,0,L|64:-2,3,28,10|0|0|0,3:1|3:0|3:0|3:0,0:0:0:0:
95,47,182622,1,10,3:2:0:0:
0,256,182956,6,0,P|34:248|68:244,1,70,14|2,0:1|0:0,0:0:0:0:
146,292,183289,1,10,0:2:0:0:
219,236,183456,2,0,P|235:169|237:99,1,140,2|2,0:0|0:0,0:0:0:0:
289,25,183956,1,10,0:2:0:0:
289,25,184122,1,2,0:0:0:0:
363,78,184289,2,0,P|397:83|432:86,1,70,10|0,0:1|0:0,0:0:0:0:
498,148,184622,1,10,0:2:0:0:
498,148,184789,1,2,0:0:0:0:
449,224,184956,2,0,P|441:259|436:300,1,70,10|0,0:1|0:0,0:0:0:0:
363,344,185289,1,10,0:2:0:0:
363,344,185456,1,2,0:0:0:0:
313,268,185622,6,0,L|243:258,1,70,10|0,0:1|0:0,0:0:0:0:
151,384,185956,2,0,L|160:314,1,70,10|0,0:2|0:0,0:0:0:0:
36,221,186289,2,0,L|105:230,1,70,10|0,0:1|0:0,0:0:0:0:
198,106,186622,2,0,L|188:175,1,70,10|10,0:2|0:1,0:0:0:0:
243,258,186956,2,0,L|278:263,3,35,10|0|0|0,3:1|3:2|3:2|3:2,0:0:0:0:
313,291,187289,2,0,L|348:286,3,35,8|0|0|0,3:2|3:2|3:2|3:2,0:0:0:0:
384,258,187622,2,0,L|394:188,1,70,10|10,3:1|3:1,0:0:0:0:
456,121,187956,1,10,3:2:0:0:
421,37,188122,1,10,3:2:0:0:
421,37,188206,1,8,3:2:0:0:
421,37,188289,6,0,L|351:27,1,70,14|0,0:1|0:0,0:0:0:0:
224,109,188622,2,0,L|293:99,1,70,10|0,0:2|0:0,0:0:0:0:
421,181,188956,2,0,L|351:171,1,70,10|0,0:1|0:0,0:0:0:0:
224,253,189289,2,0,L|293:243,1,70,10|0,0:2|0:0,0:0:0:0:
421,325,189622,2,2,L|282:344,1,140,10|8,0:1|0:2,0:0:0:0:
191,382,190122,2,2,L|52:362,1,140,2|0,0:0|0:0,0:0:0:0:
3,277,190622,2,0,L|-4:207,1,70,10|0,0:2|0:0,0:0:0:0:
52,111,190956,6,0,P|86:121|121:126,1,70,10|0,0:1|0:0,0:0:0:0:
258,42,191289,2,0,P|223:47|190:57,1,70,8|0,0:2|0:0,0:0:0:0:
200,186,191622,2,0,P|234:181|268:171,1,70,8|0,0:1|0:0,0:0:0:0:
337,100,191956,2,0,P|346:66|351:31,1,70,8|0,0:2|0:0,0:0:0:0:
445,3,192289,2,2,P|454:72|465:141,1,140,10|8,0:1|0:2,0:0:0:0:
511,227,192789,2,2,P|454:190|387:204,1,140,2|0,0:0|0:0,0:0:0:0:
304,256,193289,2,0,P|269:253|234:246,1,70,8|0,0:2|0:0,0:0:0:0:
132,281,193622,6,0,L|118:349,1,70,10|0,0:1|0:0,0:0:0:0:
16,304,193956,2,0,L|2:235,1,70,10|0,0:2|0:0,0:0:0:0:
104,191,194289,2,0,L|117:122,1,70,10|0,0:1|0:0,0:0:0:0:
0,56,194622,2,0,L|68:42,1,70,10|0,0:2|0:0,0:0:0:0:
191,0,194956,2,2,P|242:45|310:36,1,140,10|8,0:1|0:2,0:0:0:0:
416,0,195456,2,2,P|394:66|381:135,1,140,2|0,0:0|0:0,0:0:0:0:
445,209,195956,2,0,P|455:242|462:276,1,70,10|0,0:2|0:0,0:0:0:0:
384,368,196289,6,0,L|314:374,1,70,10|2,0:1|0:0,0:0:0:0:
213,351,196622,2,0,L|282:344,1,70,8|2,0:2|0:0,0:0:0:0:
345,268,196956,2,0,L|351:198,1,70,8|2,0:1|0:0,0:0:0:0:
279,67,197289,2,0,L|272:136,1,70,8|2,0:2|0:0,0:0:0:0:
192,224,197622,2,0,L|122:230,1,70,8|2,0:1|0:0,0:0:0:0:
0,320,197956,2,0,L|69:313,1,70,8|2,0:2|0:0,0:0:0:0:
176,368,198289,1,8,0:1:0:0:
176,368,198372,1,8,0:1:0:0:
176,368,198456,1,10,0:1:0:0:
256,320,198622,1,8,0:2:0:0:
256,320,198789,1,10,0:1:0:0:
345,367,198956,6,0,L|414:374,1,70,14|0,0:1|0:0,0:0:0:0:
503,324,199289,2,0,L|510:254,1,70,10|0,0:2|0:0,0:0:0:0:
460,166,199622,2,0,L|390:158,1,70,10|0,0:1|0:0,0:0:0:0:
302,209,199956,2,0,L|294:278,1,70,10|0,0:2|0:0,0:0:0:0:
226,350,200289,2,2,P|160:367|96:343,1,140,10|8,0:1|0:2,0:0:0:0:
0,384,200789,2,2,L|22:245,1,140,2|0,0:0|0:0,0:0:0:0:
0,144,201289,2,0,P|30:162|63:173,1,70,10|0,0:2|0:0,0:0:0:0:
160,128,201622,6,0,L|228:116,1,70,10|0,0:1|0:0,0:0:0:0:
373,203,201956,2,0,L|304:216,1,70,8|0,0:2|0:0,0:0:0:0:
202,274,202289,2,0,L|214:206,1,70,8|0,0:1|0:0,0:0:0:0:
331,57,202622,2,0,L|318:126,1,70,8|0,0:2|0:0,0:0:0:0:
402,222,202956,2,2,P|464:250|483:315,1,140,10|8,0:1|0:2,0:0:0:0:
408,379,203456,2,2,L|268:363,1,140,2|0,0:0|0:0,0:0:0:0:
160,384,203956,2,0,L|143:302,1,70,8|0,0:2|0:0,0:0:0:0:
96,233,204289,6,0,P|63:247|29:252,1,70,10|0,0:1|0:0,0:0:0:0:
0,121,204622,2,0,P|34:127|66:140,1,70,10|0,0:2|0:0,0:0:0:0:
169,192,204956,2,0,P|201:206|235:211,1,70,10|0,0:1|0:0,0:0:0:0:
207,79,205289,2,0,P|172:85|140:98,1,70,10|0,0:2|0:0,0:0:0:0:
62,195,205622,2,2,L|39:333,1,140,10|8,0:1|0:2,0:0:0:0:
127,384,206122,2,2,P|189:356|263:372,1,140,2|0,0:0|0:0,0:0:0:0:
356,367,206622,2,0,P|368:334|375:300,1,70,10|0,0:2|0:0,0:0:0:0:
341,203,206956,5,10,0:1:0:0:
32,160,207289,1,8,0:2:0:0:
208,27,207622,1,8,0:1:0:0:
165,336,207956,1,8,0:2:0:0:
422,69,208289,1,10,0:1:0:0:
379,378,208622,1,8,0:2:0:0:
293,203,208956,1,8,0:1:0:0:
293,203,209039,1,8,0:1:0:0:
293,203,209122,1,8,0:1:0:0:
224,288,209289,2,0,L|155:299,1,70,8|8,0:2|0:2,0:0:0:0:
143,312,209539,1,8,0:2:0:0:
132,325,209622,1,12,0:1:0:0:
37,307,209789,1,8,0:1:0:0:
37,307,210456,1,8,0:1:0:0:
8,230,210622,1,2,0:2:0:0:
8,230,210706,1,0,0:2:0:0:
8,230,210789,1,0,0:2:0:0:
8,230,210872,1,0,0:2:0:0:
8,230,210956,6,2,P|-5:150|37:79,1,167.999994873047,14|8,0:1|0:2,0:0:0:0:
133,46,211456,1,2,0:0:0:0:
215,102,211622,1,8,0:1:0:0:
152,181,211789,1,0,0:0:0:0:
174,278,211956,2,0,P|211:299|252:306,1,83.9999974365235,10|0,0:2|0:0,0:0:0:0:
370,204,212289,2,0,P|328:204|287:215,1,83.9999974365235,10|0,0:1|0:0,0:0:0:0:
343,336,212622,2,0,P|384:335|425:324,1,83.9999974365235,8|0,0:2|0:0,0:0:0:0:
483,241,212956,2,0,P|493:200|494:158,1,83.9999974365235,8|0,0:1|0:0,0:3:0:0:
401,119,213289,1,10,0:2:0:0:
371,22,213456,1,2,0:0:0:0:
285,76,213622,6,2,P|207:100|135:62,1,167.999994873047,10|8,0:1|0:2,0:0:0:0:
42,22,214122,1,2,0:0:0:0:
2,115,214289,1,8,0:1:0:0:
62,196,214456,1,0,0:0:0:0:
3,277,214622,2,0,P|11:318|27:356,1,83.9999974365235,10|0,0:2|0:0,0:0:0:0:
128,384,214956,2,0,P|144:345|152:304,1,83.9999974365235,10|0,0:1|0:0,0:0:0:0:
236,213,215289,2,0,P|244:254|260:292,1,83.9999974365235,8|0,0:2|0:0,0:0:0:0:
351,351,215622,2,0,P|393:351|435:343,1,83.9999974365235,8|0,0:1|0:0,0:0:0:0:
505,270,215956,1,10,0:2:0:0:
445,189,216122,1,2,0:0:0:0:
353,232,216289,6,2,P|272:255|189:267,1,167.999994873047,10|8,0:1|0:2,0:0:0:0:
114,335,216789,1,2,0:0:0:0:
19,298,216956,1,8,0:1:0:0:
65,208,217122,1,0,0:0:0:0:
17,118,217289,2,0,P|24:76|37:36,1,83.9999974365235,8|0,0:2|0:0,0:0:0:0:
176,0,217622,2,2,L|199:166,1,167.999994873047,10|8,0:1|0:2,0:0:0:0:
114,287,218122,2,2,P|190:257|263:292,1,167.999994873047,2|0,0:0|0:0,0:0:0:0:
335,364,218622,2,0,P|393:370|444:367,1,83.9999974365235,10|0,0:2|0:0,0:0:0:0:
512,254,218956,6,2,L|341:284,1,167.999994873047,10|8,0:1|0:2,0:0:0:0:
180,213,219456,2,2,L|345:183,1,167.999994873047,2|0,0:0|0:0,0:0:0:0:
432,131,219956,2,0,P|425:89|410:50,1,83.9999974365235,10|0,0:2|0:0,0:0:0:0:
320,0,220289,1,10,0:1:0:0:
256,256,220622,1,10,0:2:0:0:
66,72,220956,1,10,0:1:0:0:
66,72,221122,1,8,0:1:0:0:
66,72,221289,1,10,0:2:0:0:
45,162,221456,1,10,0:1:0:0:
23,252,221622,6,2,P|47:328|126:343,1,167.999994873047,14|8,0:1|0:2,0:0:0:0:
215,295,222122,1,2,0:0:0:0:
149,218,222289,1,8,0:1:0:0:
205,134,222456,1,0,0:0:0:0:
148,50,222622,2,0,P|188:38|230:38,1,83.9999974365235,10|0,0:2|0:0,0:0:0:0:
400,110,222956,2,0,P|359:98|317:98,1,83.9999974365235,10|0,0:1|0:0,0:0:0:0:
205,134,223289,2,0,L|186:215,1,83.9999974365235,8|0,0:2|0:0,0:0:0:0:
107,278,223622,2,0,L|125:359,1,83.9999974365235,8|0,0:1|0:0,0:0:0:0:
224,384,223956,1,10,0:2:0:0:
300,319,224122,1,2,0:0:0:0:
388,366,224289,6,2,P|446:310|440:229,1,167.999994873047,10|8,0:1|0:2,0:0:0:0:
493,143,224789,1,2,0:0:0:0:
412,81,224956,1,8,0:1:0:0:
351,160,225122,1,0,0:0:0:0:
256,123,225289,2,0,L|172:113,1,83.9999974365235,10|0,0:2|0:0,0:0:0:0:
100,220,225622,2,0,L|183:210,1,83.9999974365235,10|0,0:1|0:0,0:0:0:0:
288,256,225956,2,0,L|297:339,1,83.9999974365235,8|0,0:2|0:0,0:0:0:0:
151,384,226289,2,0,L|160:300,1,83.9999974365235,8|0,0:1|0:0,0:0:0:0:
100,220,226622,1,10,0:2:0:0:
24,286,226789,1,2,0:0:0:0:
2,187,226956,6,2,P|8:103|77:53,1,167.999994873047,10|8,0:1|0:2,0:0:0:0:
157,107,227456,1,2,0:0:0:0:
241,53,227622,1,8,0:1:0:0:
329,101,227789,1,0,0:0:0:0:
247,159,227956,2,0,P|237:200|230:242,1,83.9999974365235,8|0,0:2|0:0,0:0:0:0:
176,336,228289,2,2,L|351:323,1,167.999994873047,10|8,0:1|0:2,0:0:0:0:
463,383,228789,2,2,P|435:306|461:228,1,167.999994873047,2|0,0:0|0:0,0:0:0:0:
511,140,229289,2,0,P|509:98|497:57,1,83.9999974365235,10|0,0:2|0:0,0:0:0:0:
416,0,229622,5,10,0:1:0:0:
320,256,229956,1,10,0:2:0:0:
64,160,230289,1,10,0:1:0:0:
368,128,230622,1,10,0:2:0:0:
112,32,230956,1,10,0:1:0:0:
16,288,231289,1,10,0:2:0:0:
272,384,231622,1,10,0:1:0:0:
272,384,231789,1,8,0:1:0:0:
272,384,231956,1,10,0:2:0:0:
208,307,232122,1,10,0:2:0:0:
208,307,232206,1,8,0:2:0:0:
208,307,232289,6,2,P|188:229|233:161,1,167.999994873047,14|10,0:1|0:2,0:0:0:0:
340,127,232789,2,2,L|173:102,1,167.999994873047,2|0,0:0|0:0,0:0:0:0:
115,19,233289,2,0,L|31:31,1,83.9999974365235,10|0,0:2|0:0,0:0:0:0:
0,160,233622,2,2,L|166:135,1,167.999994873047,10|8,0:1|0:2,0:0:0:0:
255,64,234122,2,2,P|207:128|228:207,1,167.999994873047,2|0,0:0|0:0,0:0:0:0:
315,259,234622,2,0,L|398:250,1,83.9999974365235,10|0,0:2|0:0,0:0:0:0:
512,128,234956,6,2,L|344:146,1,167.999994873047,10|10,0:1|0:2,0:0:0:0:
255,64,235456,2,2,L|87:45,1,167.999994873047,2|0,0:0|0:0,0:0:0:0:
4,102,235956,2,0,L|20:184,1,83.9999974365235,10|0,0:2|0:0,0:0:0:0:
89,258,236289,2,0,L|212:232,1,125.999996154785,10|0,0:1|2:0,0:0:0:0:
249,198,236622,2,0,L|331:214,1,83.9999974365235,8|0,0:2|0:0,0:0:0:0:
253,324,236956,2,0,L|376:349,1,125.999996154785,10|0,0:1|2:0,0:0:0:0:
413,384,237289,2,0,L|495:367,1,83.9999974365235,8|0,0:2|0:0,0:0:0:0:
512,256,237622,6,2,L|484:85,1,167.999994873047,14|10,0:1|0:2,0:0:0:0:
511,0,238122,2,2,P|453:56|372:47,1,167.999994873047,2|0,0:0|0:0,0:0:0:0:
277,9,238622,2,0,P|236:3|194:1,1,83.9999974365235,10|0,0:2|0:0,0:0:0:0:
104,48,238956,2,2,L|82:214,1,167.999994873047,10|8,0:1|0:2,0:0:0:0:
12,285,239456,2,2,P|89:270|135:335,1,167.999994873047,2|0,0:0|0:0,0:0:0:0:
224,384,239956,2,0,P|265:383|306:373,1,83.9999974365235,10|0,0:2|0:0,0:0:0:0:
392,317,240289,5,10,0:1:0:0:
392,317,240456,1,0,0:0:0:0:
316,251,240622,2,0,L|306:167,1,83.9999974365235,8|0,0:2|0:0,0:0:0:0:
196,94,240956,1,10,0:1:0:0:
196,94,241122,1,0,0:0:0:0:
125,167,241289,2,0,L|41:176,1,83.9999974365235,8|0,0:2|0:0,0:0:0:0:
0,63,241622,2,0,P|59:8|139:23,1,167.999994873047,10|10,0:1|0:2,0:0:0:0:
196,94,242122,2,0,L|205:177,1,83.9999974365235,2|8,0:0|0:1,0:0:0:0:
199,197,242372,1,8,0:2:0:0:
193,217,242456,1,8,0:1:0:0:
259,303,242622,1,8,0:2:0:0:
259,303,242789,1,8,0:1:0:0:
175,368,242956,6,2,P|94:373|47:308,1,167.999994873047,14|10,0:1|0:2,0:0:0:0:
0,216,243456,2,2,L|167:197,1,167.999994873047,2|0,0:0|0:0,0:0:0:0:
232,119,243956,2,0,P|241:79|257:40,1,83.9999974365235,10|0,0:2|0:0,0:0:0:0:
352,6,244289,2,0,L|434:20,1,83.9999974365235,10|0,0:1|0:0,0:0:0:0:
470,56,244539,2,0,L|484:138,1,83.9999974365235,2|0,0:0|0:0,0:0:0:0:
511,181,244789,2,0,P|483:256|404:270,1,167.999994873047,2|0,0:0|0:0,0:0:0:0:
318,323,245289,2,0,P|311:281|311:239,1,83.9999974365235,10|0,0:2|0:0,0:0:0:0:
384,160,245622,6,2,L|218:134,1,167.999994873047,10|10,0:1|0:2,0:0:0:0:
155,54,246122,2,2,L|180:219,1,167.999994873047,2|0,0:0|0:0,0:0:0:0:
224,320,246622,2,0,L|141:307,1,83.9999974365235,10|0,0:2|0:0,0:0:0:0:
49,352,246956,1,10,0:1:0:0:
49,352,247122,1,0,0:0:0:0:
4,261,247289,2,0,L|-8:178,1,83.9999974365235,8|0,0:2|0:0,0:0:0:0:
32,64,247622,1,10,0:1:0:0:
32,64,247789,1,0,0:0:0:0:
123,109,247956,2,0,L|205:121,1,83.9999974365235,8|0,0:2|0:0,0:0:0:0:
295,62,248289,6,2,P|258:107|300:220,1,167.999994873047,14|10,0:1|0:2,0:0:0:0:
368,272,248789,2,2,L|200:257,1,167.999994873047,2|0,0:0|0:0,0:0:0:0:
143,174,249289,2,0,L|59:181,1,83.9999974365235,10|0,0:2|0:0,0:0:0:0:
3,265,249622,1,10,0:1:0:0:
3,265,249789,1,0,0:0:0:0:
3,265,249956,1,8,0:2:0:0:
42,357,250122,1,2,0:0:0:0:
42,357,250289,1,8,0:1:0:0:
42,357,250456,1,0,0:0:0:0:
139,333,250622,2,0,P|180:326|222:325,1,83.9999974365235,10|0,0:2|0:0,0:0:0:0:
316,362,250956,6,0,L|363:367,3,41.9999987182618,10|0|0|0,3:1|3:0|3:0|3:0,0:0:0:0:
401,342,251289,2,0,L|406:295,3,41.9999987182618,8|0|0|0,3:2|3:0|3:0|3:0,0:0:0:0:
381,257,251622,2,0,L|334:252,3,41.9999987182618,8|0|0|0,0:1|0:0|0:0|0:0,0:0:0:0:
296,277,251956,2,0,L|291:323,3,41.9999987182618,8|8|8|8,0:2|0:2|0:2|0:2,0:0:0:0:
316,362,252289,1,10,0:1:0:0:
316,362,252789,1,10,0:1:0:0:
65,335,253289,1,8,0:0:0:0:
65,335,253372,1,8,0:0:0:0:
65,335,253456,1,8,0:0:0:0:
65,335,253539,1,8,0:0:0:0:
65,335,253622,6,0,P|24:270|47:214,1,140,14|8,0:1|0:2,0:0:0:0:
137,164,254122,1,0,0:0:0:0:
235,202,254289,2,0,P|257:230|273:261,1,70,10|0,0:1|0:0,0:0:0:0:
184,361,254622,2,0,L|197:293,1,70,8|0,0:2|0:0,0:0:0:0:
325,184,254956,2,0,L|344:80,1,105,10|0,0:1|0:0,0:0:0:0:
389,54,255289,2,0,L|457:41,1,70,8|0,0:2|0:0,0:0:0:0:
512,136,255622,1,10,0:1:0:0:
512,136,255789,1,0,0:0:0:0:
452,224,255956,1,8,0:2:0:0:
452,224,256122,1,0,0:0:0:0:
495,319,256289,6,0,L|357:344,2,140,10|8|10,0:1|0:2|0:1,0:0:0:0:
452,224,257122,1,0,0:0:0:0:
512,136,257289,2,0,P|508:101|495:68,1,70,8|0,0:2|0:0,0:0:0:0:
400,25,257622,2,0,P|365:28|332:40,1,70,10|0,0:1|0:0,0:0:0:0:
265,153,257956,2,0,P|299:149|332:138,1,70,8|0,0:2|0:0,0:0:0:0:
436,175,258289,1,10,0:1:0:0:
436,175,258456,1,0,0:0:0:0:
406,280,258622,1,8,0:2:0:0:
406,280,258706,1,0,0:2:0:0:
406,280,258789,1,0,0:2:0:0:
467,365,258956,6,0,P|399:382|334:360,1,140,10|8,0:1|0:2,0:0:0:0:
267,279,259456,1,0,0:0:0:0:
194,354,259622,2,0,P|160:365|125:368,1,70,10|0,0:1|0:0,0:0:0:0:
77,273,259956,2,0,P|120:261|165:262,1,70,8|0,0:2|0:0,0:0:0:0:
267,279,260289,2,0,L|284:176,1,105,10|0,0:1|2:0,0:0:0:0:
321,138,260622,2,0,L|311:69,1,70,8|0,0:2|0:0,0:0:0:0:
230,9,260956,1,10,0:1:0:0:
230,9,261122,1,0,0:0:0:0:
139,59,261289,1,8,0:2:0:0:
139,59,261456,1,0,0:0:0:0:
40,23,261622,6,0,L|22:161,2,140,10|8|10,0:1|0:2|0:1,0:0:0:0:
139,59,262456,1,0,0:0:0:0:
230,9,262622,2,0,L|299:4,1,70,8|0,0:2|0:0,0:0:0:0:
389,100,262956,2,0,P|337:111|285:116,1,105,10|0,0:1|2:0,0:0:0:0:
235,101,263289,2,0,L|227:171,1,70,8|0,0:2|0:0,0:0:0:0:
151,243,263622,1,8,0:1:0:0:
151,243,263706,1,8,0:2:0:0:
151,243,263789,1,8,0:1:0:0:
185,347,263956,1,8,0:2:0:0:
185,347,264122,1,8,0:2:0:0:
293,343,264289,6,0,P|370:364|427:287,1,167.999994873047,14|8,0:1|0:2,0:0:0:0:
494,232,264789,1,2,0:0:0:0:
447,142,264956,2,0,L|363:135,1,83.9999974365235,10|2,0:1|0:0,0:0:0:0:
311,222,265289,2,0,L|227:228,1,83.9999974365235,10|2,0:2|0:0,0:0:0:0:
144,170,265622,1,10,0:1:0:0:
59,226,265789,2,0,L|53:257,3,27.9999991455078,2|2|2|10,0:0|0:0|0:0|0:2,0:0:0:0:
8,142,266122,1,2,0:0:0:0:
8,142,266289,2,0,P|1:101|2:60,1,83.9999974365235,10|2,0:1|0:0,0:0:0:0:
105,0,266622,2,0,P|96:41|97:82,1,83.9999974365235,10|2,0:2|0:0,0:0:0:0:
144,170,266956,6,0,L|227:181,1,83.9999974365235,10|2,0:1|0:0,0:0:0:0:
304,80,267289,2,0,L|387:68,1,83.9999974365235,10|2,0:2|0:0,0:0:0:0:
512,96,267622,1,10,0:1:0:0:
512,96,267789,1,2,0:0:0:0:
448,192,267956,1,10,0:2:0:0:
448,192,268122,1,2,0:0:0:0:
512,306,268289,2,0,L|429:292,1,83.9999974365235,10|2,0:1|0:0,0:0:0:0:
320,368,268622,2,0,L|237:354,1,83.9999974365235,10|2,0:2|0:0,0:0:0:0:
146,272,268956,2,0,L|228:258,1,83.9999974365235,10|2,0:1|0:0,0:0:0:0:
290,193,269289,2,0,L|303:110,1,83.9999974365235,10|2,0:2|0:0,0:0:0:0:
223,0,269622,6,0,P|140:11|58:30,1,167.999994873047,10|10,0:1|0:2,0:0:0:0:
13,120,270122,1,2,0:0:0:0:
73,199,270289,2,0,P|82:241|84:282,1,83.9999974365235,10|2,0:1|0:0,0:0:0:0:
0,384,270622,2,0,P|41:375|82:373,1,83.9999974365235,10|2,0:2|0:0,0:0:0:0:
170,322,270956,1,10,0:1:0:0:
265,353,271122,2,0,L|269:385,3,27.9999991455078,2|2|2|10,0:0|0:0|0:0|0:2,0:0:0:0:
360,322,271456,1,2,0:0:0:0:
360,322,271622,2,0,P|401:320|442:311,1,83.9999974365235,10|2,0:1|0:0,0:0:0:0:
499,226,271956,2,0,L|505:142,1,83.9999974365235,10|2,0:2|0:0,0:0:0:0:
464,48,272289,6,0,P|424:37|383:32,1,83.9999974365235,10|2,0:1|0:0,0:0:0:0:
301,148,272622,2,0,P|341:136|382:131,1,83.9999974365235,10|2,0:2|0:0,0:0:0:0:
480,202,272956,2,0,L|466:284,1,83.9999974365235,10|2,0:1|0:0,0:0:0:0:
352,384,273289,2,0,L|338:301,1,83.9999974365235,10|2,0:2|0:0,0:0:0:0:
240,256,273622,1,10,0:1:0:0:
150,319,273789,2,0,L|141:354,3,27.9999991455078,2|2|2|10,0:0|0:0|0:0|0:2,0:0:0:0:
60,256,274122,1,2,0:0:0:0:
60,256,274289,2,0,L|51:211,3,41.9999987182618,2|0|0|0,0:2|0:2|0:2|0:2,0:0:0:0:
79,180,274622,1,0,0:0:0:0:
79,180,274706,1,0,0:0:0:0:
79,180,274789,1,0,0:0:0:0:
79,180,274872,1,0,0:0:0:0:
64,288,288289,5,6,3:2:0:0:
64,288,288456,2,0,P|27:217|64:145,1,167.999994873047,0|0,3:2|3:0,0:0:0:0:
141,127,289289,2,0,L|182:133,1,41.9999987182618,2|0,0:0|0:0,0:0:0:0:
233,201,289622,1,2,3:2:0:0:
233,201,289789,2,0,P|304:239|378:206,1,167.999994873047,0|0,3:2|3:2,0:0:0:0:
480,32,290956,5,2,3:2:0:0:
479,32,291122,2,0,P|418:84|338:68,1,167.999994873047,0|0,3:2|3:2,0:0:0:0:
269,21,291956,2,0,P|249:17|228:15,1,41.9999987182618,2|0,0:0|0:0,0:0:0:0:
161,56,292289,1,2,3:2:0:0:
161,56,292456,2,0,L|137:228,1,167.999994873047,0|0,3:2|3:2,0:0:0:0:
416,320,293622,5,2,3:2:0:0:
415,319,293789,2,0,P|343:284|273:325,1,167.999994873047,0|0,3:2|3:2,0:0:0:0:
210,373,294622,2,0,P|189:374|168:373,1,41.9999987182618,2|0,0:0|0:0,0:0:0:0:
94,342,294956,1,2,3:2:0:0:
94,342,295122,2,0,L|84:250,1,83.9999974365235,0|0,3:2|0:0,0:0:0:0:
31,201,295622,1,2,0:0:0:0:
31,201,295789,2,0,L|41:109,1,83.9999974365235,0|0,3:2|0:0,0:0:0:0:
93,55,296289,5,2,3:2:0:0:
256,192,296456,12,0,300289,0:2:0:0:
0,171,301622,6,2,P|4:89|70:41,1,167.999994873047,14|8,0:1|0:2,0:0:0:0:
160,84,302122,1,2,0:0:0:0:
248,35,302289,1,8,0:1:0:0:
344,69,302456,1,0,0:0:0:0:
443,48,302622,2,0,P|454:89|455:131,1,83.9999974365235,10|0,0:2|0:0,0:0:0:0:
346,235,302956,2,0,P|347:193|357:153,1,83.9999974365235,10|0,0:1|0:0,0:0:0:0:
451,231,303289,2,0,P|450:272|439:313,1,83.9999974365235,8|0,0:2|0:0,0:0:0:0:
357,373,303622,2,0,P|316:371|275:360,1,83.9999974365235,8|0,0:1|0:0,0:0:0:0:
176,380,303956,1,10,0:2:0:0:
124,293,304122,1,2,0:0:0:0:
189,215,304289,6,2,L|217:49,1,167.999994873047,10|8,0:1|0:2,0:0:0:0:
127,4,304789,1,2,0:0:0:0:
37,47,304956,1,8,0:1:0:0:
83,137,305122,1,0,0:0:0:0:
21,215,305289,2,0,L|8:297,1,83.9999974365235,10|0,0:2|0:0,0:0:0:0:
128,384,305622,2,0,L|115:301,1,83.9999974365235,10|0,0:1|0:0,0:0:0:0:
208,244,305956,2,0,L|291:257,1,83.9999974365235,8|0,0:2|0:0,0:0:0:0:
340,355,306289,2,0,L|423:341,1,83.9999974365235,8|0,0:1|0:0,0:0:0:0:
503,278,306622,1,10,0:2:0:0:
439,200,306789,1,2,0:0:0:0:
501,117,306956,6,2,P|506:39|434:7,1,167.999994873047,10|8,0:1|0:2,0:0:0:0:
349,63,307456,1,2,0:0:0:0:
258,20,307622,1,8,0:1:0:0:
175,75,307789,1,0,0:0:0:0:
212,169,307956,2,0,P|222:209|226:251,1,83.9999974365235,8|0,0:1|0:0,0:0:0:0:
144,336,308289,2,2,L|320:357,1,167.999994873047,10|8,0:1|0:2,0:0:0:0:
409,384,308789,2,2,P|354:323|364:242,1,167.999994873047,2|0,0:0|0:0,0:0:0:0:
419,159,309289,2,0,P|413:117|400:77,1,83.9999974365235,10|0,0:2|0:0,0:0:0:0:
317,18,309622,6,2,B|243:28|243:28|223:47|223:47|151:55,1,167.999994873047,10|8,0:1|0:2,0:0:0:0:
17,118,310122,2,2,B|91:128|91:128|111:147|111:147|183:155,1,167.999994873047,2|0,0:0|0:0,0:0:0:0:
247,225,310622,2,0,L|259:308,1,83.9999974365235,10|0,0:2|0:0,0:0:0:0:
336,372,310956,1,10,0:1:0:0:
67,282,311289,1,10,0:2:0:0:
305,150,311622,1,10,0:1:0:0:
305,150,311789,1,8,0:1:0:0:
305,150,311956,1,10,0:2:0:0:
374,222,312122,1,10,0:1:0:0:
467,184,312289,6,2,P|489:145|447:22,1,167.999994873047,14|8,0:1|0:2,0:0:0:0:
363,60,312789,1,2,0:0:0:0:
271,17,312956,1,8,0:1:0:0:
189,77,313122,1,0,0:0:0:0:
98,33,313289,2,0,P|56:39|16:53,1,83.9999974365235,10|0,0:2|0:0,0:0:0:0:
21,154,313622,2,0,P|63:147|103:133,1,83.9999974365235,10|0,0:1|0:0,0:0:0:0:
194,176,313956,2,0,P|207:215|213:257,1,83.9999974365235,8|0,0:2|0:0,0:0:0:0:
182,352,314289,2,0,P|221:365|263:372,1,83.9999974365235,8|0,0:1|0:0,0:0:0:0:
352,324,314622,1,10,0:2:0:0:
442,367,314789,1,2,0:0:0:0:
499,284,314956,6,2,P|519:204|460:138,1,167.999994873047,10|8,0:1|0:2,0:0:0:0:
375,179,315456,1,2,0:0:0:0:
282,138,315622,1,8,0:1:0:0:
218,215,315789,1,0,0:0:0:0:
252,309,315956,2,0,P|203:320|156:324,1,83.9999974365235,10|0,0:2|0:0,0:0:0:0:
64,384,316289,2,0,P|53:336|49:288,1,83.9999974365235,10|0,0:1|0:0,0:0:0:0:
114,224,316622,2,0,P|123:183|128:141,1,83.9999974365235,8|0,0:2|0:0,0:0:0:0:
80,52,316956,2,0,P|121:47|162:38,1,83.9999974365235,8|0,0:1|0:0,0:0:0:0:
234,109,317289,1,10,0:2:0:0:
316,51,317456,1,2,0:0:0:0:
411,83,317622,6,2,P|435:161|403:237,1,167.999994873047,10|8,0:1|0:2,0:0:0:0:
302,252,318122,1,2,0:0:0:0:
222,313,318289,1,8,0:1:0:0:
158,234,318456,1,0,0:0:0:0:
237,171,318622,2,0,L|226:77,1,83.9999974365235,8|0,0:2|0:0,0:0:0:0:
128,0,318956,2,2,P|107:81|79:160,1,167.999994873047,10|8,0:1|0:2,0:0:0:0:
0,227,319456,2,2,P|80:205|164:197,1,167.999994873047,2|0,0:0|0:0,0:0:0:0:
238,265,319956,2,0,L|262:346,1,83.9999974365235,10|0,0:2|0:0,0:0:0:0:
359,372,320289,5,10,0:1:0:0:
76,295,320622,1,10,0:2:0:0:
153,12,320956,1,10,0:1:0:0:
436,89,321289,1,10,0:2:0:0:
75,142,321622,1,10,0:1:0:0:
436,241,321956,1,10,0:2:0:0:
256,192,322289,1,10,0:1:0:0:
256,192,322456,1,8,0:1:0:0:
256,192,322622,1,10,0:2:0:0:
361,153,322789,1,10,0:2:0:0:
361,153,322872,1,0,0:0:0:0:
361,153,322956,6,2,L|323:321,1,167.999994873047,14|10,0:1|0:2,0:0:0:0:
192,384,323456,2,2,L|229:220,1,167.999994873047,2|0,0:0|0:0,0:0:0:0:
152,155,323956,2,0,L|69:165,1,83.9999974365235,10|0,0:2|0:0,0:0:0:0:
16,48,324289,2,2,P|88:8|167:42,1,167.999994873047,10|8,0:1|0:2,0:0:0:0:
239,104,324789,2,2,P|311:144|390:110,1,167.999994873047,2|0,0:0|0:0,0:0:0:0:
481,143,325289,2,0,L|492:227,1,83.9999974365235,10|0,0:2|0:0,0:0:0:0:
512,336,325622,6,2,L|346:310,1,167.999994873047,10|10,0:1|0:2,0:0:0:0:
256,383,326122,2,2,P|297:313|257:241,1,167.999994873047,2|0,0:0|0:0,0:0:0:0:
163,271,326622,2,0,P|122:280|81:282,1,83.9999974365235,10|0,0:2|0:0,0:0:0:0:
0,192,326956,2,0,L|123:161,1,125.999996154785,10|0,0:1|2:0,0:0:0:0:
125,121,327289,2,0,L|207:101,1,83.9999974365235,8|0,0:2|0:0,0:0:0:0:
224,208,327622,2,0,L|347:240,1,125.999996154785,10|0,0:1|2:0,0:0:0:0:
349,279,327956,2,0,L|431:300,1,83.9999974365235,8|0,0:2|0:0,0:0:0:0:
512,192,328289,6,2,L|479:27,1,167.999994873047,14|10,0:1|0:2,0:0:0:0:
352,0,328789,2,2,L|384:164,1,167.999994873047,2|0,0:0|0:0,0:0:0:0:
344,256,329289,2,0,P|303:268|262:277,1,83.9999974365235,10|0,0:2|0:0,0:0:0:0:
241,376,329622,2,2,P|214:296|182:218,1,167.999994873047,10|8,0:1|0:2,0:0:0:0:
105,153,330122,2,2,P|186:172|270:183,1,167.999994873047,2|0,0:0|0:0,0:0:0:0:
341,254,330622,2,0,P|385:253|424:243,1,83.9999974365235,10|0,0:2|0:0,0:0:0:0:
502,179,330956,5,10,0:1:0:0:
502,179,331122,1,0,0:0:0:0:
417,125,331289,2,0,L|406:41,1,83.9999974365235,8|0,0:2|0:0,0:0:0:0:
288,0,331622,1,10,0:1:0:0:
288,0,331789,1,0,0:0:0:0:
224,80,331956,2,0,L|141:91,1,83.9999974365235,8|0,0:2|0:0,0:0:0:0:
32,160,332289,6,0,P|109:135|176:181,1,167.999994873047,10|10,0:1|0:2,0:0:0:0:
141,275,332789,2,0,P|146:316|157:357,1,83.9999974365235,2|8,0:0|0:1,0:0:0:0:
173,371,333039,1,8,0:2:0:0:
190,384,333122,1,8,0:1:0:0:
296,351,333289,1,8,0:2:0:0:
296,351,333456,1,8,0:1:0:0:
401,384,333622,6,2,L|432:215,1,167.999994873047,14|10,0:1|0:2,0:0:0:0:
512,144,334122,2,2,P|437:178|361:150,1,167.999994873047,2|0,0:0|0:0,0:0:0:0:
285,83,334622,2,0,P|247:73|203:66,1,83.9999974365235,10|0,0:2|0:0,0:0:0:0:
125,0,334956,2,2,P|149:80|164:162,1,167.999994873047,10|8,0:1|0:2,0:0:0:0:
89,229,335456,2,2,P|168:204|252:205,1,167.999994873047,2|0,0:0|0:0,0:0:0:0:
318,281,335956,2,0,P|311:322|300:362,1,83.9999974365235,10|0,0:2|0:0,0:0:0:0:
192,384,336289,6,2,L|22:365,1,167.999994873047,10|10,0:1|0:2,0:0:0:0:
0,256,336789,2,2,L|166:274,1,167.999994873047,2|0,0:0|0:0,0:0:0:0:
248,215,337289,2,0,L|268:124,1,83.9999974365235,10|0,0:2|0:0,0:0:0:0:
384,64,337622,1,10,0:1:0:0:
384,64,337789,1,0,0:0:0:0:
448,128,337956,2,0,L|466:210,1,83.9999974365235,8|0,0:2|0:0,0:0:0:0:
405,331,338289,1,10,0:1:0:0:
405,331,338456,1,0,0:0:0:0:
341,267,338622,2,0,L|258:248,1,83.9999974365235,8|0,0:2|0:0,0:0:0:0:
176,320,338956,6,2,P|215:252|186:166,1,167.999994873047,14|10,0:1|0:2,0:0:0:0:
94,79,339456,2,2,L|115:245,1,167.999994873047,2|0,0:0|0:0,0:0:0:0:
47,340,339956,2,0,P|87:355|127:365,1,83.9999974365235,10|0,0:2|0:0,0:0:0:0:
239,342,340289,1,10,0:1:0:0:
239,342,340456,1,0,0:0:0:0:
239,342,340622,1,8,0:2:0:0:
350,381,340789,1,2,0:0:0:0:
350,381,340956,1,8,0:1:0:0:
350,381,341122,1,0,0:0:0:0:
448,334,341289,2,0,P|462:294|462:253,1,83.9999974365235,10|0,0:2|0:0,0:0:0:0:
422,150,341622,6,0,L|427:108,3,41.9999987182618,10|0|0|0,0:1|0:0|0:0|0:0,0:0:0:0:
474,79,341956,2,0,L|468:37,3,41.9999987182618,8|0|0|0,0:1|0:0|0:0|0:0,0:0:0:0:
421,10,342289,2,0,L|379:4,3,41.9999987182618,8|0|0|0,0:1|0:0|0:0|0:0,0:0:0:0:
337,39,342622,2,0,L|295:44,3,41.9999987182618,8|0|0|0,0:1|0:0|0:0|0:0,0:0:0:0:
253,10,342956,2,0,L|211:4,3,41.9999987182618,8|0|0|0,0:1|0:0|0:0|0:0,0:0:0:0:
175,44,343289,2,0,L|169:85,3,41.9999987182618,8|0|0|0,0:1|0:0|0:0|0:0,0:0:0:0:
210,121,343622,2,0,L|215:162,3,41.9999987182618,8|0|0|0,0:1|0:0|0:0|0:0,0:0:0:0:
208,227,343956,1,8,0:1:0:0:
208,227,344039,1,0,0:0:0:0:
208,227,344122,1,0,0:0:0:0:
208,227,344206,1,0,0:0:0:0:
207,227,344289,6,0,P|138:268|64:235,1,167.999994873047,14|8,0:1|0:2,0:0:0:0:
30,140,344789,1,0,0:0:0:0:
96,68,344956,2,0,P|131:60|165:56,1,70,10|0,0:1|0:0,0:0:0:0:
252,170,345289,2,0,P|217:166|183:158,1,70,8|0,0:2|0:0,0:0:0:0:
263,67,345622,2,0,L|367:54,1,105,10|0,0:1|2:0,0:0:0:0:
408,26,345956,2,0,L|477:34,1,70,8|0,0:2|0:0,0:0:0:0:
510,131,346289,1,10,0:1:0:0:
510,131,346456,1,0,0:0:0:0:
457,215,346622,1,8,0:2:0:0:
457,215,346789,1,0,0:0:0:0:
497,304,346956,6,0,L|359:329,2,140,10|8|10,0:1|0:2|0:1,0:0:0:0:
457,215,347789,1,0,0:0:0:0:
362,241,347956,2,0,L|293:253,1,70,8|0,0:2|0:0,0:0:0:0:
190,353,348289,2,0,P|202:320|205:285,1,70,10|0,0:1|0:0,0:0:0:0:
127,224,348622,2,0,P|116:190|113:156,1,70,8|0,0:2|0:0,0:0:0:0:
161,71,348956,1,10,0:1:0:0:
161,71,349122,1,0,0:0:0:0:
83,30,349289,1,8,0:2:0:0:
83,30,349372,1,0,0:0:0:0:
83,30,349456,1,0,0:0:0:0:
11,96,349622,6,0,L|36:265,1,140,10|8,0:1|0:2,0:0:0:0:
12,331,350122,1,0,0:0:0:0:
104,362,350289,2,0,P|138:361|172:353,1,70,10|0,0:1|0:0,0:0:0:0:
252,247,350622,2,0,P|218:248|184:256,1,70,8|0,0:2|0:0,0:0:0:0:
268,345,350956,2,0,L|371:362,1,105,10|0,0:1|2:0,0:0:0:0:
417,377,351289,2,0,L|486:367,1,70,8|0,0:2|0:0,0:0:0:0:
504,273,351622,1,10,0:1:0:0:
504,273,351789,1,0,0:0:0:0:
441,204,351956,1,8,0:2:0:0:
441,204,352122,1,0,0:0:0:0:
498,124,352289,6,0,P|509:57|467:4,2,140,10|8|10,0:1|0:2|0:1,0:0:0:0:
441,204,353122,1,0,0:0:0:0:
360,149,353289,2,0,P|308:138|288:137,1,70,8|0,0:2|0:0,0:0:0:0:
186,242,353622,2,0,P|238:253|290:258,1,105,10|0,0:1|2:0,0:0:0:0:
337,235,353956,2,0,L|345:305,1,70,8|0,0:2|0:0,0:0:0:0:
282,380,354289,1,8,0:1:0:0:
282,380,354372,2,0,L|212:372,1,70,8|0,0:2|0:0,0:0:0:0:
174,340,354622,1,8,0:2:0:0:
83,382,354789,1,8,0:2:0:0:
83,382,354872,1,8,0:2:0:0:
83,382,354956,6,0,L|62:196,1,167.999994873047,14|8,0:1|0:2,0:0:0:0:
3,138,355456,1,0,0:0:0:0:
65,62,355622,2,0,P|99:60|134:67,1,70,10|0,0:1|0:0,0:0:0:0:
216,169,355956,2,0,P|181:170|147:164,1,70,8|0,0:2|0:0,0:0:0:0:
235,76,356289,2,0,P|285:61|337:52,1,105,10|0,0:1|0:0,0:0:0:0:
370,88,356622,2,0,P|404:96|438:100,1,70,8|0,0:2|0:0,0:0:0:0:
504,180,356956,1,10,0:1:0:0:
504,180,357122,1,0,0:0:0:0:
443,256,357289,1,8,0:2:0:0:
443,256,357456,1,0,0:0:0:0:
359,204,357622,6,0,P|290:192|220:184,2,140,10|8|10,0:1|0:2|0:1,0:0:0:0:
443,256,358456,1,0,0:0:0:0:
407,347,358622,2,0,L|337:354,1,70,8|0,0:2|0:0,0:0:0:0:
224,384,358956,2,0,P|232:350|237:315,1,70,10|0,0:1|0:0,0:0:0:0:
130,242,359289,2,0,P|135:277|143:311,1,70,8|0,0:2|0:0,0:0:0:0:
222,220,359622,2,0,P|217:185|209:151,1,70,10|0,0:1|0:0,0:0:0:0:
145,75,359956,2,0,P|110:67|76:62,1,70,8|0,0:2|0:0,0:0:0:0:
9,133,360289,6,0,L|25:272,1,140,10|8,0:1|0:2,0:0:0:0:
7,368,360789,1,0,0:0:0:0:
102,346,360956,2,0,L|171:358,1,70,10|0,0:1|0:0,0:0:0:0:
291,262,361289,2,0,L|222:274,1,70,8|0,0:2|0:0,0:0:0:0:
138,222,361622,2,0,L|121:119,1,105,10|0,0:1|2:0,0:0:0:0:
154,81,361956,2,0,L|224:92,1,70,8|0,0:2|0:0,0:0:0:0:
305,36,362289,1,10,0:1:0:0:
305,36,362456,1,0,0:0:0:0:
379,107,362622,1,8,0:2:0:0:
379,107,362789,1,0,0:0:0:0:
463,57,362956,6,0,P|475:107|483:159,1,105,10|0,0:1|2:0,0:0:0:0:
443,188,363289,2,0,P|435:222|429:256,1,70,8|0,0:2|0:0,0:0:0:0:
469,346,363622,2,0,P|418:358|366:367,1,105,10|0,0:1|2:0,0:0:0:0:
317,361,363956,2,0,P|309:326|303:292,1,70,8|0,0:2|0:0,0:0:0:0:
205,204,364289,2,0,L|135:195,1,70,10|0,0:1|0:0,0:0:0:0:
23,270,364622,2,0,L|92:278,1,70,8|0,0:2|0:0,0:0:0:0:
178,356,364956,1,8,0:2:0:0:
178,356,365039,1,8,0:2:0:0:
178,356,365122,1,8,0:2:0:0:
178,356,365206,1,8,0:2:0:0:
178,356,365289,2,0,L|212:351,3,35,8|8|8|8,0:2|0:2|0:2|0:2,0:0:0:0:
266,378,365622,6,0,P|252:304|286:237,1,154.000004699707,14|10,0:1|0:2,0:0:0:0:
394,234,366122,1,0,0:0:0:0:
464,152,366289,2,0,P|471:114|471:75,1,77.0000023498536,10|0,0:1|0:0,0:0:0:0:
368,0,366622,2,0,P|375:38|375:77,1,77.0000023498536,10|0,0:2|0:0,0:0:0:0:
288,144,366956,2,0,L|208:153,1,77.0000023498536,10|0,0:1|0:0,0:0:0:0:
160,57,367289,2,0,L|83:48,1,77.0000023498536,10|0,0:2|0:0,0:0:0:0:
0,116,367622,1,10,0:1:0:0:
0,116,367789,1,0,0:0:0:0:
50,217,367956,1,10,0:2:0:0:
50,217,368122,1,0,0:0:0:0:
151,180,368289,6,0,L|304:162,2,154.000004699707,10|10|10,0:1|0:2|0:1,0:0:0:0:
50,217,369122,1,0,0:0:0:0:
80,320,369289,2,0,P|116:332|154:336,1,77.0000023498536,10|0,0:2|0:0,0:0:0:0:
292,250,369622,2,0,P|253:253|217:266,1,77.0000023498536,10|0,0:1|0:0,0:0:0:0:
241,382,369956,2,0,P|279:378|315:365,1,77.0000023498536,10|0,0:2|0:0,0:0:0:0:
426,384,370289,1,10,0:1:0:0:
426,384,370456,1,0,0:0:0:0:
501,308,370622,1,10,0:2:0:0:
501,308,370706,1,0,0:0:0:0:
501,308,370789,1,0,0:0:0:0:
407,253,370956,6,0,P|382:181|418:113,1,154.000004699707,10|10,0:1|0:2,0:0:0:0:
484,31,371456,1,0,0:0:0:0:
380,0,371622,2,0,L|303:10,1,77.0000023498536,10|0,0:1|0:0,0:0:0:0:
257,108,371956,2,0,L|180:98,1,77.0000023498536,10|0,0:2|0:0,0:0:0:0:
60,10,372289,2,0,P|71:46|76:84,1,77.0000023498536,10|0,0:1|0:0,0:0:0:0:
22,166,372622,2,0,P|26:204|38:240,1,77.0000023498536,10|0,0:2|0:0,0:0:0:0:
18,347,372956,1,10,0:1:0:0:
18,347,373122,1,0,0:0:0:0:
123,371,373289,1,10,0:2:0:0:
123,371,373456,1,0,0:0:0:0:
211,309,373622,6,0,P|286:295|363:290,2,154.000004699707,10|10|10,0:1|0:2|0:1,0:3:0:0:
123,371,374456,1,0,0:0:0:0:
18,347,374622,2,0,P|7:310|3:271,1,77.0000023498536,10|0,0:2|0:0,0:0:0:0:
42,170,374956,2,0,L|117:155,1,77.0000023498536,10|0,0:1|0:0,0:0:0:0:
216,198,375289,2,0,L|291:183,1,77.0000023498536,2|0,0:2|0:0,0:0:0:0:
360,101,375622,1,10,0:1:0:0:
360,101,375706,1,8,0:2:0:0:
360,101,375789,1,8,0:1:0:0:
464,126,375956,1,10,0:1:0:0:
482,19,376122,1,8,0:2:0:0:
482,19,376206,1,8,0:2:0:0:
482,19,376289,6,0,L|311:2,1,167.999994873047,14|10,0:1|0:2,0:0:0:0:
210,57,376789,1,0,0:0:0:0:
94,31,376956,2,0,P|39:39|4:52,1,83.9999974365235,10|0,0:1|0:0,0:0:0:0:
0,167,377289,2,0,P|55:159|90:146,1,83.9999974365235,10|0,0:2|0:0,0:0:0:0:
189,197,377622,2,0,L|202:279,1,83.9999974365235,10|0,0:1|0:0,0:0:0:0:
304,352,377956,2,0,L|317:269,1,83.9999974365235,10|0,0:2|0:0,0:0:0:0:
421,212,378289,1,10,0:1:0:0:
421,212,378456,1,0,0:0:0:0:
346,121,378622,1,10,0:2:0:0:
346,121,378789,1,0,0:0:0:0:
416,26,378956,6,0,L|234:11,2,167.999994873047,10|10|10,0:1|0:2|0:1,0:0:0:0:
502,106,379789,1,0,0:0:0:0:
423,193,379956,2,0,P|413:233|408:275,1,83.9999974365235,10|0,0:2|0:0,0:0:0:0:
512,384,380289,2,0,P|471:374|429:369,1,83.9999974365235,10|0,0:1|0:0,0:0:0:0:
333,384,380622,2,0,P|291:379|250:369,1,83.9999974365235,10|0,0:2|0:0,0:0:0:0:
182,296,380956,1,10,0:1:0:0:
182,296,381122,1,0,0:0:0:0:
92,350,381289,1,10,0:2:0:0:
92,350,381372,1,0,0:0:0:0:
92,350,381456,1,0,0:0:0:0:
16,269,381622,6,0,L|-4:102,1,167.999994873047,10|10,0:1|0:2,0:0:0:0:
73,13,382122,1,0,0:0:0:0:
163,88,382289,2,0,P|203:97|245:97,1,83.9999974365235,10|0,0:1|0:0,0:0:0:0:
391,10,382622,2,0,P|349:9|308:19,1,83.9999974365235,10|0,0:2|0:0,0:0:0:0:
254,133,382956,2,0,L|263:216,1,83.9999974365235,10|0,0:1|0:0,0:0:0:0:
363,327,383289,2,0,L|372:243,1,83.9999974365235,10|0,0:2|0:0,0:0:0:0:
463,168,383622,1,10,0:1:0:0:
463,168,383789,1,0,0:0:0:0:
422,62,383956,1,10,0:2:0:0:
422,62,384122,1,0,0:0:0:0:
311,103,384289,6,0,L|249:93,3,41.9999987182618,10|0|0|0,0:1|0:0|0:0|0:0,0:0:0:0:
221,61,384622,2,0,L|159:71,3,41.9999987182618,10|0|0|0,0:1|0:0|0:0|0:0,0:0:0:0:
147,118,384956,2,0,L|157:179,3,41.9999987182618,10|0|0|0,0:1|0:0|0:0|0:0,0:0:0:0:
189,208,385289,2,0,L|179:270,3,41.9999987182618,10|0|0|0,0:1|0:0|0:0|0:0,0:0:0:0:
224,290,385622,2,0,L|286:280,3,41.9999987182618,10|0|0|0,0:1|0:0|0:0|0:0,0:0:0:0:
311,321,385956,2,0,L|373:331,3,41.9999987182618,10|0|0|0,0:1|0:0|0:0|0:0,0:0:0:0:
398,290,386289,2,0,L|460:280,3,41.9999987182618,10|0|0|0,0:1|0:2|0:2|0:2,0:0:0:0:
495,255,386622,1,10,0:1:0:0:
495,255,386706,1,8,0:2:0:0:
495,255,386789,1,8,0:2:0:0:
495,255,386872,1,8,0:2:0:0:
495,255,386956,1,6,0:1:0:0:
