osu file format v14

[General]
AudioFilename: audio.mp3
AudioLeadIn: 0
PreviewTime: 102581
Countdown: 0
SampleSet: Soft
StackLeniency: 0.7
Mode: 0
LetterboxInBreaks: 0
WidescreenStoryboard: 0

[Editor]
DistanceSpacing: 1.4
BeatDivisor: 4
GridSize: 32
TimelineZoom: 2.399999

[Metadata]
Title:Valkyrja
TitleUnicode:Valkyrja
Artist:Yousei Teikoku
ArtistUnicode:妖精帝國
Creator:Mordred
Version:Despair
Source:舞-乙HiME 乙女舞闘史!!
Tags:gothic lolita propaganda mai kinoto hime otome butou-shi butoushi opening rock das feenreich japanese 日本語
BeatmapID:2548533
BeatmapSetID:1225418

[Difficulty]
HPDrainRate:7
CircleSize:4
OverallDifficulty:9
ApproachRate:9.3
SliderMultiplier:1.8
SliderTickRate:1

[Events]
//Background and Video events
0,0,"80977951.jpg",0,0
//Break Periods
2,277622,287735
//Storyboard Layer 0 (Background)
//Storyboard Layer 1 (Fail)
//Storyboard Layer 2 (Pass)
//Storyboard Layer 3 (Foreground)
//Storyboard Layer 4 (Overlay)
//Storyboard Sound Samples

[TimingPoints]
5623,333.333333333333,4,2,1,60,1,0
16289,-100,4,2,1,60,0,0
26956,-100,4,2,1,60,0,0
37622,-100,4,1,1,70,0,0
58956,-100,4,2,1,60,0,0
80289,-100,4,1,2,70,0,0
88456,-100,4,1,1,70,0,0
90956,-100,4,1,2,70,0,0
102956,-83.3333333333333,4,1,2,80,0,1
145622,-100,4,1,1,70,0,0
166956,-100,4,2,1,60,0,0
177622,-142.857142857143,4,2,1,60,0,0
182956,-100,4,2,1,60,0,0
188289,-100,4,1,2,70,0,0
196456,-100,4,1,1,70,0,0
198956,-100,4,1,2,70,0,0
210956,-83.3333333333333,4,1,2,80,0,1
252289,-100,4,2,1,70,0,0
253622,-100,4,1,1,70,0,0
264289,-83.3333333333333,4,1,1,80,0,1
274956,-100,4,2,1,70,0,0
288289,-166.666666666667,4,2,1,50,0,0
297622,-166.666666666667,4,2,1,60,0,0
298956,-166.666666666667,4,2,1,70,0,0
300289,-166.666666666667,4,2,1,50,0,0
301622,-83.3333333333333,4,1,2,70,0,1
341622,-83.3333333333333,4,1,1,60,0,1
342289,-83.3333333333333,4,1,1,65,0,1
342956,-83.3333333333333,4,1,1,70,0,1
343289,-83.3333333333333,4,1,1,75,0,1
343622,-83.3333333333333,4,1,1,80,0,1
343956,-83.3333333333333,4,1,1,85,0,1
344289,-83.3333333333333,4,1,1,70,0,0
345622,-100,4,1,1,70,0,0
354956,-83.3333333333333,4,1,1,70,0,0
355289,-100,4,1,1,70,0,0
384289,-100,4,1,1,50,0,0
385622,-100,4,1,1,60,0,0
386289,-100,4,1,1,70,0,0
386622,-100,4,1,1,80,0,0
386956,-100,4,1,1,90,0,0

[Colours]
Combo1 : 250,180,240
Combo2 : 110,190,225
Combo3 : 255,230,130
Combo4 : 150,230,140

[HitObjects]
64,32,16289,5,14,0:1:0:0:
416,64,16956,1,8,0:1:0:0:
64,128,17622,1,8,0:1:0:0:
416,160,18289,1,8,0:1:0:0:
64,224,18956,1,8,0:1:0:0:
416,256,19623,1,8,0:1:0:0:
64,320,20289,1,8,0:1:0:0:
416,352,20956,1,8,0:1:0:0:
64,320,21622,1,14,0:1:0:0:
416,256,22288,1,8,0:1:0:0:
64,224,22955,1,8,0:1:0:0:
416,160,23622,1,8,0:1:0:0:
64,128,24289,1,8,0:1:0:0:
416,64,24955,1,8,0:1:0:0:
64,32,25289,1,8,0:1:0:0:
148,80,25456,1,8,0:1:0:0:
64,128,25622,1,8,0:1:0:0:
148,176,25789,1,8,0:1:0:0:
64,224,25956,1,8,0:1:0:0:
148,272,26122,1,8,0:1:0:0:
86,342,26289,1,8,0:1:0:0:
86,342,26372,1,8,0:1:0:0:
86,342,26455,1,8,0:1:0:0:
86,342,26539,1,8,0:1:0:0:
86,342,26622,1,8,0:1:0:0:
86,342,26705,1,8,0:1:0:0:
86,342,26789,2,0,L|144:351,1,45,8|8,0:1|0:1,0:0:0:0:
256,288,26956,5,6,3:1:0:0:
257,276,27039,1,0,3:0:0:0:
258,265,27122,1,0,3:0:0:0:
259,254,27205,1,0,3:0:0:0:
261,243,27289,1,8,3:1:0:0:
262,232,27372,1,0,3:0:0:0:
263,220,27455,1,0,3:0:0:0:
265,209,27539,1,0,3:0:0:0:
266,198,27622,1,10,3:1:0:0:
267,187,27705,1,0,3:0:0:0:
269,176,27789,1,0,3:0:0:0:
270,165,27872,1,0,3:0:0:0:
271,153,27955,1,8,3:1:0:0:
273,142,28039,1,0,3:0:0:0:
274,131,28122,1,0,3:0:0:0:
275,120,28205,1,0,3:0:0:0:
277,109,28289,2,0,P|320:121|364:123,1,90,10|0,0:1|0:0,0:0:0:0:
468,0,28622,2,0,P|455:43|453:87,1,90,8|0,0:1|0:0,0:0:0:0:
512,163,28956,2,0,P|509:207|497:250,1,90,10|0,0:1|0:0,0:0:0:0:
428,315,29289,2,0,P|383:312|340:300,1,90,8|0,0:1|0:0,0:0:0:0:
108,307,29622,5,10,3:1:0:0:
112,317,29705,1,0,3:1:0:0:
117,327,29788,1,0,3:1:0:0:
125,335,29871,1,0,3:1:0:0:
133,342,29955,1,8,3:1:0:0:
143,348,30038,1,0,3:1:0:0:
153,352,30121,1,0,3:1:0:0:
164,355,30205,1,0,3:1:0:0:
175,356,30288,1,10,3:1:0:0:
187,354,30371,1,0,3:1:0:0:
197,351,30455,1,0,3:1:0:0:
208,347,30538,1,0,3:1:0:0:
217,340,30621,1,8,3:1:0:0:
225,332,30705,1,0,3:1:0:0:
232,323,30788,1,0,3:1:0:0:
237,314,30871,1,0,3:1:0:0:
241,303,30956,2,0,L|227:214,1,90,10|0,0:1|0:0,0:0:0:0:
52,144,31289,2,0,L|135:176,1,90,8|0,0:1|0:0,0:0:0:0:
284,59,31622,2,0,L|213:115,1,90,10|0,0:1|0:0,0:0:0:0:
150,276,31956,1,8,0:1:0:0:
122,78,32122,1,8,0:1:0:0:
307,152,32289,5,14,3:1:0:0:
318,150,32372,1,0,3:1:0:0:
329,149,32455,1,0,3:1:0:0:
340,147,32539,1,0,3:1:0:0:
351,146,32622,1,8,3:1:0:0:
362,144,32705,1,0,3:1:0:0:
373,143,32789,1,0,3:1:0:0:
385,141,32872,1,0,3:1:0:0:
396,140,32955,1,10,3:1:0:0:
407,138,33039,1,0,3:1:0:0:
418,137,33122,1,0,3:1:0:0:
429,135,33205,1,0,3:1:0:0:
440,134,33289,1,8,3:1:0:0:
451,132,33372,1,0,3:1:0:0:
463,131,33455,1,0,3:1:0:0:
474,129,33539,1,0,3:1:0:0:
485,128,33622,2,0,L|500:34,1,90,10|0,0:1|0:0,0:0:0:0:
384,0,33956,2,0,L|290:15,1,90,8|0,0:1|0:0,0:0:0:0:
221,105,34289,2,0,L|206:199,1,90,10|0,0:1|0:0,0:0:0:0:
322,233,34622,2,0,L|416:217,1,90,8|0,0:1|0:0,0:0:0:0:
512,352,34956,5,10,3:1:0:0:
500,350,35039,1,0,3:3:0:0:
489,348,35122,1,0,3:3:0:0:
478,346,35206,1,0,3:3:0:0:
467,344,35289,1,8,3:1:0:0:
456,343,35372,1,0,3:3:0:0:
445,341,35456,1,0,3:3:0:0:
434,339,35539,1,0,3:3:0:0:
423,337,35622,1,10,3:1:0:0:
412,336,35706,1,0,3:3:0:0:
400,334,35789,1,0,3:3:0:0:
389,332,35872,1,0,3:3:0:0:
378,330,35956,1,8,3:1:0:0:
367,328,36039,1,0,3:3:0:0:
356,327,36122,1,0,3:3:0:0:
345,325,36206,1,0,3:3:0:0:
334,323,36289,1,10,0:1:0:0:
318,266,36372,1,8,0:1:0:0:
301,208,36456,1,8,0:1:0:0:
404,240,36622,1,0,3:0:0:0:
231,291,36789,1,8,0:1:0:0:
173,274,36872,1,8,0:1:0:0:
115,257,36956,2,0,L|106:212,2,45,0|0|0,3:0|3:0|3:0,0:0:0:0:
0,320,37289,1,0,3:2:0:0:
7,264,37372,1,8,3:2:0:0:
15,208,37456,1,8,3:2:0:0:
23,152,37539,1,8,3:2:0:0:
31,97,37622,6,0,P|79:64|169:162,2,180,14|8|10,0:1|0:2|0:1,0:0:0:0:
23,152,38456,1,0,0:0:0:0:
171,122,38622,1,8,0:2:0:0:
145,323,38789,1,0,0:0:0:0:
82,289,38956,2,0,L|278:262,1,180,10|8,0:1|0:2,0:0:0:0:
326,220,39456,1,0,0:0:0:0:
254,184,39622,1,10,0:1:0:0:
271,366,39789,1,0,0:0:0:0:
89,383,39956,1,8,0:2:0:0:
72,201,40122,1,0,0:0:0:0:
341,303,40289,6,0,P|396:269|407:202,1,135,10|0,0:1|2:0,0:0:0:0:
439,172,40622,2,0,L|349:163,1,90,8|0,0:2|0:0,0:0:0:0:
247,72,40956,1,10,0:1:0:0:
299,13,41122,1,0,0:0:0:0:
324,88,41289,1,8,0:2:0:0:
271,147,41456,1,0,0:0:0:0:
82,39,41622,2,0,P|125:51|170:56,1,90,10|0,0:1|0:0,0:0:0:0:
300,234,41956,2,0,P|256:221|212:217,1,90,8|0,0:2|0:0,0:0:0:0:
62,245,42289,1,10,0:1:0:0:
0,2,42456,1,0,0:1:0:0:
37,130,42622,1,8,0:2:0:0:
37,130,42706,1,0,0:1:0:0:
37,130,42789,1,0,0:1:0:0:
91,366,42956,6,0,L|181:374,1,90,10|0,0:1|0:0,0:0:0:0:
448,320,43289,2,0,L|358:311,1,90,8|0,0:2|0:0,0:0:0:0:
210,252,43622,1,10,0:1:0:0:
358,311,43789,1,0,0:0:0:0:
417,163,43956,1,8,0:2:0:0:
269,104,44122,1,0,0:0:0:0:
300,175,44289,2,0,P|309:112|340:-9,2,180,10|8|10,0:1|0:2|0:1,0:0:0:0:
64,288,45122,1,0,0:0:0:0:
125,113,45289,1,8,0:2:0:0:
238,349,45456,1,0,0:0:0:0:
125,113,45622,6,0,P|118:69|116:24,1,90,10|0,0:1|0:0,0:0:0:0:
211,158,45956,2,0,P|218:202|220:247,1,90,8|0,0:2|0:0,0:0:0:0:
0,256,46289,2,0,P|44:249|89:247,1,90,10|0,0:1|0:0,0:0:0:0:
238,349,46623,2,0,P|194:356|149:358,1,90,8|0,0:2|0:0,0:0:0:0:
85,125,46956,1,10,0:1:0:0:
211,158,47122,1,0,0:0:0:0:
337,191,47289,1,8,0:2:0:0:
464,224,47456,1,0,0:0:0:0:
370,64,47622,1,8,0:1:0:0:
370,64,47706,1,8,0:1:0:0:
304,317,47872,1,8,0:1:0:0:
304,317,47956,1,8,0:2:0:0:
344,198,48122,1,8,0:2:0:0:
344,198,48206,1,8,0:2:0:0:
344,198,48289,6,0,B|276:181|276:181|244:195|244:195|160:171,1,180,14|8,0:1|0:2,0:0:0:0:
172,175,48789,1,0,0:0:0:0:
64,224,48956,1,10,0:1:0:0:
123,67,49122,1,0,0:0:0:0:
221,283,49289,1,8,0:2:0:0:
437,185,49456,1,0,0:0:0:0:
389,124,49622,2,0,L|411:325,2,180,10|8|10,0:1|0:2|0:1,0:0:0:0:
436,66,50456,1,0,0:0:0:0:
487,271,50622,1,8,0:2:0:0:
282,322,50789,1,0,0:0:0:0:
200,268,50956,6,0,P|155:261|110:258,1,90,10|0,0:1|0:0,0:0:0:0:
0,373,51289,2,0,P|44:370|89:363,1,90,8|0,0:2|0:0,0:0:0:0:
173,183,51622,1,10,0:1:0:0:
159,107,51789,1,0,0:0:0:0:
83,121,51956,1,8,0:2:0:0:
97,197,52122,1,0,0:0:0:0:
384,224,52289,2,0,P|428:218|471:205,1,90,10|0,0:1|0:0,0:0:0:0:
260,164,52622,2,0,P|216:170|173:183,1,90,8|0,0:2|0:0,0:0:0:0:
310,343,52956,2,0,P|298:300|292:256,1,90,10|0,0:1|0:0,0:0:0:0:
333,45,53289,2,0,P|346:88|351:132,1,90,8|0,0:2|0:0,0:0:0:0:
44,333,53622,6,0,P|4:296|54:209,1,135,10|0,0:1|2:2,0:0:0:0:
5,192,53956,2,0,L|94:183,1,90,8|0,0:2|0:0,0:0:0:0:
256,64,54289,1,10,0:1:0:0:
116,43,54456,1,0,0:0:0:0:
95,183,54622,1,8,0:2:0:0:
235,204,54789,1,0,0:0:0:0:
191,264,54956,2,0,L|180:84,2,180,10|8|10,0:1|0:2|0:1,0:0:0:0:
480,352,55789,1,0,0:0:0:0:
448,256,55956,1,8,0:2:0:0:
159,360,56122,1,0,0:0:0:0:
92,315,56289,6,0,L|272:304,1,180,10|8,0:1|0:2,0:0:0:0:
349,328,56789,1,0,0:0:0:0:
290,383,56956,1,10,0:1:0:0:
331,250,57122,1,0,0:0:0:0:
464,291,57289,1,8,0:2:0:0:
505,158,57456,1,0,0:0:0:0:
331,250,57622,2,0,P|288:260|243:265,1,90,10|0,0:1|0:0,0:0:0:0:
0,160,57956,2,0,P|43:150|88:145,1,90,8|0,0:2|0:0,0:0:0:0:
269,180,58289,1,8,0:0:0:0:
269,180,58372,1,8,0:0:0:0:
269,180,58456,1,8,0:0:0:0:
224,32,58622,1,8,0:0:0:0:
314,328,58789,1,8,0:0:0:0:
314,328,58872,1,8,0:0:0:0:
314,328,58956,5,14,0:1:0:0:
403,339,59122,1,2,0:0:0:0:
474,284,59289,1,10,0:1:0:0:
486,194,59456,2,0,P|478:150|462:108,1,90,2|8,0:0|0:1,0:0:0:0:
486,194,59789,1,2,0:0:0:0:
474,284,59956,1,10,0:1:0:0:
403,339,60123,1,2,0:0:0:0:
313,328,60289,2,0,P|268:329|224:337,1,90,10|0,0:1|0:0,0:0:0:0:
86,384,60622,1,10,0:1:0:0:
141,320,60789,1,2,0:0:0:0:
115,241,60956,2,0,P|70:232|26:231,1,90,10|0,0:1|0:0,0:0:0:0:
170,177,61289,2,0,P|214:175|258:167,1,90,8|0,0:1|0:0,0:0:0:0:
397,0,61622,5,10,0:1:0:0:
347,75,61789,1,2,0:0:0:0:
364,163,61956,1,10,0:1:0:0:
439,214,62122,2,0,P|492:222|530:219,1,90,2|8,0:0|0:1,0:0:0:0:
439,214,62456,1,2,0:0:0:0:
364,163,62622,1,10,0:1:0:0:
274,179,62789,1,2,0:0:0:0:
221,253,62956,1,10,3:1:0:0:
219,270,63039,1,0,3:0:0:0:
217,287,63122,1,0,3:0:0:0:
215,305,63206,1,0,3:0:0:0:
214,322,63289,2,0,L|117:344,1,90,10|0,0:1|0:0,0:0:0:0:
4,297,63622,1,10,3:1:0:0:
6,280,63705,1,0,3:1:0:0:
8,263,63788,1,0,3:1:0:0:
10,245,63872,1,0,3:1:0:0:
11,227,63956,2,0,L|54:218,1,45,8|0,0:1|0:0,0:0:0:0:
142,253,64122,2,0,L|185:243,1,45,8|0,0:1|0:0,0:0:0:0:
340,205,64289,5,10,0:1:0:0:
252,181,64456,1,2,0:0:0:0:
165,158,64622,1,10,0:1:0:0:
77,134,64789,2,0,L|55:46,1,90,2|8,0:0|0:1,0:0:0:0:
165,158,65122,1,2,0:0:0:0:
230,269,65289,2,0,L|252:181,1,90,10|0,0:1|0:0,0:0:0:0:
428,87,65622,2,0,L|449:0,1,90,10|0,0:1|0:0,0:0:0:0:
340,111,65956,1,10,0:1:0:0:
404,175,66122,1,2,0:0:0:0:
468,239,66289,2,0,L|489:326,1,90,10|0,0:1|0:0,0:0:0:0:
416,384,66622,1,10,0:1:0:0:
416,384,66789,1,2,0:0:0:0:
128,256,66956,6,0,P|168:237|212:232,1,90,10|0,0:1|0:0,0:0:0:0:
416,384,67289,2,0,P|371:379|330:361,1,90,10|0,0:1|0:0,0:0:0:0:
220,139,67622,2,0,P|261:154|296:182,1,90,10|0,0:1|0:0,0:0:0:0:
208,379,67956,1,10,0:1:0:0:
208,379,68122,1,10,0:1:0:0:
42,294,68289,1,10,3:1:0:0:
39,276,68372,1,0,3:1:0:0:
36,258,68456,1,0,3:1:0:0:
33,240,68539,1,0,3:1:0:0:
30,222,68622,1,8,3:1:0:0:
27,203,68706,1,0,3:1:0:0:
24,185,68789,1,0,3:1:0:0:
22,167,68872,1,0,3:1:0:0:
20,148,68956,2,0,L|26:103,1,45,10|0,3:1|3:0,0:0:0:0:
151,51,69122,2,0,L|157:95,1,45,10|0,3:1|3:0,0:0:0:0:
282,148,69289,2,0,L|288:103,1,45,10|0,3:1|3:0,0:0:0:0:
413,51,69456,2,0,L|419:95,1,45,10|0,3:1|3:0,0:0:0:0:
417,332,69622,5,14,0:1:0:0:
512,280,69789,1,2,0:0:0:0:
420,224,69956,1,10,0:1:0:0:
324,276,70122,2,0,P|281:285|236:284,1,90,2|8,0:0|0:1,0:0:0:0:
22,260,70455,1,2,0:0:0:0:
65,358,70623,1,10,0:1:0:0:
129,272,70789,1,2,0:0:0:0:
84,172,70956,2,0,P|86:127|98:83,1,90,10|0,0:1|0:0,0:0:0:0:
307,23,71289,1,10,0:1:0:0:
337,128,71455,1,2,0:0:0:0:
232,158,71622,1,10,0:1:0:0:
232,158,71789,1,0,0:0:0:0:
202,53,71956,1,10,0:1:0:0:
202,53,72122,1,0,0:0:0:0:
442,98,72289,5,10,0:1:0:0:
337,128,72456,2,0,L|329:217,1,90,2|8,0:0|0:1,0:0:0:0:
472,203,72789,2,0,L|464:292,1,90,2|8,0:0|0:1,0:0:0:0:
397,378,73122,1,2,0:0:0:0:
363,298,73289,1,10,0:1:0:0:
472,203,73456,1,2,0:0:0:0:
337,128,73622,1,10,3:1:0:0:
318,128,73706,1,0,3:1:0:0:
300,128,73789,1,0,3:1:0:0:
282,128,73872,1,0,3:1:0:0:
263,128,73956,2,0,L|175:109,1,90,10|0,0:1|0:0,0:0:0:0:
36,26,74289,1,10,3:1:0:0:
36,45,74373,1,0,3:0:0:0:
36,63,74456,1,0,3:0:0:0:
36,81,74539,1,0,3:0:0:0:
36,100,74622,2,0,L|45:143,1,45,8|0,0:1|0:0,0:0:0:0:
0,256,74789,2,0,L|43:265,1,45,8|0,0:1|0:0,0:0:0:0:
125,354,74956,5,10,0:1:0:0:
232,345,75122,1,2,0:0:0:0:
339,337,75289,1,10,0:1:0:0:
446,329,75456,2,0,L|460:240,1,90,2|8,0:0|0:1,0:0:0:0:
500,55,75789,1,2,0:0:0:0:
426,136,75956,1,10,0:1:0:0:
319,113,76122,1,2,0:0:0:0:
285,8,76289,2,0,P|294:70|298:198,1,180,10|10,0:1|0:1,0:0:0:0:
229,270,76789,1,2,0:0:0:0:
123,252,76956,1,10,0:1:0:0:
123,252,77122,1,0,0:0:0:0:
267,371,77289,1,10,0:1:0:0:
298,187,77456,1,2,0:0:0:0:
329,3,77622,6,0,P|373:-3|418:-8,1,90,10|0,0:1|0:0,0:0:0:0:
512,192,77956,2,0,P|467:185|422:180,1,90,10|0,0:1|0:0,0:0:0:0:
177,382,78289,2,0,P|222:377|267:371,1,90,10|0,0:1|0:0,0:0:0:0:
380,293,78622,1,10,0:1:0:0:
380,293,78789,1,10,0:1:0:0:
192,128,78956,1,10,3:1:0:0:
194,145,79039,1,0,3:1:0:0:
196,162,79122,1,0,3:1:0:0:
198,179,79206,1,0,3:1:0:0:
200,196,79289,1,8,3:1:0:0:
202,213,79372,1,0,3:1:0:0:
204,230,79456,2,0,L|251:240,1,45,0|0,3:0|3:0,0:0:0:0:
505,124,79622,1,10,3:1:0:0:
450,134,79706,1,8,3:1:0:0:
395,144,79789,2,0,L|350:134,1,45,10|0,3:1|3:0,0:0:0:0:
248,108,79956,2,0,L|203:98,1,45,10|0,3:1|3:0,0:0:0:0:
101,72,80122,2,0,L|56:62,1,45,10|0,3:1|3:0,0:0:0:0:
0,352,80289,6,0,L|87:333,1,90,14|0,0:1|0:0,0:0:0:0:
395,144,80622,2,0,L|376:231,1,90,10|0,0:1|0:0,0:0:0:0:
167,384,80956,2,0,L|185:296,1,90,10|0,0:1|0:0,0:0:0:0:
413,50,81289,2,0,L|325:68,1,90,10|0,0:1|0:0,0:0:0:0:
0,32,81622,2,2,P|61:93|147:79,1,180,10|8,0:1|0:1,0:0:0:0:
511,160,82122,2,2,P|450:220|364:207,1,180,2|0,0:0|0:0,0:0:0:0:
60,96,82622,2,0,P|102:82|147:79,1,90,10|0,0:1|0:0,0:0:0:0:
363,206,82956,5,10,0:1:0:0:
319,34,83122,1,0,0:0:0:0:
191,251,83289,1,8,0:1:0:0:
147,79,83455,1,0,0:0:0:0:
377,111,83623,1,8,0:1:0:0:
133,174,83788,1,0,0:0:0:0:
286,264,83956,1,8,0:1:0:0:
224,21,84121,1,0,0:0:0:0:
45,197,84289,2,2,B|8:277|8:277|58:368,1,180,10|8,0:1|0:1,0:0:0:0:
293,103,84789,2,2,B|330:183|330:183|286:264,1,180,2|0,0:0|0:0,0:0:0:0:
176,384,85289,2,0,L|169:280,1,90,8|0,0:1|0:0,0:0:0:0:
129,15,85622,6,0,P|172:27|216:33,1,90,10|0,0:1|0:0,0:0:0:0:
433,65,85956,2,0,P|420:108|414:152,1,90,10|0,0:1|0:0,0:0:0:0:
383,369,86289,2,0,P|339:356|295:350,1,90,10|0,0:1|0:0,0:0:0:0:
79,319,86622,2,0,P|91:275|97:231,1,90,10|0,0:1|0:0,0:0:0:0:
433,64,86956,2,2,P|347:81|285:21,1,180,10|8,0:1|0:1,0:0:0:0:
0,240,87456,2,2,P|85:256|147:196,1,180,2|0,0:0|0:0,0:0:0:0:
36,53,87956,2,0,P|40:97|50:141,1,90,10|0,0:1|0:0,0:0:0:0:
195,329,88289,5,10,0:1:0:0:
277,298,88456,1,2,0:0:0:0:
262,384,88622,1,8,0:1:0:0:
210,243,88789,1,2,0:0:0:0:
359,267,88955,5,8,0:1:0:0:
195,329,89122,1,2,0:0:0:0:
225,157,89289,1,8,0:1:0:0:
344,353,89455,1,2,0:0:0:0:
128,274,89622,5,8,0:1:0:0:
374,181,89789,1,2,0:0:0:0:
173,15,89955,1,8,0:1:0:0:
195,329,90122,1,2,0:0:0:0:
9,78,90289,5,8,0:1:0:0:
374,181,90456,1,2,0:0:0:0:
70,380,90622,1,8,0:1:0:0:
173,15,90789,1,10,0:1:0:0:
438,287,90956,6,0,P|481:296|526:296,1,90,14|0,0:1|0:0,0:0:0:0:
97,87,91289,2,0,P|53:78|9:78,1,90,10|0,0:1|0:0,0:0:0:0:
441,154,91622,2,0,P|479:129|511:97,1,90,10|0,0:1|0:0,0:0:0:0:
59,252,91956,2,0,P|22:277|-9:308,1,90,10|0,0:1|0:0,0:0:0:0:
352,209,92289,2,2,B|391:257|409:302|409:302|386:344|383:391,1,180,10|8,0:1|0:1,0:0:0:0:
59,252,92789,2,2,B|107:213|152:195|152:195|194:217|241:221,1,180,2|0,0:0|0:0,0:0:0:0:
512,151,93289,2,0,P|470:132|428:118,1,90,10|0,0:1|0:0,0:0:0:0:
157,286,93622,5,10,0:1:0:0:
261,56,93788,1,0,0:0:0:0:
157,286,93956,1,8,0:1:0:0:
261,56,94122,1,0,0:0:0:0:
323,223,94289,1,8,0:1:0:0:
95,119,94455,1,0,0:0:0:0:
323,223,94623,1,8,0:1:0:0:
95,119,94789,1,0,0:0:0:0:
297,306,94956,2,2,P|384:292|411:205,1,180,10|8,0:1|0:1,0:0:0:0:
115,353,95456,2,2,P|27:339|0:252,1,180,2|0,0:0|0:0,0:0:0:0:
196,284,95956,2,0,L|210:380,1,90,8|0,0:1|0:0,0:0:0:0:
95,119,96289,6,0,L|81:29,1,90,10|0,0:1|0:0,0:0:0:0:
417,265,96622,2,0,L|430:354,1,90,10|0,0:1|0:0,0:0:0:0:
93,366,96956,2,0,L|183:353,1,90,10|0,0:1|0:0,0:0:0:0:
418,17,97289,2,0,L|329:31,1,90,10|0,0:1|0:0,0:0:0:0:
22,183,97622,2,2,B|98:198|98:198|122:225|122:225|193:239,1,180,10|8,0:1|0:1,0:0:0:0:
480,102,98122,2,2,B|404:117|404:117|380:144|380:144|309:158,1,180,2|0,0:0|0:0,0:0:0:0:
296,384,98622,2,0,L|284:284,1,90,10|0,0:1|0:0,0:0:0:0:
32,64,98956,5,10,0:1:0:0:
0,288,99122,1,0,0:0:0:0:
192,64,99289,5,8,0:1:0:0:
160,288,99455,1,0,0:0:0:0:
352,64,99622,5,8,0:1:0:0:
320,288,99788,1,0,0:0:0:0:
512,64,99955,5,8,0:1:0:0:
480,288,100121,1,0,0:0:0:0:
16,176,100289,5,10,0:1:0:0:
176,176,100456,1,0,0:0:0:0:
336,176,100622,1,8,0:1:0:0:
496,176,100789,1,0,0:0:0:0:
256,352,100956,1,8,0:1:0:0:
256,352,101039,1,8,0:1:0:0:
256,352,101122,1,8,0:1:0:0:
256,32,101289,1,8,0:1:0:0:
256,192,101456,1,8,0:1:0:0:
256,32,101622,1,12,0:1:0:0:
256,32,101789,1,8,0:1:0:0:
256,352,102456,1,8,0:1:0:0:
75,87,102622,1,2,0:2:0:0:
118,98,102706,1,0,0:2:0:0:
162,109,102789,1,0,0:2:0:0:
205,120,102872,1,0,0:2:0:0:
249,132,102956,6,2,P|331:104|346:-12,1,215.999993408203,14|8,0:1|0:2,0:0:0:0:
96,192,103456,1,2,0:0:0:0:
256,32,103622,1,8,0:1:0:0:
315,251,103789,1,0,0:0:0:0:
130,65,103956,2,0,P|77:55|23:51,1,107.999996704102,10|0,0:2|0:0,0:0:0:0:
348,124,104289,2,0,P|400:113|454:109,1,107.999996704102,10|0,0:1|0:0,0:0:0:0:
187,296,104622,5,8,0:2:0:0:
253,181,104789,1,0,0:0:0:0:
277,271,104956,1,8,0:1:0:0:
163,206,105122,1,0,0:0:0:0:
358,318,105289,5,10,0:2:0:0:
82,159,105456,1,2,0:0:0:0:
358,0,105622,2,2,P|341:98|241:106,1,215.999993408203,10|8,0:1|0:2,0:0:0:0:
69,29,106122,5,2,0:0:0:0:
69,29,106206,1,0,0:0:0:0:
69,29,106289,1,8,0:1:0:0:
175,170,106456,1,0,0:0:0:0:
106,333,106622,1,10,0:2:0:0:
0,192,106789,1,0,0:0:0:0:
271,308,106956,6,0,P|347:314|400:305,1,107.999996704102,10|0,0:1|0:0,0:0:0:0:
97,233,107289,2,0,P|44:275|6:325,1,107.999996704102,8|0,0:2|0:0,0:0:0:0:
344,212,107622,2,0,P|373:152|381:94,1,107.999996704102,8|0,0:1|0:0,0:0:0:0:
97,233,107956,5,10,0:2:0:0:
239,156,108122,1,2,0:0:0:0:
270,312,108289,2,2,P|189:382|83:361,1,215.999993408203,10|8,0:1|0:2,0:0:0:0:
43,100,108789,5,2,0:0:0:0:
164,286,108956,1,8,0:1:0:0:
196,132,109122,1,0,0:0:0:0:
10,253,109289,1,8,0:2:0:0:
196,132,109456,1,0,0:0:0:0:
317,318,109622,2,2,B|397:330|397:330|429:364|429:364|523:378,1,215.999993408203,10|8,0:1|0:2,0:0:0:0:
199,223,110122,2,2,B|119:235|119:235|87:269|87:269|-7:283,1,215.999993408203,2|0,0:0|0:0,0:0:0:0:
293,384,110622,2,0,L|317:278,1,107.999996704102,10|0,0:2|0:0,0:0:0:0:
477,63,110956,5,10,0:1:0:0:
371,133,111122,1,0,0:0:0:0:
258,75,111289,1,8,0:2:0:0:
484,190,111456,5,2,0:0:0:0:
363,5,111622,1,8,0:1:0:0:
265,203,111789,1,0,0:0:0:0:
78,61,111956,5,10,0:2:0:0:
371,133,112122,1,0,0:0:0:0:
162,350,112289,2,0,L|46:368,1,107.999996704102,10|0,0:1|0:0,0:0:0:0:
371,133,112622,2,0,L|389:17,1,107.999996704102,10|0,0:2|0:0,0:0:0:0:
0,178,112956,5,10,0:1:0:0:
0,178,113122,1,8,0:1:0:0:
0,178,113289,1,10,0:2:0:0:
210,195,113456,1,10,0:1:0:0:
420,214,113622,2,2,B|466:191|466:191|490:95|421:45,1,215.999993408203,14|8,0:1|0:2,0:0:0:0:
310,307,114122,5,2,0:0:0:0:
84,98,114289,1,8,0:1:0:0:
390,135,114456,1,0,0:0:0:0:
120,285,114622,2,0,P|67:293|13:293,1,107.999996704102,10|0,0:2|0:0,0:0:0:0:
390,135,114956,2,0,P|443:134|497:143,1,107.999996704102,10|0,0:1|0:0,0:0:0:0:
512,355,115289,5,8,0:2:0:0:
411,369,115456,1,0,0:0:0:0:
349,290,115622,1,8,0:1:0:0:
449,275,115789,1,0,0:0:0:0:
390,135,115956,5,10,0:2:0:0:
311,384,116122,1,2,0:0:0:0:
62,305,116289,2,2,L|28:86,1,215.999993408203,10|8,0:1|0:2,0:0:0:0:
192,0,116789,1,2,0:0:0:0:
192,0,116872,1,0,0:0:0:0:
192,0,116956,1,8,0:1:0:0:
132,207,117122,1,0,0:0:0:0:
355,258,117289,1,10,0:2:0:0:
408,33,117456,1,0,0:0:0:0:
486,108,117622,6,0,P|435:126|382:134,1,107.999996704102,10|0,0:1|0:0,0:0:0:0:
68,34,117956,2,0,P|109:69|143:111,1,107.999996704102,8|0,0:2|0:0,0:0:0:0:
200,384,118289,2,0,P|208:330|228:280,1,107.999996704102,8|0,0:1|0:0,0:0:0:0:
408,266,118622,5,10,0:2:0:0:
259,106,118789,1,2,0:0:0:0:
83,236,118956,2,2,P|20:216|29:81,1,215.999993408203,10|8,0:1|0:2,0:0:0:0:
279,31,119456,5,2,0:0:0:0:
84,150,119622,1,8,0:1:0:0:
338,113,119789,1,0,0:0:0:0:
84,150,119956,1,8,0:2:0:0:
397,195,120122,1,0,0:0:0:0:
5,45,120289,6,2,P|10:152|20:260,1,215.999993408203,10|8,0:1|0:2,0:0:0:0:
507,339,120789,2,2,P|501:231|491:123,1,215.999993408203,2|0,0:0|0:0,0:0:0:0:
493,13,121289,2,0,P|440:27|387:34,1,107.999996704102,10|0,0:2|0:0,0:0:0:0:
104,250,121622,5,10,0:1:0:0:
407,133,121789,1,0,0:0:0:0:
130,90,121956,5,10,0:2:0:0:
381,293,122123,1,0,0:0:0:0:
281,31,122289,5,10,0:1:0:0:
230,352,122456,1,0,0:0:0:0:
256,192,122622,5,10,0:2:0:0:
256,192,122706,1,0,0:0:0:0:
256,192,122789,1,0,0:0:0:0:
111,76,122956,5,10,0:1:0:0:
400,307,123122,1,0,0:0:0:0:
371,47,123288,1,10,0:2:0:0:
140,336,123455,1,0,0:0:0:0:
256,192,123622,5,10,0:1:0:0:
256,192,123789,1,8,0:1:0:0:
32,160,123956,1,10,0:2:0:0:
480,224,124122,1,10,0:2:0:0:
32,160,124289,6,0,P|9:99|5:46,1,107.999996704102,14|0,0:1|0:0,0:0:0:0:
160,0,124622,1,10,0:2:0:0:
81,242,124789,2,2,P|154:169|256:192,1,215.999993408203,2|0,0:0|0:0,0:0:0:0:
218,384,125289,2,0,P|195:323|191:270,1,107.999996704102,10|0,0:2|0:0,0:0:0:0:
410,53,125622,5,10,0:1:0:0:
395,169,125789,1,0,0:0:0:0:
379,284,125956,1,8,0:2:0:0:
329,13,126122,5,2,0:0:0:0:
395,169,126289,1,8,0:1:0:0:
461,325,126456,1,0,0:0:0:0:
491,12,126622,5,10,0:2:0:0:
491,12,126789,1,0,0:0:0:0:
298,325,126956,6,2,P|191:345|84:357,1,215.999993408203,10|10,0:1|0:2,0:0:0:0:
214,59,127456,2,2,P|320:38|427:26,1,215.999993408203,2|0,0:0|0:0,0:0:0:0:
512,100,127956,2,0,P|458:106|405:116,1,107.999996704102,10|0,0:2|0:0,0:0:0:0:
53,224,128289,5,10,0:1:0:0:
171,157,128456,1,0,0:0:0:0:
237,276,128622,1,8,0:2:0:0:
119,342,128789,1,0,0:0:0:0:
20,320,128956,5,10,0:1:0:0:
74,123,129123,1,0,0:0:0:0:
270,180,129289,1,8,0:2:0:0:
215,375,129456,1,0,0:0:0:0:
512,352,129622,6,2,P|502:251|403:235,1,215.999993408203,14|10,0:1|0:2,0:0:0:0:
3,167,130122,2,2,P|12:66|111:50,1,215.999993408203,2|0,0:0|0:0,0:0:0:0:
189,120,130622,2,0,L|200:230,1,107.999996704102,10|0,0:2|0:0,0:0:0:0:
51,344,130956,5,10,0:1:0:0:
66,228,131123,1,0,0:0:0:0:
82,113,131290,1,8,0:2:0:0:
132,384,131456,5,2,0:0:0:0:
66,228,131623,1,8,0:1:0:0:
0,72,131790,1,0,0:0:0:0:
230,363,131956,5,10,0:2:0:0:
230,363,132039,1,0,0:0:0:0:
230,363,132122,1,0,0:0:0:0:
349,122,132289,5,10,0:1:0:0:
325,285,132456,1,0,0:0:0:0:
162,261,132622,1,8,0:2:0:0:
186,98,132789,1,0,0:0:0:0:
427,217,132956,5,10,0:1:0:0:
84,166,133123,1,0,0:0:0:0:
281,20,133289,1,8,0:2:0:0:
230,363,133456,1,0,0:0:0:0:
141,37,133622,5,10,0:1:0:0:
141,37,133706,1,0,0:0:0:0:
141,37,133789,1,0,0:0:0:0:
369,344,133956,1,10,0:2:0:0:
408,77,134122,1,2,0:0:0:0:
102,305,134289,1,8,0:1:0:0:
102,305,134372,1,8,0:2:0:0:
102,305,134456,1,8,0:1:0:0:
461,222,134622,5,8,0:2:0:0:
49,160,134789,1,8,0:1:0:0:
461,222,134956,2,0,P|485:174|480:121,1,107.999996704102,14|0,0:1|0:0,0:0:0:0:
355,25,135289,1,10,0:2:0:0:
217,215,135456,2,2,P|288:140|391:151,1,215.999993408203,2|0,0:0|0:0,0:0:0:0:
503,320,135956,2,0,P|449:313|397:299,1,107.999996704102,10|0,0:2|0:0,0:0:0:0:
37,332,136289,5,10,0:1:0:0:
140,259,136456,1,0,0:0:0:0:
255,311,136622,1,8,0:2:0:0:
25,207,136789,5,2,0:0:0:0:
153,384,136956,1,8,0:1:0:0:
242,186,137122,1,0,0:0:0:0:
140,259,137288,5,10,0:2:0:0:
140,259,137372,1,0,0:0:0:0:
140,259,137455,1,0,0:0:0:0:
0,64,137622,6,2,P|106:48|214:40,1,215.999993408203,10|10,0:1|0:2,0:0:0:0:
512,320,138122,2,2,P|405:335|297:343,1,215.999993408203,2|0,0:0|0:0,0:0:0:0:
197,384,138622,2,0,P|200:330|208:276,1,107.999996704102,10|0,0:2|0:0,0:0:0:0:
467,151,138956,5,10,0:1:0:0:
349,218,139123,1,0,0:0:0:0:
283,99,139289,1,8,0:2:0:0:
401,33,139456,1,0,0:0:0:0:
500,55,139623,5,10,0:1:0:0:
305,0,139790,1,0,0:0:0:0:
250,195,139957,1,8,0:2:0:0:
446,252,140123,1,0,0:0:0:0:
305,0,140289,6,2,L|91:30,1,215.999993408203,14|10,0:1|0:2,0:0:0:0:
207,384,140789,2,2,L|420:353,1,215.999993408203,2|0,0:0|0:0,0:0:0:0:
512,240,141289,2,0,L|405:255,1,107.999996704102,10|0,0:2|0:0,0:0:0:0:
76,131,141622,5,10,0:1:0:0:
283,174,141789,1,0,0:0:0:0:
141,332,141956,1,8,0:2:0:0:
309,54,142122,5,2,0:0:0:0:
167,212,142289,1,8,0:1:0:0:
375,256,142456,1,0,0:0:0:0:
50,251,142622,5,10,0:2:0:0:
50,251,142706,1,0,0:0:0:0:
50,251,142789,1,0,0:0:0:0:
401,136,142956,6,0,L|407:82,3,53.9999983520508,10|0|0|0,3:1|3:0|3:0|3:0,0:0:0:0:
459,239,143289,2,0,L|512:245,3,53.9999983520508,8|0|0|0,3:2|3:0|3:0|3:0,0:0:0:0:
254,384,143622,2,0,L|261:330,1,53.9999983520508,8|0,3:1|3:1,0:1:0:0:
325,185,143789,2,0,L|317:237,1,53.9999983520508,8|0,3:1|3:0,0:0:0:0:
189,248,143956,2,0,L|242:255,1,53.9999983520508,8|0,3:2|3:0,0:0:0:0:
389,319,144123,2,0,L|335:311,1,53.9999983520508,8|0,3:1|3:0,0:0:0:0:
96,352,144289,1,8,3:1:0:0:
92,325,144372,1,0,3:0:0:0:
88,298,144455,1,0,3:0:0:0:
84,271,144539,1,0,3:0:0:0:
80,245,144622,1,8,3:2:0:0:
77,218,144705,1,0,3:0:0:0:
73,191,144789,1,0,3:0:0:0:
69,164,144872,1,0,3:0:0:0:
65,138,144956,5,8,0:1:0:0:
127,180,145039,1,8,0:1:0:0:
107,253,145122,1,8,0:1:0:0:
29,257,145206,1,8,0:1:0:0:
6,188,145289,1,8,0:1:0:0:
6,188,145622,6,0,L|185:206,1,180,14|8,0:1|0:2,0:0:0:0:
236,266,146122,1,0,0:0:0:0:
159,281,146289,1,10,0:1:0:0:
211,107,146456,1,0,0:0:0:0:
384,159,146622,1,8,0:2:0:0:
332,333,146789,1,0,0:0:0:0:
390,384,146956,2,0,L|367:205,2,180,10|8|10,0:1|0:2|0:1,0:0:0:0:
495,224,147789,1,0,0:0:0:0:
256,352,147956,1,8,0:2:0:0:
17,224,148122,1,0,0:0:0:0:
88,303,148289,6,0,P|95:258|108:215,1,90,10|0,0:1|0:0,0:0:0:0:
5,50,148622,2,0,P|17:93|25:137,1,90,8|0,0:2|0:0,0:0:0:0:
183,277,148956,1,10,0:1:0:0:
305,199,149122,1,0,0:0:0:0:
311,343,149289,1,8,0:2:0:0:
266,272,149456,1,0,0:0:0:0:
469,282,149622,2,0,P|501:224|479:162,1,135,10|0,0:1|2:0,0:0:0:0:
484,128,149956,2,0,L|394:115,1,90,8|0,0:2|0:0,0:0:0:0:
207,41,150289,1,10,0:1:0:0:
463,3,150456,1,0,0:0:0:0:
335,22,150622,1,8,0:1:0:0:
335,22,150789,1,8,0:1:0:0:
37,62,150956,6,0,P|11:143|74:201,2,180,10|8|10,0:1|0:2|0:1,0:0:0:0:
235,7,151789,1,0,0:0:0:0:
184,205,151956,1,8,0:2:0:0:
37,62,152122,1,0,0:0:0:0:
290,118,152289,2,0,P|334:113|379:108,1,90,10|0,0:1|0:0,0:0:0:0:
512,28,152622,2,0,P|467:23|422:18,1,90,8|0,0:2|0:0,0:0:0:0:
198,33,152956,1,10,0:1:0:0:
306,206,153122,1,0,0:0:0:0:
512,198,153289,1,8,0:2:0:0:
403,24,153456,1,0,0:0:0:0:
295,233,153622,6,0,L|281:367,1,135,10|0,0:1|2:2,0:0:0:0:
258,377,153956,2,0,L|168:385,1,90,8|0,0:2|0:0,0:0:0:0:
0,265,154289,1,10,0:1:0:0:
72,232,154456,1,0,0:0:0:0:
105,304,154622,1,8,0:2:0:0:
33,337,154789,1,0,0:0:0:0:
110,127,154956,2,0,P|154:117|199:110,1,90,10|0,0:1|0:0,0:0:0:0:
384,224,155289,2,0,P|340:214|295:207,1,90,8|0,0:2|0:0,0:0:0:0:
113,311,155622,1,8,0:1:0:0:
113,311,155706,1,8,0:2:0:0:
113,311,155789,1,8,0:1:0:0:
311,132,155956,1,8,0:2:0:0:
506,344,156122,1,8,0:2:0:0:
311,132,156289,6,0,P|226:113|165:174,2,180,14|8|10,0:1|0:2|0:1,0:0:0:0:
392,315,157122,1,0,0:0:0:0:
392,91,157289,1,8,0:2:0:0:
311,356,157456,1,0,0:0:0:0:
473,274,157622,2,0,L|294:252,1,180,10|8,0:1|0:2,0:0:0:0:
294,252,158122,1,0,0:0:0:0:
224,320,158289,1,10,0:1:0:0:
160,160,158456,1,0,0:0:0:0:
128,352,158622,1,8,0:2:0:0:
64,96,158789,1,0,0:0:0:0:
21,382,158956,6,0,P|35:333|40:284,1,90,10|0,0:1|0:0,0:0:0:0:
160,160,159289,2,0,P|165:204|178:247,1,90,8|0,0:2|0:0,0:0:0:0:
325,330,159622,1,10,0:1:0:0:
202,357,159789,1,0,0:0:0:0:
325,330,159956,1,8,0:2:0:0:
202,357,160122,1,0,0:0:0:0:
434,300,160289,2,0,P|450:257|461:214,1,90,10|0,0:1|0:0,0:0:0:0:
349,23,160622,2,0,P|333:65|321:108,1,90,8|0,0:2|0:0,0:0:0:0:
271,232,160956,2,0,P|314:216|357:205,1,90,10|0,0:1|0:0,0:0:0:0:
512,91,161289,2,0,P|469:106|426:117,1,90,8|0,0:2|0:0,0:0:0:0:
128,20,161622,6,0,P|205:56|216:153,2,180,10|8|10,0:1|0:2|0:1,0:0:0:0:
0,224,162456,1,0,0:0:0:0:
32,0,162622,1,8,0:2:0:0:
77,277,162789,1,0,0:0:0:0:
130,200,162956,2,0,P|218:182|307:170,1,180,10|8,0:1|0:2,0:0:0:0:
370,123,163456,1,0,0:0:0:0:
298,92,163622,1,10,0:1:0:0:
308,292,163789,1,0,0:0:0:0:
130,200,163955,1,8,0:2:0:0:
476,184,164122,1,0,0:0:0:0:
400,254,164289,6,0,P|388:188|369:123,1,135,10|0,0:1|2:0,0:0:0:0:
387,101,164622,2,0,L|298:92,1,90,8|0,0:2|0:0,0:0:0:0:
14,78,164956,1,10,0:1:0:0:
78,35,165122,1,0,0:0:0:0:
155,52,165289,1,8,0:2:0:0:
198,117,165456,1,0,0:0:0:0:
110,298,165622,2,0,P|67:309|23:316,1,90,10|0,0:1|0:0,0:0:0:0:
198,117,165956,2,0,P|241:105|285:98,1,90,8|0,0:2|0:0,0:0:0:0:
509,257,166289,1,8,3:2:0:0:
481,251,166372,1,8,3:2:0:0:
453,245,166455,1,8,3:2:0:0:
426,239,166539,1,8,3:2:0:0:
398,233,166622,1,8,3:2:0:0:
371,227,166705,1,8,3:2:0:0:
343,221,166789,1,8,3:2:0:0:
316,215,166872,1,8,3:2:0:0:
288,209,166956,5,14,0:1:0:0:
261,304,167123,1,2,0:0:0:0:
166,329,167289,1,10,0:1:0:0:
95,258,167456,2,0,P|50:249|6:247,1,90,2|8,0:0|0:1,0:0:0:0:
95,258,167789,1,2,0:0:0:0:
166,329,167956,1,10,0:1:0:0:
261,304,168122,1,2,0:0:0:0:
288,209,168289,2,0,P|332:200|376:195,1,90,10|0,0:1|0:0,0:0:0:0:
509,275,168622,1,10,0:1:0:0:
466,197,168789,1,2,0:0:0:0:
512,120,168956,1,10,0:1:0:0:
512,120,169122,1,0,0:0:0:0:
469,42,169289,1,10,0:1:0:0:
469,42,169455,1,0,0:0:0:0:
466,353,169622,5,10,0:1:0:0:
367,343,169789,1,2,0:0:0:0:
268,332,169956,1,10,0:1:0:0:
169,322,170122,2,0,L|61:343,1,90,2|8,0:0|0:1,0:0:0:0:
169,322,170456,1,2,0:0:0:0:
179,223,170623,1,10,0:1:0:0:
190,124,170790,1,2,0:0:0:0:
200,25,170956,1,10,3:1:0:0:
217,22,171039,1,0,3:1:0:0:
234,19,171122,1,0,3:1:0:0:
251,16,171206,1,0,3:1:0:0:
268,13,171289,2,0,L|376:29,1,90,10|0,0:1|0:0,0:0:0:0:
475,114,171622,1,10,3:1:0:0:
458,117,171705,1,0,3:1:0:0:
441,120,171788,1,0,3:1:0:0:
424,123,171872,1,0,3:1:0:0:
406,126,171955,2,0,L|362:119,1,45,8|0,0:1|0:0,0:0:0:0:
267,159,172122,2,0,L|222:152,1,45,8|0,0:1|0:0,0:0:0:0:
64,32,172289,6,0,P|81:120|90:209,1,180,10|10,0:1|0:1,0:0:0:0:
8,374,172789,2,0,P|13:329|26:286,1,90,2|8,0:0|0:1,0:0:0:0:
91,210,173122,1,2,0:0:0:0:
178,256,173289,1,10,0:1:0:0:
270,219,173456,1,2,0:0:0:0:
354,267,173622,2,0,P|436:295|508:239,1,180,10|10,0:1|0:1,0:0:0:0:
458,156,174122,1,2,0:0:0:0:
503,68,174289,2,0,P|458:64|414:52,1,90,10|0,0:1|0:0,0:0:0:0:
337,0,174622,1,10,0:1:0:0:
337,0,174789,1,2,0:0:0:0:
102,86,174956,6,0,P|144:103|188:112,1,90,10|0,0:1|0:0,0:0:0:0:
415,52,175289,2,0,P|370:60|329:77,1,90,10|0,0:1|0:0,0:0:0:0:
269,305,175622,2,0,P|283:262|290:218,1,90,10|0,0:1|0:0,0:0:0:0:
246,57,175956,1,10,0:1:0:0:
246,57,176122,1,10,0:1:0:0:
458,129,176289,1,10,3:1:0:0:
459,146,176372,1,0,3:1:0:0:
461,164,176455,1,0,3:1:0:0:
462,182,176539,1,0,3:1:0:0:
464,200,176622,1,8,3:1:0:0:
466,218,176705,1,0,3:1:0:0:
467,236,176789,1,0,3:1:0:0:
469,254,176872,1,0,3:1:0:0:
471,272,176956,2,0,L|462:316,1,45,10|0,3:1|3:0,0:0:0:0:
352,384,177122,2,0,L|343:339,1,45,10|0,3:1|3:0,0:0:0:0:
233,272,177289,2,0,L|224:316,1,45,10|0,3:1|3:0,0:0:0:0:
114,384,177456,2,0,L|105:339,1,45,10|0,3:1|3:0,0:0:0:0:
14,130,177622,6,0,P|79:116|127:227,1,188.999994232178,14|8,0:1|0:1,0:0:0:0:
21,383,178289,2,0,P|36:289|57:197,1,188.999994232178,10|8,0:2|0:1,0:0:0:0:
0,32,178956,2,0,P|68:91|156:69,1,188.999994232178,10|8,0:1|0:1,0:3:0:0:
318,34,179622,2,0,P|287:26|256:20,1,62.9999980773926,10|0,0:2|0:0,0:0:0:0:
101,162,179956,1,8,0:1:0:0:
101,162,180039,1,8,0:1:0:0:
101,162,180122,1,8,0:1:0:0:
101,162,180206,1,8,0:1:0:0:
101,162,180289,6,0,P|192:140|286:125,1,188.999994232178,10|8,0:1|0:1,0:0:0:0:
404,327,180956,2,0,P|344:259|370:172,1,188.999994232178,10|8,0:2|0:1,0:0:0:0:
512,241,181622,1,10,3:1:0:0:
477,268,181706,1,0,3:0:0:0:
442,239,181790,1,0,3:0:0:0:
456,198,181873,1,0,3:0:0:0:
501,199,181956,1,10,3:2:0:0:
0,241,182289,1,10,3:1:0:0:
35,268,182373,1,0,3:0:0:0:
70,239,182457,1,0,3:0:0:0:
56,198,182540,1,0,3:0:0:0:
11,199,182623,1,10,3:2:0:0:
256,384,182956,5,14,0:1:0:0:
320,256,183122,1,2,0:0:0:0:
218,155,183289,1,10,0:2:0:0:
282,26,183456,2,0,P|325:15|370:9,1,90,2|8,0:0|0:1,0:0:0:0:
512,224,183789,1,2,0:0:0:0:
442,117,183956,1,10,0:2:0:0:
335,187,184122,1,2,0:0:0:0:
220,134,184289,2,0,P|204:91|194:47,1,90,10|0,0:1|0:0,0:0:0:0:
64,0,184622,1,10,0:2:0:0:
194,47,184789,1,2,0:0:0:0:
88,136,184956,2,0,P|72:178|62:222,1,90,10|0,0:1|0:0,0:0:0:0:
96,352,185289,1,10,0:2:0:0:
96,352,185456,1,2,0:0:0:0:
287,192,185622,6,0,P|331:179|375:174,1,90,10|0,0:1|0:0,0:0:0:0:
183,369,185956,2,0,P|139:364|96:352,1,90,10|0,0:2|0:0,0:0:0:0:
134,126,186289,2,0,P|156:164|173:206,1,90,10|0,0:1|0:0,0:0:0:0:
1,324,186622,1,10,0:2:0:0:
1,324,186789,1,10,0:1:0:0:
219,286,186956,1,10,3:1:0:0:
245,289,187039,1,0,3:2:0:0:
272,293,187122,1,0,3:2:0:0:
299,296,187206,1,0,3:2:0:0:
326,300,187289,1,8,3:2:0:0:
352,303,187372,1,0,3:2:0:0:
379,307,187456,2,0,L|422:297,1,45,0|0,3:2|3:2,0:0:0:0:
512,126,187622,1,10,3:1:0:0:
457,116,187706,1,8,3:1:0:0:
402,106,187789,2,0,L|357:116,1,45,10|0,3:1|3:0,0:0:0:0:
201,212,187956,2,0,L|244:202,1,45,10|0,3:2|3:0,0:0:0:0:
444,203,188122,2,0,L|399:213,1,45,10|8,3:2|3:2,0:0:0:0:
112,47,188289,6,0,L|202:67,1,90,14|0,0:1|0:0,0:0:0:0:
400,337,188622,2,0,L|312:317,1,90,10|0,0:2|0:0,0:0:0:0:
111,336,188956,2,0,L|130:248,1,90,10|0,0:1|0:0,0:0:0:0:
401,48,189289,2,0,L|381:138,1,90,10|0,0:2|0:0,0:0:0:0:
22,170,189622,2,2,B|52:125|52:125|119:115|166:166,1,180,10|8,0:1|0:2,0:0:0:0:
503,251,190122,2,2,B|472:206|472:206|405:196|358:247,1,180,2|0,0:0|0:0,0:0:0:0:
172,384,190622,2,0,P|190:344|199:300,1,90,10|0,0:2|0:0,0:0:0:0:
106,59,190956,5,10,0:1:0:0:
119,260,191122,1,0,0:0:0:0:
227,90,191289,1,8,0:2:0:0:
40,165,191456,1,0,0:0:0:0:
236,215,191622,1,8,0:1:0:0:
40,165,191789,1,0,0:0:0:0:
227,90,191956,1,8,0:2:0:0:
119,260,192123,1,0,0:0:0:0:
105,59,192289,2,2,P|184:90|245:31,1,180,10|8,0:1|0:2,0:0:0:0:
0,221,192789,2,2,P|86:195|174:178,1,180,2|0,0:0|0:0,0:0:0:0:
352,224,193289,1,8,0:2:0:0:
352,224,193372,1,0,0:0:0:0:
352,224,193456,1,0,0:0:0:0:
331,62,193622,6,0,P|374:71|419:74,1,90,10|0,0:1|0:0,0:0:0:0:
126,117,193956,2,0,P|135:73|138:28,1,90,10|0,0:2|0:0,0:0:0:0:
181,322,194289,2,0,P|137:312|92:309,1,90,10|0,0:1|0:0,0:0:0:0:
386,267,194622,2,0,P|376:310|373:355,1,90,10|0,0:2|0:0,0:0:0:0:
125,116,194956,2,2,P|209:142|280:85,1,180,10|8,0:1|0:2,0:0:0:0:
14,48,195456,2,2,P|34:135|46:224,1,180,2|0,0:0|0:0,0:0:0:0:
0,352,195956,2,0,P|42:338|94:332,1,90,10|0,0:2|0:0,0:0:0:0:
352,384,196289,5,10,0:1:0:0:
416,256,196456,1,2,0:0:0:0:
320,287,196622,1,8,0:2:0:0:
448,352,196789,1,2,0:0:0:0:
253,364,196956,5,8,0:1:0:0:
416,256,197122,1,2,0:0:0:0:
192,224,197289,1,8,0:2:0:0:
320,287,197456,1,2,0:0:0:0:
354,65,197622,5,8,0:1:0:0:
223,294,197789,1,2,0:0:0:0:
130,84,197956,1,8,0:2:0:0:
512,225,198122,1,2,0:0:0:0:
256,0,198289,5,8,0:1:0:0:
256,0,198372,1,8,0:1:0:0:
256,0,198456,1,10,0:1:0:0:
102,347,198622,1,8,0:2:0:0:
512,225,198789,1,10,0:1:0:0:
35,59,198956,6,0,P|46:102|55:146,1,90,14|0,0:1|0:0,0:0:0:0:
202,381,199289,2,0,P|211:337|223:294,1,90,10|0,0:2|0:0,0:0:0:0:
325,53,199622,2,0,P|336:96|345:140,1,90,10|0,0:1|0:0,0:0:0:0:
492,375,199955,2,0,P|500:330|512:287,1,90,10|0,0:2|0:0,0:0:0:0:
256,203,200289,2,2,P|330:248|414:223,1,180,10|8,0:1|0:2,0:0:0:0:
131,24,200789,2,2,P|151:111|167:200,1,180,2|0,0:0|0:0,0:0:0:0:
73,351,201289,2,0,P|81:306|92:263,1,90,10|0,0:2|0:0,0:0:0:0:
256,64,201622,5,10,0:1:0:0:
64,128,201789,1,0,0:0:0:0:
272,160,201956,1,8,0:2:0:0:
107,47,202122,1,0,0:0:0:0:
272,56,202289,1,8,0:1:0:0:
41,133,202456,1,0,0:0:0:0:
291,172,202623,1,8,0:2:0:0:
93,36,202789,1,0,0:0:0:0:
84,301,202956,2,2,P|158:248|153:155,1,180,10|8,0:1|0:2,0:0:0:0:
439,129,203456,2,2,P|376:188|291:172,1,180,2|0,0:0|0:0,0:0:0:0:
231,55,203956,1,8,0:2:0:0:
231,55,204039,1,0,0:0:0:0:
231,55,204122,1,0,0:0:0:0:
183,295,204289,6,0,P|139:307|95:316,1,90,10|0,0:1|0:0,0:0:0:0:
329,89,204622,2,0,P|372:76|416:67,1,90,10|0,0:2|0:0,0:0:0:0:
153,119,204956,2,0,P|140:75|131:31,1,90,10|0,0:1|0:0,0:0:0:0:
359,265,205289,2,0,P|371:308|380:352,1,90,10|0,0:2|0:0,0:0:0:0:
32,221,205622,2,2,B|57:179|95:178|95:178|130:216|195:227,1,180,10|8,0:1|0:2,0:0:0:0:
475,170,206122,2,2,B|450:128|412:127|412:127|377:165|312:176,1,180,2|0,0:0|0:0,0:0:0:0:
255,350,206622,2,0,P|269:307|275:262,1,90,10|0,0:2|0:0,0:0:0:0:
128,32,206956,5,10,0:1:0:0:
384,32,207122,1,0,0:0:0:0:
115,142,207289,5,8,0:2:0:0:
396,142,207455,1,0,0:0:0:0:
102,247,207622,5,8,0:1:0:0:
409,247,207788,1,0,0:0:0:0:
89,352,207956,5,8,0:2:0:0:
422,352,208122,1,0,0:0:0:0:
256,0,208289,5,10,0:1:0:0:
256,128,208456,1,0,0:0:0:0:
256,256,208622,1,8,0:2:0:0:
256,384,208789,1,0,0:0:0:0:
146,64,208956,5,8,0:1:0:0:
146,64,209039,1,8,0:1:0:0:
146,64,209122,1,8,0:1:0:0:
422,352,209289,1,8,0:2:0:0:
384,64,209456,2,0,L|348:104,1,45,8|8,0:2|0:2,0:0:0:0:
96,352,209622,1,12,0:1:0:0:
96,352,209789,1,8,0:1:0:0:
422,352,210456,1,8,0:1:0:0:
163,121,210622,1,2,0:2:0:0:
171,176,210705,1,0,0:2:0:0:
180,232,210788,1,0,0:2:0:0:
189,287,210872,1,0,0:2:0:0:
197,343,210956,6,2,P|288:389|373:331,1,215.999993408203,14|8,0:1|0:2,0:0:0:0:
90,242,211456,1,2,0:0:0:0:
427,158,211622,1,8,0:1:0:0:
283,298,211789,1,0,0:0:0:0:
234,101,211956,2,0,P|239:48|251:-4,1,107.999996704102,10|0,0:2|0:0,0:0:0:0:
512,122,212289,2,0,P|506:175|494:228,1,107.999996704102,10|0,0:1|0:0,0:0:0:0:
283,298,212622,5,8,0:2:0:0:
387,279,212789,1,0,0:0:0:0:
319,197,212956,1,8,0:1:0:0:
350,380,213122,1,0,0:0:0:0:
117,329,213289,5,10,0:2:0:0:
491,260,213456,1,2,0:0:0:0:
80,336,213622,2,2,P|4:267|22:165,1,215.999993408203,10|8,0:1|0:2,0:0:0:0:
170,39,214122,5,2,0:0:0:0:
170,39,214206,1,0,0:0:0:0:
170,39,214289,1,8,0:1:0:0:
23,164,214456,1,0,0:0:0:0:
149,312,214622,1,10,0:2:0:0:
296,186,214789,1,0,0:0:0:0:
79,0,214956,6,0,P|74:53|97:102,1,107.999996704102,10|0,0:1|0:0,0:0:0:0:
377,133,215289,2,0,P|333:102|280:97,1,107.999996704102,8|0,0:2|0:0,0:0:0:0:
46,251,215622,2,0,P|89:220|142:215,1,107.999996704102,8|0,0:1|0:0,0:0:0:0:
393,233,215956,5,10,0:2:0:0:
142,215,216122,1,2,0:0:0:0:
224,32,216289,2,2,B|262:-4|262:-4|359:7|413:95,1,215.999993408203,10|8,0:1|0:2,0:0:0:0:
448,320,216789,5,2,0:0:0:0:
328,133,216956,1,8,0:1:0:0:
455,337,217122,1,0,0:0:0:0:
494,82,217289,1,8,0:2:0:0:
462,354,217456,1,0,0:0:0:0:
394,45,217622,6,2,B|314:20|314:20|267:39|267:39|179:11,1,215.999993408203,10|8,0:1|0:2,0:0:0:0:
0,320,218122,2,2,B|80:295|80:295|127:314|127:314|215:286,1,215.999993408203,2|0,0:0|0:0,0:0:0:0:
462,354,218622,2,0,L|356:332,1,107.999996704102,10|0,0:2|0:0,0:0:0:0:
32,64,218956,5,10,0:1:0:0:
134,233,219122,1,0,0:0:0:0:
303,131,219289,1,8,0:2:0:0:
0,200,219456,5,2,0:0:0:0:
169,98,219623,1,8,0:1:0:0:
271,267,219789,1,0,0:0:0:0:
32,64,219956,5,10,0:2:0:0:
99,368,220122,1,0,0:0:0:0:
303,131,220289,2,0,L|414:117,1,107.999996704102,10|0,0:1|0:0,0:0:0:0:
206,381,220622,2,0,L|99:368,1,107.999996704102,10|0,0:2|0:0,0:0:0:0:
6,229,220956,5,10,0:1:0:0:
3,207,221122,1,8,0:1:0:0:
0,185,221289,1,10,0:2:0:0:
256,128,221456,1,10,0:1:0:0:
512,72,221622,2,2,B|538:121|538:121|491:183|392:132,1,215.999993408203,14|8,0:1|0:2,0:0:0:0:
106,80,222122,5,2,0:0:0:0:
439,17,222289,1,8,0:1:0:0:
138,220,222456,1,0,0:0:0:0:
470,157,222622,2,0,P|484:208|493:262,1,107.999996704102,10|0,0:2|0:0,0:0:0:0:
240,384,222956,2,0,P|225:332|216:278,1,107.999996704102,10|0,0:1|0:0,0:0:0:0:
323,72,223289,5,8,0:2:0:0:
307,169,223456,1,0,0:0:0:0:
302,52,223622,1,8,0:1:0:0:
327,188,223789,1,0,0:0:0:0:
128,96,223956,5,10,0:2:0:0:
480,128,224122,1,2,0:0:0:0:
97,95,224289,2,2,P|30:174|65:271,1,215.999993408203,10|8,0:1|0:2,0:0:0:0:
256,352,224789,5,2,0:0:0:0:
256,352,224872,1,0,0:0:0:0:
256,352,224956,1,8,0:1:0:0:
128,192,225122,1,0,0:0:0:0:
256,32,225289,1,10,0:2:0:0:
384,192,225456,1,0,0:0:0:0:
468,113,225622,6,0,L|362:87,1,107.999996704102,10|0,0:1|0:0,0:0:0:0:
128,0,225956,2,0,L|153:105,1,107.999996704102,8|0,0:2|0:0,0:0:0:0:
256,352,226289,2,0,L|230:246,1,107.999996704102,8|0,0:1|0:0,0:0:0:0:
363,87,226622,5,10,0:2:0:0:
230,247,226789,1,2,0:0:0:0:
480,192,226956,2,2,P|498:294|423:366,1,215.999993408203,10|8,0:1|0:2,0:0:0:0:
157,331,227456,5,2,0:0:0:0:
416,256,227622,1,8,0:1:0:0:
133,235,227789,1,0,0:0:0:0:
416,256,227956,1,8,0:2:0:0:
109,139,228122,1,0,0:0:0:0:
512,0,228289,6,2,P|504:107|489:214,1,215.999993408203,10|8,0:1|0:2,0:0:0:0:
0,384,228789,2,2,P|7:276|22:169,1,215.999993408203,2|0,0:0|0:0,0:0:0:0:
108,0,229289,2,0,P|100:53|96:107,1,107.999996704102,10|0,0:2|0:0,0:0:0:0:
418,194,229622,5,10,0:1:0:0:
94,188,229789,1,0,0:0:0:0:
339,53,229956,5,10,0:2:0:0:
173,329,230123,1,0,0:0:0:0:
177,49,230289,5,10,0:1:0:0:
335,333,230456,1,0,0:0:0:0:
256,192,230622,5,10,0:2:0:0:
256,192,230706,1,0,0:0:0:0:
256,192,230789,1,0,0:0:0:0:
94,188,230956,5,10,0:1:0:0:
418,194,231122,1,0,0:0:0:0:
94,188,231289,1,10,0:2:0:0:
418,194,231456,1,0,0:0:0:0:
97,73,231622,5,10,0:1:0:0:
137,351,231789,1,8,0:1:0:0:
415,311,231956,1,10,0:2:0:0:
375,33,232122,2,0,L|431:46,1,53.9999983520508,10|8,0:2|0:2,0:0:0:0:
512,96,232289,6,2,L|302:47,1,215.999993408203,14|10,0:1|0:2,0:0:0:0:
0,288,232789,2,2,L|209:336,1,215.999993408203,2|0,0:0|0:0,0:0:0:0:
384,288,233289,2,0,L|279:263,1,107.999996704102,10|0,0:2|0:0,0:0:0:0:
54,150,233622,5,10,0:1:0:0:
165,115,233789,1,0,0:0:0:0:
276,79,233956,1,8,0:2:0:0:
0,77,234122,5,2,0:0:0:0:
165,115,234289,1,8,0:1:0:0:
330,152,234456,1,0,0:0:0:0:
11,233,234622,5,10,0:2:0:0:
11,233,234789,1,0,0:0:0:0:
439,0,234956,6,2,L|411:214,1,215.999993408203,10|10,0:1|0:2,0:0:0:0:
73,384,235456,2,2,L|100:169,1,215.999993408203,2|0,0:0|0:0,0:0:0:0:
0,64,235956,2,0,L|107:50,1,107.999996704102,10|0,0:2|0:0,0:0:0:0:
467,151,236289,5,10,0:1:0:0:
349,218,236456,1,0,0:0:0:0:
283,99,236622,1,8,0:2:0:0:
401,33,236789,1,0,0:0:0:0:
305,0,236956,5,10,0:1:0:0:
250,195,237123,1,0,0:0:0:0:
446,252,237289,1,8,0:2:0:0:
500,55,237456,1,0,0:0:0:0:
512,352,237622,6,0,L|405:366,1,107.999996704102,14|0,0:1|0:0,0:0:0:0:
160,320,237956,1,10,0:2:0:0:
446,251,238122,2,2,B|491:205|491:205|459:53,1,215.999993408203,2|0,0:0|0:0,0:0:0:0:
352,0,238622,2,0,L|374:105,1,107.999996704102,10|0,0:2|0:0,0:0:0:0:
453,337,238956,5,10,0:1:0:0:
330,298,239123,1,0,0:0:0:0:
208,258,239290,1,8,0:2:0:0:
512,256,239456,5,2,0:0:0:0:
330,298,239623,1,8,0:1:0:0:
149,339,239790,1,0,0:0:0:0:
453,337,239956,5,10,0:2:0:0:
453,337,240039,1,0,0:0:0:0:
453,337,240122,1,0,0:0:0:0:
128,192,240289,5,10,0:1:0:0:
256,96,240456,1,0,0:0:0:0:
384,192,240622,1,8,0:2:0:0:
256,288,240789,1,0,0:0:0:0:
128,96,240956,5,10,0:1:0:0:
416,320,241122,1,0,0:0:0:0:
384,96,241289,1,8,0:2:0:0:
96,320,241456,1,0,0:0:0:0:
256,0,241622,5,10,0:1:0:0:
256,0,241706,1,0,0:0:0:0:
256,0,241789,1,0,0:0:0:0:
64,192,241956,1,10,0:2:0:0:
448,192,242122,1,2,0:0:0:0:
256,384,242289,1,8,0:1:0:0:
256,384,242372,1,8,0:2:0:0:
256,384,242456,1,8,0:1:0:0:
104,58,242622,5,8,0:2:0:0:
408,326,242789,1,8,0:1:0:0:
104,58,242956,6,0,P|51:45|-1:37,1,107.999996704102,14|0,0:1|0:0,0:0:0:0:
150,135,243289,1,10,0:2:0:0:
355,28,243456,2,2,P|439:22|513:154,1,215.999993408203,2|0,0:0|0:0,0:0:0:0:
469,293,243956,2,0,P|450:242|443:188,1,107.999996704102,10|0,0:2|0:0,0:0:0:0:
150,135,244289,6,0,P|227:167|294:165,1,107.999996704102,10|0,0:1|0:0,0:0:0:0:
274,155,244539,1,2,0:0:0:0:
297,141,244622,1,8,0:2:0:0:
257,301,244789,1,2,0:0:0:0:
418,340,244956,1,8,0:1:0:0:
457,180,245122,1,0,0:0:0:0:
357,241,245289,5,10,0:2:0:0:
357,241,245372,1,0,0:0:0:0:
357,241,245456,1,0,0:0:0:0:
512,32,245622,6,2,P|404:46|297:55,1,215.999993408203,10|10,0:1|0:2,0:0:0:0:
0,352,246122,2,2,P|107:337|214:328,1,215.999993408203,2|0,0:0|0:0,0:0:0:0:
350,384,246622,2,0,P|342:330|338:276,1,107.999996704102,10|0,0:2|0:0,0:0:0:0:
45,151,246956,5,10,0:1:0:0:
163,218,247123,1,0,0:0:0:0:
229,99,247289,1,8,0:2:0:0:
111,33,247456,1,0,0:0:0:0:
207,0,247623,5,10,0:1:0:0:
262,195,247790,1,0,0:0:0:0:
66,252,247956,1,8,0:2:0:0:
12,55,248123,1,0,0:0:0:0:
0,336,248289,6,2,L|215:355,1,215.999993408203,14|10,0:1|0:2,0:0:0:0:
512,48,248789,2,2,L|296:28,1,215.999993408203,2|0,0:0|0:0,0:0:0:0:
113,107,249289,2,0,L|220:97,1,107.999996704102,10|0,0:2|0:0,0:0:0:0:
498,231,249622,5,10,0:1:0:0:
317,322,249789,1,0,0:0:0:0:
336,118,249956,1,8,0:2:0:0:
459,377,250122,5,2,0:0:0:0:
485,82,250289,1,8,0:1:0:0:
205,210,250456,1,0,0:0:0:0:
386,223,250622,5,10,0:2:0:0:
386,223,250706,1,0,0:0:0:0:
386,223,250789,1,0,0:0:0:0:
80,314,250956,5,10,3:1:0:0:
83,331,251039,1,0,3:0:0:0:
86,348,251122,1,0,3:0:0:0:
89,365,251206,1,0,3:0:0:0:
117,384,251289,1,8,3:2:0:0:
114,363,251372,1,0,3:0:0:0:
111,342,251456,1,0,3:0:0:0:
108,321,251539,1,0,3:0:0:0:
106,300,251622,1,8,0:1:0:0:
144,276,251706,1,0,0:0:0:0:
188,269,251789,1,0,0:0:0:0:
232,281,251872,1,0,0:0:0:0:
266,309,251956,1,8,0:2:0:0:
312,345,252039,1,8,0:2:0:0:
368,359,252122,1,8,0:2:0:0:
426,351,252206,1,8,0:2:0:0:
475,320,252289,5,10,0:1:0:0:
475,320,252789,1,10,0:1:0:0:
475,320,253289,1,8,0:0:0:0:
482,266,253372,1,8,0:0:0:0:
489,212,253456,1,8,0:0:0:0:
496,158,253539,1,8,0:0:0:0:
504,104,253622,6,0,P|424:69|350:115,1,180,14|8,0:1|0:2,0:0:0:0:
335,209,254122,1,0,0:0:0:0:
350,113,254289,1,10,0:1:0:0:
421,312,254456,1,0,0:0:0:0:
224,384,254622,1,8,0:2:0:0:
152,186,254789,1,0,0:0:0:0:
104,249,254956,2,0,L|130:70,2,180,10|8|10,0:1|0:2|0:1,0:0:0:0:
384,384,255789,1,0,0:0:0:0:
320,256,255956,1,8,0:2:0:0:
40,377,256122,1,0,0:0:0:0:
0,288,256289,6,0,L|19:154,1,135,10|0,0:1|2:0,0:0:0:0:
0,117,256622,2,0,L|89:104,1,90,8|0,0:2|0:0,0:0:0:0:
259,210,256956,1,10,0:1:0:0:
346,173,257122,1,0,0:0:0:0:
382,86,257289,1,8,0:2:0:0:
346,0,257456,1,0,0:0:0:0:
162,191,257622,2,0,P|166:235|181:277,1,90,10|0,0:1|0:0,0:0:0:0:
366,259,257956,2,0,P|361:215|346:173,1,90,8|0,0:2|0:0,0:0:0:0:
241,101,258289,1,10,0:1:0:0:
296,369,258456,1,0,0:0:0:0:
268,234,258622,1,8,0:2:0:0:
268,234,258706,1,0,0:2:0:0:
268,234,258789,1,0,0:2:0:0:
416,32,258956,6,0,P|459:42|504:48,1,90,10|0,0:1|0:0,0:0:0:0:
241,101,259289,2,0,P|197:90|152:84,1,90,8|0,0:2|0:0,0:0:0:0:
0,224,259622,1,10,0:1:0:0:
241,196,259789,1,0,0:0:0:0:
96,0,259956,1,8,0:2:0:0:
0,224,260122,1,0,0:0:0:0:
25,148,260289,2,0,L|44:326,2,180,10|8|10,0:1|0:2|0:1,0:0:0:0:
320,0,261122,1,0,0:0:0:0:
384,128,261289,1,8,0:2:0:0:
89,20,261456,1,0,0:0:0:0:
25,148,261622,6,0,L|159:133,1,135,10|0,0:1|2:0,0:0:0:0:
192,162,261956,2,0,L|281:152,1,90,8|0,0:2|0:0,0:0:0:0:
416,32,262289,2,0,P|402:75|399:120,1,90,10|0,0:1|0:0,0:0:0:0:
496,298,262622,2,0,P|492:253|478:210,1,90,8|0,0:2|0:0,0:0:0:0:
220,290,262956,2,0,L|398:269,2,180,10|8|8,0:1|0:2|0:1,0:0:0:0:
145,249,263706,1,8,0:2:0:0:
219,205,263789,1,8,0:1:0:0:
221,375,263956,1,8,0:2:0:0:
398,269,264122,1,8,0:2:0:0:
64,384,264289,6,0,P|46:277|21:172,1,215.999993408203,14|8,0:1|0:2,0:0:0:0:
107,0,264789,1,2,0:0:0:0:
183,139,264956,1,10,0:1:0:0:
214,31,265122,1,2,0:0:0:0:
75,107,265289,1,10,0:2:0:0:
214,31,265456,1,2,0:0:0:0:
290,170,265622,5,10,0:1:0:0:
183,139,265789,1,2,0:0:0:0:
183,139,265845,1,2,0:0:0:0:
183,139,265900,1,2,0:0:0:0:
183,139,265956,1,10,0:2:0:0:
152,246,266122,1,2,0:0:0:0:
397,201,266289,5,10,0:1:0:0:
290,170,266456,1,2,0:0:0:0:
260,277,266622,1,10,0:2:0:0:
367,308,266789,1,2,0:0:0:0:
0,96,266956,5,10,0:1:0:0:
160,49,267123,1,2,0:0:0:0:
205,210,267289,1,10,0:2:0:0:
45,256,267456,1,2,0:0:0:0:
467,165,267622,5,10,0:1:0:0:
253,103,267789,1,2,0:0:0:0:
193,316,267955,1,10,0:2:0:0:
407,379,268122,1,2,0:0:0:0:
32,32,268289,5,10,0:1:0:0:
64,352,268455,1,2,0:0:0:0:
193,316,268622,5,10,0:2:0:0:
218,60,268788,1,2,0:0:0:0:
321,88,268956,5,10,0:1:0:0:
341,293,269122,1,2,0:0:0:0:
423,270,269290,5,10,0:2:0:0:
439,106,269456,1,2,0:0:0:0:
41,237,269622,5,10,0:1:0:0:
120,161,269789,1,2,0:0:0:0:
226,195,269956,1,10,0:2:0:0:
146,269,270122,1,2,0:0:0:0:
203,87,270289,1,10,0:1:0:0:
249,303,270456,1,2,0:0:0:0:
64,345,270622,5,10,0:2:0:0:
226,195,270789,1,2,0:0:0:0:
18,129,270956,1,10,0:1:0:0:
113,235,271123,1,2,0:0:0:0:
113,235,271179,1,2,0:0:0:0:
113,235,271234,1,2,0:0:0:0:
113,235,271290,1,10,0:2:0:0:
64,345,271456,1,2,0:0:0:0:
249,303,271622,5,10,0:1:0:0:
352,352,271789,1,2,0:0:0:0:
460,314,271956,1,10,0:2:0:0:
510,211,272122,1,2,0:0:0:0:
288,32,272289,5,10,0:1:0:0:
352,224,272456,1,2,0:0:0:0:
185,111,272622,1,10,0:2:0:0:
249,303,272789,1,2,0:0:0:0:
392,73,272956,5,10,0:1:0:0:
141,229,273122,1,2,0:0:0:0:
434,218,273289,1,10,0:2:0:0:
183,374,273455,1,2,0:0:0:0:
99,84,273622,5,10,0:1:0:0:
286,187,273789,1,2,0:0:0:0:
286,187,273845,1,2,0:0:0:0:
286,187,273900,1,2,0:0:0:0:
286,187,273956,1,10,0:2:0:0:
141,229,274122,1,2,0:0:0:0:
249,48,274289,1,2,0:2:0:0:
302,47,274372,1,0,0:2:0:0:
353,65,274455,1,0,0:2:0:0:
394,100,274538,1,0,0:2:0:0:
421,146,274622,1,0,0:2:0:0:
430,199,274705,1,0,0:2:0:0:
420,252,274788,1,0,0:2:0:0:
392,298,274872,1,0,0:2:0:0:
44,223,288289,5,6,3:2:0:0:
44,223,288456,2,0,P|86:315|186:302,1,215.999993408203,0|0,3:2|3:0,0:0:0:0:
177,219,289289,2,0,L|127:240,1,53.9999983520508,2|0,0:0|0:0,0:0:0:0:
384,245,289622,2,0,L|433:223,1,53.9999983520508,2|0,3:2|3:2,0:0:0:0:
359,240,289956,2,0,L|337:190,1,53.9999983520508
354,265,290289,2,0,L|304:286,1,53.9999983520508,0|0,0:0|3:2,0:0:0:0:
379,270,290622,2,0,L|400:319,1,53.9999983520508
497,77,290956,5,2,3:2:0:0:
497,77,291122,2,0,P|422:148|323:120,1,215.999993408203,0|0,3:2|3:2,0:0:0:0:
268,53,291956,2,0,L|260:0,1,53.9999983520508,2|0,0:0|0:0,0:0:0:0:
160,213,292289,2,0,L|167:265,1,53.9999983520508,2|0,3:2|3:2,0:0:0:0:
244,269,292622,2,0,L|190:276,1,53.9999983520508
186,354,292955,2,0,L|177:300,1,53.9999983520508,0|0,0:0|3:2,0:0:0:0:
101,296,293289,2,0,L|154:287,1,53.9999983520508
480,320,293622,5,2,3:2:0:0:
480,320,293789,2,0,P|395:262|297:298,1,215.999993408203,0|0,3:2|3:2,0:0:0:0:
238,372,294622,2,0,P|211:378|184:380,1,53.9999983520508,2|0,0:0|0:0,0:0:0:0:
12,260,294956,2,0,L|3:206,1,53.9999983520508,2|0,3:2|3:2,0:0:0:0:
13,118,295289,2,0,L|21:171,1,53.9999983520508
154,287,295622,2,0,L|207:295,1,53.9999983520508,2|0,0:0|3:2,0:0:0:0:
296,286,295955,2,0,L|242:277,1,53.9999983520508
142,116,296289,5,2,3:2:0:0:
142,116,296456,1,0,3:2:0:0:
216,82,296622,1,0,0:0:0:0:
216,82,296789,1,0,0:0:0:0:
250,156,296956,1,0,0:0:0:0:
250,156,297123,1,0,3:2:0:0:
176,190,297289,1,0,0:0:0:0:
176,190,297456,1,0,0:0:0:0:
137,34,297622,5,0,3:2:0:0:
137,34,297789,1,0,3:2:0:0:
344,149,297956,1,0,0:0:0:0:
344,149,298123,1,0,0:0:0:0:
140,270,298289,1,0,0:0:0:0:
140,270,298456,1,0,3:2:0:0:
276,56,298622,2,0,L|329:49,1,53.9999983520508,2|0,0:0|0:0,0:0:0:0:
512,128,298956,5,2,3:2:0:0:
512,128,299122,1,0,3:2:0:0:
448,256,299289,1,0,0:0:0:0:
448,256,299456,1,0,0:0:0:0:
320,96,299622,1,0,0:0:0:0:
320,96,299789,1,0,3:2:0:0:
160,320,299956,1,0,0:0:0:0:
160,320,300122,1,0,0:0:0:0:
84,266,300289,5,0,0:0:0:0:
73,364,300956,5,0,0:0:0:0:
73,364,301289,1,0,0:0:0:0:
73,364,301622,6,2,P|4:289|40:193,1,215.999993408203,14|8,0:1|0:2,0:0:0:0:
384,192,302122,1,2,0:0:0:0:
91,271,302289,1,8,0:1:0:0:
277,378,302456,1,0,0:0:0:0:
198,84,302622,2,0,P|205:31|225:-18,1,107.999996704102,10|0,0:2|0:0,0:0:0:0:
304,274,302956,2,0,P|296:327|277:378,1,107.999996704102,10|0,0:1|0:0,0:0:0:0:
91,271,303289,5,8,0:2:0:0:
176,194,303456,1,0,0:0:0:0:
200,307,303623,1,8,0:1:0:0:
115,384,303789,1,0,0:0:0:0:
67,158,303956,5,10,0:2:0:0:
310,343,304122,1,2,0:0:0:0:
494,99,304289,2,2,P|400:59|320:124,1,215.999993408203,10|8,0:1|0:2,0:0:0:0:
449,350,304789,5,2,0:0:0:0:
449,350,304872,1,0,0:0:0:0:
449,350,304956,1,8,0:1:0:0:
414,144,305122,1,0,0:0:0:0:
209,178,305289,1,10,0:2:0:0:
243,384,305456,1,0,0:0:0:0:
117,273,305622,6,0,P|170:277|223:288,1,107.999996704102,10|0,0:1|0:0,0:0:0:0:
414,144,305956,2,0,P|361:155|307:159,1,107.999996704102,8|0,0:2|0:0,0:0:0:0:
32,32,306289,2,0,P|56:80|74:130,1,107.999996704102,8|0,0:1|0:0,0:0:0:0:
89,359,306622,5,10,0:2:0:0:
294,240,306789,1,2,0:0:0:0:
176,35,306956,2,2,P|277:2|384:16,1,215.999993408203,10|8,0:1|0:2,0:0:0:0:
512,224,307456,5,2,0:0:0:0:
256,320,307622,1,8,0:1:0:0:
512,224,307789,1,0,0:0:0:0:
216,178,307956,2,0,L|110:200,1,107.999996704102,8|0,0:1|0:0,0:0:0:0:
0,384,308289,5,10,0:1:0:0:
256,320,308456,1,0,0:0:0:0:
37,258,308622,1,8,0:2:0:0:
347,226,308789,5,2,0:0:0:0:
128,352,308956,1,8,0:1:0:0:
384,352,309122,1,0,0:0:0:0:
128,352,309289,5,10,0:2:0:0:
128,352,309372,1,0,0:0:0:0:
128,352,309456,1,0,0:0:0:0:
165,52,309622,5,10,0:1:0:0:
256,320,309789,1,0,0:0:0:0:
443,106,309956,1,8,0:2:0:0:
132,211,310122,5,2,0:0:0:0:
319,0,310289,1,8,0:1:0:0:
411,266,310456,1,0,0:0:0:0:
288,159,310622,5,10,0:2:0:0:
288,159,310706,1,0,0:0:0:0:
288,159,310789,1,0,0:0:0:0:
57,57,310956,6,0,P|109:69|162:79,1,107.999996704102,10|0,0:1|0:0,0:0:0:0:
455,327,311289,2,0,P|402:314|349:304,1,107.999996704102,10|0,0:2|0:0,0:0:0:0:
160,384,311622,5,10,0:1:0:0:
160,384,311789,1,8,0:1:0:0:
160,384,311956,1,10,0:2:0:0:
256,192,312122,1,10,0:1:0:0:
352,0,312289,2,2,P|455:12|510:101,1,215.999993408203,14|8,0:1|0:2,0:0:0:0:
512,320,312789,5,2,0:0:0:0:
160,384,312956,1,8,0:1:0:0:
493,199,313122,1,0,0:0:0:0:
140,263,313289,2,0,P|87:254|35:241,1,107.999996704102,10|0,0:2|0:0,0:0:0:0:
288,384,313622,2,0,P|341:375|393:362,1,107.999996704102,10|0,0:1|0:0,0:0:0:0:
493,199,313956,5,8,0:2:0:0:
412,165,314122,1,0,0:0:0:0:
378,246,314289,1,8,0:1:0:0:
459,280,314456,1,0,0:0:0:0:
446,84,314622,5,10,0:2:0:0:
416,384,314789,1,2,0:0:0:0:
83,361,314956,2,2,L|36:150,1,215.999993408203,10|8,0:1|0:2,0:0:0:0:
192,0,315456,5,2,0:0:0:0:
192,0,315539,1,0,0:0:0:0:
192,0,315622,1,8,0:1:0:0:
342,156,315789,1,0,0:0:0:0:
186,306,315956,1,10,0:2:0:0:
36,150,316122,1,0,0:0:0:0:
79,331,316289,6,0,L|102:225,1,107.999996704102,10|0,0:1|0:0,0:0:0:0:
318,50,316622,2,0,L|342:156,1,107.999996704102,8|0,0:2|0:0,0:0:0:0:
261,384,316956,2,0,L|237:278,1,107.999996704102,8|0,0:1|0:0,0:0:0:0:
318,50,317289,5,10,0:2:0:0:
237,278,317456,1,2,0:0:0:0:
476,233,317622,2,2,P|525:141|495:40,1,215.999993408203,10|8,0:1|0:2,0:0:0:0:
192,0,318122,5,2,0:0:0:0:
494,39,318289,1,8,0:1:0:0:
128,96,318456,1,0,0:0:0:0:
432,134,318622,2,0,P|458:182|476:233,1,107.999996704102,8|0,0:2|0:0,0:0:0:0:
320,384,318956,5,10,0:1:0:0:
256,192,319122,1,0,0:0:0:0:
128,352,319289,1,8,0:2:0:0:
192,0,319456,5,2,0:0:0:0:
256,192,319622,1,8,0:1:0:0:
384,32,319789,1,0,0:0:0:0:
263,200,319956,5,10,0:2:0:0:
263,200,320039,1,0,0:0:0:0:
263,200,320122,1,0,0:0:0:0:
64,32,320289,5,10,0:1:0:0:
448,352,320455,1,0,0:0:0:0:
32,192,320622,5,10,0:2:0:0:
480,192,320788,1,0,0:0:0:0:
64,352,320956,5,10,0:1:0:0:
448,32,321122,1,0,0:0:0:0:
256,192,321289,5,10,0:2:0:0:
256,192,321372,1,0,0:0:0:0:
256,192,321456,1,0,0:0:0:0:
128,0,321622,5,10,0:1:0:0:
352,320,321789,1,0,0:0:0:0:
384,0,321956,5,10,0:2:0:0:
160,320,322123,1,0,0:0:0:0:
256,32,322289,5,10,0:1:0:0:
256,32,322456,1,8,0:1:0:0:
32,192,322622,5,10,0:2:0:0:
480,192,322789,1,10,0:2:0:0:
32,319,322956,6,2,P|10:214|3:106,1,215.999993408203,14|10,0:1|0:2,0:0:0:0:
480,64,323456,2,2,P|501:168|509:285,1,215.999993408203,2|0,0:0|0:0,0:0:0:0:
448,384,323956,1,10,0:2:0:0:
448,384,324039,1,0,0:0:0:0:
448,384,324122,1,0,0:0:0:0:
256,128,324289,5,10,0:1:0:0:
288,256,324456,1,0,0:0:0:0:
320,384,324622,1,8,0:2:0:0:
88,206,324789,5,2,0:0:0:0:
288,256,324956,1,8,0:1:0:0:
489,307,325122,1,0,0:0:0:0:
135,352,325289,5,10,0:2:0:0:
135,352,325372,1,0,0:0:0:0:
135,352,325456,1,0,0:0:0:0:
255,32,325622,6,2,P|148:35|40:45,1,215.999993408203,10|10,0:1|0:2,0:0:0:0:
256,352,326122,2,2,P|363:348|471:338,1,215.999993408203,2|0,0:0|0:0,0:0:0:0:
512,224,326622,1,10,0:2:0:0:
512,224,326706,1,0,0:0:0:0:
512,224,326789,1,0,0:0:0:0:
261,101,326956,5,10,0:1:0:0:
379,34,327123,1,0,0:0:0:0:
445,153,327289,1,8,0:2:0:0:
327,219,327456,1,0,0:0:0:0:
228,197,327623,5,10,0:1:0:0:
423,252,327790,1,0,0:0:0:0:
478,57,327957,1,8,0:2:0:0:
282,0,328123,1,0,0:0:0:0:
512,352,328289,6,2,P|404:345|297:331,1,215.999993408203,14|10,0:1|0:2,0:0:0:0:
0,32,328789,2,2,P|107:38|214:52,1,215.999993408203,2|0,0:0|0:0,0:0:0:0:
315,143,329289,1,10,0:2:0:0:
315,143,329372,1,0,0:0:0:0:
315,143,329456,1,0,0:0:0:0:
208,384,329622,5,10,0:1:0:0:
261,263,329789,1,0,0:0:0:0:
315,143,329955,1,8,0:2:0:0:
56,278,330122,5,2,0:0:0:0:
261,263,330289,1,8,0:1:0:0:
468,248,330455,1,0,0:0:0:0:
208,384,330622,5,10,0:2:0:0:
208,384,330706,1,0,0:0:0:0:
208,384,330789,1,0,0:0:0:0:
192,96,330956,5,10,0:1:0:0:
160,256,331122,1,0,0:0:0:0:
320,288,331289,1,8,0:2:0:0:
352,128,331456,1,0,0:0:0:0:
86,158,331622,5,10,0:1:0:0:
425,225,331788,1,0,0:0:0:0:
222,361,331955,1,8,0:2:0:0:
289,22,332122,1,0,0:0:0:0:
68,316,332289,5,10,0:1:0:0:
68,316,332372,1,0,0:0:0:0:
68,316,332456,1,0,0:0:0:0:
443,67,332622,1,10,0:2:0:0:
380,379,332789,1,2,0:0:0:0:
131,4,332955,1,8,0:1:0:0:
131,4,333039,1,8,0:2:0:0:
131,4,333122,1,8,0:1:0:0:
469,234,333289,5,8,0:2:0:0:
42,149,333455,1,8,0:1:0:0:
469,234,333622,2,0,L|496:353,1,107.999996704102,14|0,0:1|0:0,0:0:0:0:
352,192,333956,1,10,0:2:0:0:
64,320,334122,2,2,P|161:353|235:282,1,215.999993408203,2|0,0:0|0:0,0:0:0:0:
172,133,334622,1,10,0:2:0:0:
172,133,334706,1,0,0:0:0:0:
172,133,334789,1,0,0:0:0:0:
429,23,334956,5,10,0:1:0:0:
332,152,335122,1,0,0:0:0:0:
396,301,335289,1,8,0:2:0:0:
268,4,335456,5,2,0:0:0:0:
492,171,335623,1,8,0:1:0:0:
235,281,335789,1,0,0:0:0:0:
332,152,335956,5,10,0:2:0:0:
332,152,336039,1,0,0:0:0:0:
332,152,336122,1,0,0:0:0:0:
34,23,336289,6,2,P|136:43|246:51,1,215.999993408203,10|10,0:1|0:2,0:0:0:0:
477,361,336789,2,2,P|376:341|265:332,1,215.999993408203,2|0,0:0|0:0,0:0:0:0:
144,384,337289,1,10,0:2:0:0:
144,384,337372,1,0,0:0:0:0:
144,384,337456,1,0,0:0:0:0:
217,123,337622,5,10,0:1:0:0:
151,241,337789,1,0,0:0:0:0:
33,175,337956,1,8,0:2:0:0:
99,56,338122,1,0,0:0:0:0:
0,79,338289,5,10,0:1:0:0:
55,274,338455,1,0,0:0:0:0:
250,219,338622,1,8,0:2:0:0:
196,22,338789,1,0,0:0:0:0:
12,361,338956,6,2,L|42:147,1,215.999993408203,14|10,0:1|0:2,0:0:0:0:
500,23,339456,2,2,L|469:236,1,215.999993408203,2|0,0:0|0:0,0:0:0:0:
512,352,339956,1,10,0:2:0:0:
512,352,340039,1,0,0:0:0:0:
512,352,340122,1,0,0:0:0:0:
193,300,340289,5,10,0:1:0:0:
380,192,340456,1,0,0:0:0:0:
193,83,340622,1,8,0:2:0:0:
358,370,340789,5,2,0:0:0:0:
50,192,340956,1,8,0:1:0:0:
358,13,341122,1,0,0:0:0:0:
256,192,341289,5,10,0:2:0:0:
256,192,341372,1,0,0:0:0:0:
256,192,341456,1,0,0:0:0:0:
64,384,341622,5,10,0:1:0:0:
62,362,341705,1,0,0:0:0:0:
61,340,341788,1,0,0:0:0:0:
59,318,341871,1,0,0:0:0:0:
58,296,341955,1,8,0:1:0:0:
56,274,342038,1,0,0:0:0:0:
55,252,342121,1,0,0:0:0:0:
53,230,342205,1,0,0:0:0:0:
52,208,342288,1,8,0:1:0:0:
50,187,342371,1,0,0:0:0:0:
49,165,342455,1,0,0:0:0:0:
47,143,342538,1,0,0:0:0:0:
46,121,342621,1,8,0:1:0:0:
44,99,342705,1,0,0:0:0:0:
43,77,342788,1,0,0:0:0:0:
41,55,342871,1,0,0:0:0:0:
41,34,342956,1,8,0:1:0:0:
77,17,343039,1,0,0:0:0:0:
117,14,343122,1,0,0:0:0:0:
156,26,343205,1,0,0:0:0:0:
188,51,343289,1,8,0:1:0:0:
209,85,343372,1,0,0:0:0:0:
217,124,343455,1,0,0:0:0:0:
210,164,343539,1,0,0:0:0:0:
185,205,343622,1,8,0:1:0:0:
161,250,343705,1,0,0:0:0:0:
167,308,343788,1,0,0:0:0:0:
206,352,343871,1,0,0:0:0:0:
263,366,343955,1,8,0:1:0:0:
317,346,344038,1,0,0:0:0:0:
351,298,344121,1,0,0:0:0:0:
354,234,344205,1,0,0:0:0:0:
300,180,344289,6,0,L|82:161,1,215.999993408203,14|8,0:1|0:2,0:0:0:0:
12,195,344789,1,0,0:0:0:0:
61,80,344956,1,10,0:1:0:0:
130,249,345122,1,0,0:0:0:0:
300,180,345289,1,8,0:2:0:0:
230,10,345455,1,0,0:0:0:0:
310,66,345622,6,0,P|396:81|459:10,1,180,10|8,0:1|0:2,0:0:0:0:
456,19,346122,1,0,0:0:0:0:
512,192,346289,1,10,0:1:0:0:
310,66,346456,1,0,0:0:0:0:
512,192,346622,1,8,0:2:0:0:
301,303,346789,1,0,0:0:0:0:
343,381,346956,6,0,L|356:246,1,135,10|0,0:1|2:2,0:0:0:0:
395,222,347289,2,0,L|403:132,1,90,8|0,0:2|0:0,0:0:0:0:
271,35,347622,1,10,0:1:0:0:
348,4,347789,1,0,0:0:0:0:
415,52,347955,1,8,0:2:0:0:
337,84,348122,1,0,0:0:0:0:
0,146,348289,2,0,P|43:134|88:128,1,90,10|0,0:1|0:0,0:0:0:0:
274,138,348622,2,0,P|230:150|185:156,1,90,8|0,0:2|0:0,0:0:0:0:
133,6,348956,2,0,P|145:49|151:94,1,90,10|0,0:1|0:0,0:0:0:0:
140,280,349289,2,0,P|128:236|122:191,1,90,8|0,0:2|0:0,0:0:0:0:
448,64,349622,6,0,L|269:37,2,180,10|8|10,0:1|0:2|0:1,0:0:0:0:
512,288,350456,1,0,0:0:0:0:
448,64,350622,1,8,0:2:0:0:
384,352,350789,1,0,0:0:0:0:
320,288,350956,2,0,P|276:277|231:273,1,90,10|0,0:1|0:0,0:0:0:0:
65,346,351289,2,0,P|109:342|153:331,1,90,8|0,0:2|0:0,0:0:0:0:
282,78,351622,1,10,0:1:0:0:
0,254,351789,1,0,0:0:0:0:
53,25,351956,1,8,0:2:0:0:
229,306,352123,1,0,0:0:0:0:
328,240,352289,6,0,L|194:217,1,135,10|0,0:1|2:0,0:0:0:0:
157,241,352622,2,0,L|141:152,1,90,8|0,0:2|0:0,0:0:0:0:
310,21,352956,1,10,0:1:0:0:
212,90,353122,1,0,0:0:0:0:
296,104,353289,1,8,0:2:0:0:
226,7,353455,1,0,0:0:0:0:
14,205,353622,2,0,L|1:384,2,180,10|8|8,0:1|0:2|0:1,0:0:0:0:
85,152,354372,1,8,0:2:0:0:
96,240,354456,1,8,0:1:0:0:
74,64,354622,1,8,0:2:0:0:
107,328,354789,1,8,0:2:0:0:
224,32,354956,6,0,P|300:12|367:53,1,161.999995056153,14|0,0:1|2:0,0:0:0:0:
380,92,355289,2,0,L|370:185,1,90,8|0,0:2|0:0,0:0:0:0:
320,352,355622,1,10,0:1:0:0:
480,192,355789,1,0,0:0:0:0:
262,261,355956,1,8,0:2:0:0:
218,251,356039,1,0,0:0:0:0:
184,222,356122,1,0,0:0:0:0:
169,181,356205,1,0,0:0:0:0:
176,137,356289,2,0,L|354:110,1,180,10|8,0:1|0:2,0:0:0:0:
438,117,356789,1,0,0:0:0:0:
320,0,356956,1,10,0:1:0:0:
262,261,357122,1,0,0:0:0:0:
51,30,357289,1,8,0:2:0:0:
57,74,357372,1,0,0:0:0:0:
64,119,357455,1,0,0:0:0:0:
70,163,357538,1,0,0:0:0:0:
77,208,357622,6,0,P|32:201|-21:182,1,90,10|0,0:1|0:0,0:0:0:0:
236,119,357956,2,0,P|280:125|334:145,1,90,8|0,0:2|0:0,0:0:0:0:
277,347,358289,2,0,P|261:305|262:261,1,90,10|0,0:1|0:0,0:0:0:0:
474,188,358622,1,8,0:2:0:0:
470,210,358705,1,0,0:0:0:0:
466,232,358788,1,0,0:0:0:0:
462,254,358871,1,0,0:0:0:0:
459,276,358956,2,0,L|354:286,1,90,10|0,0:1|0:0,0:0:0:0:
140,222,359289,2,0,L|229:230,1,90,8|0,0:2|0:0,0:0:0:0:
378,161,359622,1,10,0:1:0:0:
397,149,359705,1,0,0:0:0:0:
412,132,359788,1,0,0:0:0:0:
420,112,359871,1,0,0:0:0:0:
422,90,359955,1,8,0:2:0:0:
417,68,360038,1,0,0:0:0:0:
405,49,360121,1,0,0:0:0:0:
387,35,360205,1,0,0:0:0:0:
367,27,360289,6,0,L|187:45,1,180,10|8,0:1|0:2,0:0:0:0:
112,16,360789,1,0,0:0:0:0:
288,128,360956,1,10,0:1:0:0:
32,224,361122,1,0,0:0:0:0:
160,384,361289,1,8,0:2:0:0:
164,339,361372,1,0,0:0:0:0:
169,294,361455,1,0,0:0:0:0:
174,249,361538,1,0,0:0:0:0:
178,205,361622,2,0,L|162:116,1,90,10|0,0:1|0:0,0:0:0:0:
0,32,361956,2,0,L|15:120,1,90,8|0,0:2|0:0,0:0:0:0:
64,256,362289,1,10,0:1:0:0:
182,26,362456,1,0,0:0:0:0:
403,238,362622,1,8,0:2:0:0:
362,256,362706,1,0,0:0:0:0:
318,250,362789,1,0,0:0:0:0:
283,223,362872,1,0,0:0:0:0:
268,181,362956,6,0,L|288:47,1,135,10|0,0:1|2:0,0:0:0:0:
319,22,363289,2,0,L|407:8,1,90,8|0,0:2|0:0,0:0:0:0:
512,128,363622,2,0,L|423:114,1,90,10|0,0:1|0:0,0:0:0:0:
268,181,363956,1,8,0:2:0:0:
264,203,364039,1,0,0:0:0:0:
260,225,364122,1,0,0:0:0:0:
256,247,364205,1,0,0:0:0:0:
253,269,364290,2,0,L|148:279,1,90,10|0,0:1|0:0,0:0:0:0:
8,210,364622,2,0,L|97:201,1,90,8|0,0:2|0:0,0:0:0:0:
320,384,364956,1,8,0:2:0:0:
326,339,365039,1,8,0:2:0:0:
332,294,365122,1,8,0:2:0:0:
339,250,365205,1,8,0:2:0:0:
345,205,365289,1,8,0:2:0:0:
352,161,365372,1,8,0:2:0:0:
358,116,365455,1,8,0:2:0:0:
364,72,365539,1,8,0:2:0:0:
371,27,365622,6,0,L|428:14,3,45,14|0|0|0,0:1|0:0|0:0|0:0,0:0:0:0:
461,104,365956,2,0,L|517:117,3,45,10|0|0|0,0:2|0:0|0:0|0:0,0:0:0:0:
500,214,366289,1,10,0:1:0:0:
502,241,366372,1,0,0:0:0:0:
497,269,366455,1,0,0:0:0:0:
484,294,366538,1,0,0:0:0:0:
465,315,366622,1,10,0:2:0:0:
442,330,366705,1,0,0:0:0:0:
415,338,366788,1,0,0:0:0:0:
387,338,366872,1,0,0:0:0:0:
360,330,366956,2,0,L|348:267,3,45,10|0|0|0,0:1|0:0|0:0|0:0,0:0:0:0:
242,367,367289,2,0,L|254:303,3,45,10|0|0|0,0:2|0:0|0:0|0:0,0:0:0:0:
117,365,367622,1,10,0:1:0:0:
113,328,367705,1,0,0:0:0:0:
110,291,367789,1,0,0:0:0:0:
107,254,367871,1,0,0:0:0:0:
104,217,367955,1,10,0:2:0:0:
100,180,368038,1,0,0:0:0:0:
97,143,368121,1,0,0:0:0:0:
94,106,368205,1,0,0:0:0:0:
95,63,368289,6,0,L|105:19,3,45,10|0|0|0,0:1|0:0|0:0|0:0,0:0:0:0:
199,120,368622,2,0,L|205:164,3,45,10|0|0|0,0:2|0:0|0:0|0:0,0:0:0:0:
278,42,368956,1,10,0:1:0:0:
300,24,369039,1,0,0:0:0:0:
326,16,369122,1,0,0:0:0:0:
354,17,369205,1,0,0:0:0:0:
380,27,369289,1,10,0:2:0:0:
402,45,369372,1,0,0:0:0:0:
416,69,369455,1,0,0:0:0:0:
421,97,369539,1,0,0:0:0:0:
416,124,369622,2,0,L|360:132,3,45,10|0|0|0,0:1|0:0|0:0|0:0,0:0:0:0:
468,221,369956,2,0,L|524:229,3,45,10|0|0|0,0:2|0:0|0:0|0:0,0:0:0:0:
410,312,370289,1,10,0:1:0:0:
387,308,370372,1,0,0:0:0:0:
365,305,370455,1,0,0:0:0:0:
343,302,370538,1,0,0:0:0:0:
320,299,370622,1,10,0:2:0:0:
298,296,370705,1,0,0:0:0:0:
276,292,370788,1,0,0:0:0:0:
254,289,370872,1,0,0:0:0:0:
231,286,370956,6,0,L|224:241,3,45,10|0|0|0,0:1|0:0|0:0|0:0,0:0:0:0:
288,160,371289,2,0,L|294:115,3,45,10|0|0|0,0:2|0:0|0:0|0:0,0:0:0:0:
222,40,371622,1,10,0:1:0:0:
196,28,371705,1,0,0:0:0:0:
168,24,371788,1,0,0:0:0:0:
140,26,371871,1,0,0:0:0:0:
114,36,371955,1,10,0:2:0:0:
91,52,372038,1,0,0:0:0:0:
73,73,372121,1,0,0:0:0:0:
60,98,372205,1,0,0:0:0:0:
55,126,372289,2,0,L|64:186,3,45,10|0|0|0,0:1|0:0|0:0|0:0,0:0:0:0:
15,256,372622,2,0,L|24:316,3,45,10|0|0|0,0:2|0:0|0:0|0:0,0:0:0:0:
123,351,372956,1,10,0:1:0:0:
157,353,373039,1,0,0:0:0:0:
192,356,373122,1,0,0:0:0:0:
227,359,373206,1,0,0:0:0:0:
263,362,373289,1,10,0:2:0:0:
298,366,373372,1,0,0:0:0:0:
333,369,373455,1,0,0:0:0:0:
369,372,373539,1,0,0:0:0:0:
404,375,373622,6,0,L|451:363,3,45,10|0|0|0,0:1|0:0|0:0|0:0,0:0:0:0:
498,266,373956,2,0,L|510:219,3,45,10|0|0|0,0:2|0:0|0:0|0:0,0:0:0:0:
427,155,374289,1,10,0:1:0:0:
411,178,374372,1,0,0:0:0:0:
390,197,374455,1,0,0:0:0:0:
365,210,374538,1,0,0:0:0:0:
338,216,374622,1,10,0:2:0:0:
310,216,374705,1,0,0:0:0:0:
283,208,374788,1,0,0:0:0:0:
259,194,374872,1,0,0:0:0:0:
239,175,374956,2,0,L|233:118,3,45,10|0|0|0,0:1|0:0|0:0|0:0,0:0:0:0:
311,58,375289,2,0,L|317:1,3,45,2|0|0|0,0:2|0:0|0:0|0:0,0:0:0:0:
500,87,375622,1,10,0:1:0:0:
463,116,375706,1,8,0:2:0:0:
426,142,375789,2,0,L|381:146,1,45,8|0,0:1|0:0,0:0:0:0:
167,35,375956,2,0,L|211:39,1,45,10|0,0:1|0:0,0:0:0:0:
306,190,376122,1,8,0:2:0:0:
264,276,376206,1,8,0:2:0:0:
332,342,376289,6,0,L|376:346,3,45,14|0|0|0,0:1|0:0|0:0|0:0,0:0:0:0:
184,371,376622,2,0,L|228:375,3,45,10|0|0|0,0:2|0:0|0:0|0:0,0:0:0:0:
76,384,376956,1,10,0:1:0:0:
43,357,377039,1,0,0:0:0:0:
19,325,377122,1,0,0:0:0:0:
5,288,377205,1,0,0:0:0:0:
0,248,377289,1,10,0:2:0:0:
5,207,377372,1,0,0:0:0:0:
20,170,377455,1,0,0:0:0:0:
44,138,377539,1,0,0:0:0:0:
77,114,377622,2,0,L|129:121,3,45,10|0|0|0,0:1|0:0|0:0|0:0,0:0:0:0:
181,237,377956,2,0,L|225:230,3,45,10|0|0|0,0:2|0:0|0:0|0:0,0:0:0:0:
254,354,378289,1,10,0:1:0:0:
307,376,378372,1,0,0:0:0:0:
364,380,378455,1,0,0:0:0:0:
420,363,378538,1,0,0:0:0:0:
467,328,378622,1,10,0:2:0:0:
499,279,378705,1,0,0:0:0:0:
512,222,378788,1,0,0:0:0:0:
506,165,378872,1,0,0:0:0:0:
478,113,378956,6,0,L|420:100,3,45,10|0|0|0,0:1|0:0|0:0|0:0,0:0:0:0:
356,40,379289,2,0,L|312:49,3,45,10|0|0|0,0:2|0:0|0:0|0:0,0:0:0:0:
191,4,379622,1,10,0:1:0:0:
195,37,379705,1,0,0:0:0:0:
200,70,379788,1,0,0:0:0:0:
204,104,379871,1,0,0:0:0:0:
209,137,379955,1,10,0:2:0:0:
213,171,380038,1,0,0:0:0:0:
218,204,380121,1,0,0:0:0:0:
222,238,380205,1,0,0:0:0:0:
227,271,380289,2,0,L|218:324,3,45,10|0|0|0,0:1|0:0|0:0|0:0,0:0:0:0:
121,378,380622,2,0,L|111:325,3,45,10|0|0|0,0:2|0:0|0:0|0:0,0:0:0:0:
18,293,380956,1,10,0:1:0:0:
30,266,381039,1,0,0:0:0:0:
49,246,381122,1,0,0:0:0:0:
73,232,381205,1,0,0:0:0:0:
101,225,381289,1,10,0:2:0:0:
129,228,381372,1,0,0:0:0:0:
155,237,381455,1,0,0:0:0:0:
177,254,381539,1,0,0:0:0:0:
194,276,381622,6,0,L|199:332,3,45,10|0|0|0,0:1|0:0|0:0|0:0,0:0:0:0:
335,338,381956,2,0,L|330:394,3,45,10|0|0|0,0:2|0:0|0:0|0:0,0:0:0:0:
456,315,382289,1,10,0:1:0:0:
478,281,382372,1,0,0:0:0:0:
488,243,382455,1,0,0:0:0:0:
484,202,382538,1,0,0:0:0:0:
469,165,382622,1,10,0:2:0:0:
441,136,382705,1,0,0:0:0:0:
406,115,382788,1,0,0:0:0:0:
367,109,382872,1,0,0:0:0:0:
327,115,382956,6,0,L|275:130,3,45,10|0|0|0,0:1|0:0|0:0|0:0,0:0:0:0:
224,256,383289,2,0,L|181:242,3,45,10|0|0|0,0:2|0:0|0:0|0:0,0:0:0:0:
56,266,383622,1,10,0:1:0:0:
17,222,383705,1,0,0:0:0:0:
0,167,383788,1,0,0:0:0:0:
4,109,383871,1,0,0:0:0:0:
32,58,383955,1,10,0:2:0:0:
77,22,384038,1,0,0:0:0:0:
134,8,384121,1,0,0:0:0:0:
191,17,384205,1,0,0:0:0:0:
240,48,384289,5,10,0:1:0:0:
241,67,384372,1,0,0:0:0:0:
243,87,384455,1,0,0:0:0:0:
244,106,384538,1,0,0:0:0:0:
246,126,384622,1,10,0:1:0:0:
247,146,384705,1,0,0:0:0:0:
249,165,384788,1,0,0:0:0:0:
250,185,384872,1,0,0:0:0:0:
252,205,384955,1,10,0:1:0:0:
253,224,385038,1,0,0:0:0:0:
255,244,385122,1,0,0:0:0:0:
256,263,385205,1,0,0:0:0:0:
258,283,385288,1,10,0:1:0:0:
259,303,385372,1,0,0:0:0:0:
261,322,385455,1,0,0:0:0:0:
262,342,385538,1,0,0:0:0:0:
264,362,385622,1,10,0:1:0:0:
306,376,385705,1,0,0:0:0:0:
350,369,385788,1,0,0:0:0:0:
385,342,385871,1,0,0:0:0:0:
405,302,385955,1,10,0:1:0:0:
403,258,386038,1,0,0:0:0:0:
381,219,386121,1,0,0:0:0:0:
344,195,386205,1,0,0:0:0:0:
300,191,386289,1,10,0:1:0:0:
250,193,386372,1,0,0:2:0:0:
204,157,386455,1,0,0:2:0:0:
192,103,386538,1,0,0:2:0:0:
215,53,386622,1,10,0:1:0:0:
263,26,386705,1,8,0:2:0:0:
317,33,386788,1,8,0:2:0:0:
357,71,386872,1,8,0:2:0:0:
366,126,386955,1,6,0:1:0:0:
