osu file format v14

[General]
AudioFilename: audio.mp3
AudioLeadIn: 0
PreviewTime: -1
Countdown: 1
SampleSet: Soft
StackLeniency: 0.7
Mode: 0
LetterboxInBreaks: 0
WidescreenStoryboard: 0

[Editor]
Bookmarks: 20529,33161,33476,33792,35687,40740,45792,46424,74213,74845
DistanceSpacing: 1.9
BeatDivisor: 4
GridSize: 4
TimelineZoom: 1

[Metadata]
Title:The bloody rage -
TitleUnicode:The bloody rage - 妖精帝國
Artist:Yousei Teikoku
ArtistUnicode:Yousei Teikoku
Creator:Oxia
Version:Jump training
Source:
Tags:
BeatmapID:1160788
BeatmapSetID:548102

[Difficulty]
HPDrainRate:7
CircleSize:4
OverallDifficulty:9
ApproachRate:9.5
SliderMultiplier:1.4
SliderTickRate:1

[Events]
//Background and Video events
//Break Periods
2,21991,30741
//Storyboard Layer 0 (Background)
//Storyboard Layer 1 (Fail)
//Storyboard Layer 2 (Pass)
//Storyboard Layer 3 (Foreground)
//Storyboard Sound Samples

[TimingPoints]
19898,315.789473684211,4,2,0,70,1,0
20292,-66.6666666666667,4,2,0,70,0,0
42240,-50,4,2,0,100,0,0
52266,-100,4,2,0,100,0,0
61898,-50,4,2,0,100,0,0

[HitObjects]
100,64,20529,5,0,0:0:0:0:
224,224,20687,2,0,P|320:200|392:116,1,210.000008010865
232,64,21161,1,0,0:0:0:0:
160,216,21319,1,0,0:0:0:0:
324,184,21476,2,0,P|308:120|156:76,1,210.000008010865
68,52,31266,5,0,0:0:0:0:
68,52,31582,1,0,0:0:0:0:
404,84,31898,5,0,0:0:0:0:
264,176,32055,1,0,0:0:0:0:
428,216,32213,1,0,0:0:0:0:
304,104,32371,2,0,P|208:84|168:104,1,105.000004005432
256,248,32687,1,0,0:0:0:0:
392,148,32845,1,0,0:0:0:0:
244,72,33003,1,0,0:0:0:0:
128,196,33161,5,0,0:0:0:0:
147,244,33239,1,0,0:0:0:0:
183,281,33318,1,0,0:0:0:0:
231,303,33397,1,0,0:0:0:0:
283,306,33476,1,0,0:0:0:0:
220,152,33634,1,0,0:0:0:0:
348,264,33792,1,0,0:0:0:0:
348,264,33871,1,0,0:0:0:0:
348,264,33950,1,0,0:0:0:0:
364,96,34108,5,0,0:0:0:0:
244,216,34266,1,0,0:0:0:0:
292,56,34424,1,0,0:0:0:0:
312,224,34582,2,0,P|240:244|188:232,1,105.000004005432
216,72,34898,1,0,0:0:0:0:
292,220,35055,2,0,B|332:176|332:176|336:120,1,105.000004005432
180,60,35371,5,0,0:0:0:0:
152,224,35529,1,0,0:0:0:0:
260,96,35687,1,0,0:0:0:0:
307,118,35765,1,0,0:0:0:0:
344,155,35844,1,0,0:0:0:0:
368,201,35923,1,0,0:0:0:0:
376,253,36002,1,0,0:0:0:0:
368,304,36081,1,0,0:0:0:0:
344,350,36160,1,0,0:0:0:0:
300,320,36240,6,0,L|256:360,1,52.5000020027161
264,280,36398,2,0,L|312:228,1,52.5000020027161
224,244,36555,2,0,L|176:288,1,52.5000020027161
184,208,36713,2,0,L|228:172,3,52.5000020027161
84,80,37108,5,0,0:0:0:0:
272,92,37266,1,0,0:0:0:0:
140,228,37424,1,0,0:0:0:0:
216,56,37582,1,0,0:0:0:0:
204,244,37740,2,0,P|264:272|320:260,1,105.000004005432
456,160,38055,1,0,0:0:0:0:
439,111,38133,1,0,0:0:0:0:
393,88,38212,1,0,0:0:0:0:
204,68,38371,5,0,0:0:0:0:
316,220,38529,1,0,0:0:0:0:
128,224,38687,1,0,0:0:0:0:
79,212,38765,1,0,0:0:0:0:
72,163,38844,1,0,0:0:0:0:
196,20,39003,5,0,0:0:0:0:
160,204,39161,1,0,0:0:0:0:
316,100,39319,1,0,0:0:0:0:
296,288,39476,1,0,0:0:0:0:
364,112,39634,1,0,0:0:0:0:
300,292,39792,1,0,0:0:0:0:
316,100,39950,1,0,0:0:0:0:
296,288,40108,2,0,P|224:288|164:252,1,105.000004005432
176,88,40424,5,0,0:0:0:0:
308,224,40582,1,0,0:0:0:0:
304,36,40740,1,0,0:0:0:0:
252,45,40818,1,0,0:0:0:0:
203,64,40897,1,0,0:0:0:0:
159,92,40976,1,0,0:0:0:0:
121,128,41055,1,0,0:0:0:0:
91,171,41134,1,0,0:0:0:0:
69,219,41213,1,0,0:0:0:0:
76,268,41292,6,0,L|136:248,1,52.5000020027161
108,320,41450,2,0,L|184:288,1,52.5000020027161
164,352,41608,2,0,L|232:324,1,52.5000020027161
400,324,41844,1,0,0:0:0:0:
400,324,41924,1,0,0:0:0:0:
400,324,42003,1,0,0:0:0:0:
316,64,42161,5,0,0:0:0:0:
188,312,42319,1,0,0:0:0:0:
448,208,42476,2,0,P|432:132|388:84,1,140
112,44,42792,1,0,0:0:0:0:
244,292,42950,1,0,0:0:0:0:
376,44,43108,1,0,0:0:0:0:
104,120,43266,1,0,0:0:0:0:
104,120,43345,1,0,0:0:0:0:
104,120,43424,1,0,0:0:0:0:
324,292,43582,5,0,0:0:0:0:
188,48,43740,1,0,0:0:0:0:
264,316,43898,1,0,0:0:0:0:
264,36,44055,1,0,0:0:0:0:
176,304,44213,1,0,0:0:0:0:
200,24,44371,1,0,0:0:0:0:
328,68,44529,6,0,P|372:128|348:184,1,140
96,56,44845,1,0,0:0:0:0:
244,292,45003,1,0,0:0:0:0:
336,28,45161,1,0,0:0:0:0:
468,276,45319,1,0,0:0:0:0:
192,252,45476,1,0,0:0:0:0:
444,128,45634,1,0,0:0:0:0:
180,84,45792,5,0,0:0:0:0:
180,84,45871,1,0,0:0:0:0:
180,84,45950,1,0,0:0:0:0:
320,308,46108,1,0,0:0:0:0:
380,48,46266,1,0,0:0:0:0:
116,36,46424,5,0,0:0:0:0:
93,101,46502,1,0,0:0:0:0:
93,171,46581,1,0,0:0:0:0:
116,237,46660,1,0,0:0:0:0:
160,291,46739,1,0,0:0:0:0:
219,328,46818,1,0,0:0:0:0:
286,344,46897,1,0,0:0:0:0:
356,336,46976,1,0,0:0:0:0:
419,306,47055,1,0,0:0:0:0:
280,80,47213,5,0,0:0:0:0:
72,244,47371,1,0,0:0:0:0:
280,328,47529,2,0,P|356:312|396:264,1,140
240,84,47845,1,0,0:0:0:0:
252,320,48003,1,0,0:0:0:0:
436,168,48161,1,0,0:0:0:0:
200,140,48319,1,0,0:0:0:0:
200,140,48398,1,0,0:0:0:0:
200,140,48476,1,0,0:0:0:0:
396,276,48634,6,0,P|440:208|432:136,1,140
216,60,48950,1,0,0:0:0:0:
420,184,49108,1,0,0:0:0:0:
200,96,49266,2,0,P|120:128|92:176,1,140
264,340,49582,1,0,0:0:0:0:
340,116,49740,1,0,0:0:0:0:
144,252,49898,1,0,0:0:0:0:
380,272,50055,2,0,P|440:216|440:140,1,140
240,36,50371,5,0,0:0:0:0:
120,240,50529,1,0,0:0:0:0:
360,240,50687,1,0,0:0:0:0:
192,72,50845,1,0,0:0:0:0:
144,304,51003,1,0,0:0:0:0:
360,240,51161,1,0,0:0:0:0:
160,112,51319,1,0,0:0:0:0:
292,308,51476,5,0,0:0:0:0:
357,285,51554,1,0,0:0:0:0:
405,235,51633,1,0,0:0:0:0:
423,168,51712,1,0,0:0:0:0:
407,101,51791,1,0,0:0:0:0:
362,48,51870,1,0,0:0:0:0:
297,24,51950,2,0,L|224:40,2,70
116,176,52424,6,0,B|204:216|224:236|224:236|240:220,1,140
376,76,53055,6,0,B|387:64|387:64|407:84|495:124,1,140
456,216,53529,1,0,0:0:0:0:
372,116,53687,1,0,0:0:0:0:
304,232,53845,1,0,0:0:0:0:
224,112,54003,1,0,0:0:0:0:
144,236,54161,1,0,0:0:0:0:
72,112,54319,6,0,B|112:68|168:60|168:60|192:80,2,140
440,272,55266,6,0,B|400:316|344:324|344:324|320:304,2,140
400,184,56055,1,0,0:0:0:0:
276,124,56213,1,0,0:0:0:0:
392,52,56371,1,0,0:0:0:0:
292,152,56529,1,0,0:0:0:0:
420,232,56687,1,0,0:0:0:0:
288,304,56845,2,0,B|208:284|188:256|188:256|204:224,1,140
216,64,57476,6,0,B|268:76|312:104|312:104|296:144,1,140
296,320,58108,6,0,B|244:308|200:280|200:280|216:240,1,140
268,140,58582,1,0,0:0:0:0:
164,80,58740,1,0,0:0:0:0:
268,20,58898,1,0,0:0:0:0:
368,80,59055,1,0,0:0:0:0:
268,140,59213,1,0,0:0:0:0:
164,80,59371,1,0,0:0:0:0:
368,80,59529,1,0,0:0:0:0:
164,80,59687,2,0,B|116:112|116:156|116:156|148:188,1,140
348,304,60319,6,0,B|396:272|396:228|396:228|364:196,1,140
272,120,60792,1,0,0:0:0:0:
216,224,60950,1,0,0:0:0:0:
152,124,61108,1,0,0:0:0:0:
96,228,61266,1,0,0:0:0:0:
188,152,61424,1,0,0:0:0:0:
268,240,61582,1,0,0:0:0:0:
352,156,61740,1,0,0:0:0:0:
268,72,61898,1,0,0:0:0:0:
112,244,62213,5,0,0:0:0:0:
312,68,62371,1,0,0:0:0:0:
352,136,62687,5,0,0:0:0:0:
88,176,62845,1,0,0:0:0:0:
88,104,63161,5,0,0:0:0:0:
336,200,63319,1,0,0:0:0:0:
76,180,63634,5,0,0:0:0:0:
340,132,63792,1,0,0:0:0:0:
72,56,64108,5,0,0:0:0:0:
336,84,64266,1,0,0:0:0:0:
128,248,64424,1,0,0:0:0:0:
400,244,64740,5,0,0:0:0:0:
200,68,64898,1,0,0:0:0:0:
160,136,65214,5,0,0:0:0:0:
424,176,65372,1,0,0:0:0:0:
424,104,65688,5,0,0:0:0:0:
176,200,65846,1,0,0:0:0:0:
436,180,66161,5,0,0:0:0:0:
172,132,66319,1,0,0:0:0:0:
440,56,66635,5,0,0:0:0:0:
176,84,66793,1,0,0:0:0:0:
384,248,66951,1,0,0:0:0:0:
112,140,67266,5,0,0:0:0:0:
312,316,67424,1,0,0:0:0:0:
352,248,67740,5,0,0:0:0:0:
88,208,67898,1,0,0:0:0:0:
88,280,68214,5,0,0:0:0:0:
336,184,68372,1,0,0:0:0:0:
76,204,68687,5,0,0:0:0:0:
340,252,68845,1,0,0:0:0:0:
72,328,69161,5,0,0:0:0:0:
336,300,69319,1,0,0:0:0:0:
128,136,69477,1,0,0:0:0:0:
400,140,69792,5,0,0:0:0:0:
200,316,69950,1,0,0:0:0:0:
160,248,70266,5,0,0:0:0:0:
424,208,70424,1,0,0:0:0:0:
424,280,70740,5,0,0:0:0:0:
176,184,70898,1,0,0:0:0:0:
436,204,71213,5,0,0:0:0:0:
172,252,71371,1,0,0:0:0:0:
440,328,71687,5,0,0:0:0:0:
176,300,71845,1,0,0:0:0:0:
384,136,72003,2,0,B|304:92|148:108|148:108|128:148,1,280
128,248,72634,2,0,B|208:292|364:276|364:276|384:236,1,280
164,48,73266,2,0,B|108:104|260:236|260:236|316:152,1,280
492,28,74213,5,0,0:0:0:0:
434,68,74291,1,0,0:0:0:0:
377,108,74370,1,0,0:0:0:0:
320,148,74449,1,0,0:0:0:0:
263,189,74528,1,0,0:0:0:0:
205,229,74607,1,0,0:0:0:0:
148,269,74686,1,0,0:0:0:0:
91,310,74765,1,0,0:0:0:0:
32,348,74845,1,0,0:0:0:0:
88,88,75003,5,0,0:0:0:0:
296,252,75161,1,0,0:0:0:0:
44,336,75319,1,0,0:0:0:0:
156,96,75476,2,0,P|216:60|288:52,2,140
80,352,75950,1,0,0:0:0:0:
324,248,76108,1,0,0:0:0:0:
324,248,76187,1,0,0:0:0:0:
324,248,76266,1,0,0:0:0:0:
64,192,76424,6,0,P|80:120|128:72,1,140
376,172,76740,1,0,0:0:0:0:
144,304,76898,1,0,0:0:0:0:
108,44,77055,1,0,0:0:0:0:
108,44,77134,1,0,0:0:0:0:
108,44,77213,1,0,0:0:0:0:
360,132,77371,1,0,0:0:0:0:
120,248,77529,1,0,0:0:0:0:
372,336,77687,1,0,0:0:0:0:
372,336,77766,1,0,0:0:0:0:
372,336,77845,1,0,0:0:0:0:
140,204,78003,5,0,0:0:0:0:
384,92,78161,1,0,0:0:0:0:
128,24,78319,1,0,0:0:0:0:
128,24,78398,1,0,0:0:0:0:
128,24,78476,1,0,0:0:0:0:
364,144,78634,1,0,0:0:0:0:
128,264,78792,1,0,0:0:0:0:
264,36,78950,1,0,0:0:0:0:
264,36,79029,1,0,0:0:0:0:
264,36,79108,1,0,0:0:0:0:
500,156,79266,5,0,0:0:0:0:
465,216,79344,1,0,0:0:0:0:
415,265,79423,1,0,0:0:0:0:
353,296,79502,1,0,0:0:0:0:
284,309,79581,1,0,0:0:0:0:
215,301,79660,1,0,0:0:0:0:
151,273,79739,1,0,0:0:0:0:
97,229,79818,1,0,0:0:0:0:
59,170,79897,1,0,0:0:0:0:
296,52,80055,5,0,0:0:0:0:
200,300,80213,1,0,0:0:0:0:
28,100,80371,1,0,0:0:0:0:
272,208,80529,1,0,0:0:0:0:
272,208,80608,1,0,0:0:0:0:
272,208,80687,1,0,0:0:0:0:
72,32,80845,1,0,0:0:0:0:
204,264,81003,1,0,0:0:0:0:
364,52,81161,5,0,0:0:0:0:
364,52,81240,1,0,0:0:0:0:
364,52,81319,1,0,0:0:0:0:
