osu file format v14

[General]
AudioFilename: audio.mp3
AudioLeadIn: 0
PreviewTime: 53086
Countdown: 0
SampleSet: Normal
StackLeniency: 0.7
Mode: 1
LetterboxInBreaks: 0
WidescreenStoryboard: 1

[Editor]
DistanceSpacing: 1.5
BeatDivisor: 12
GridSize: 32
TimelineZoom: 3.299999

[Metadata]
Title:The Creator
TitleUnicode:The Creator
Artist:Yousei Teikoku
ArtistUnicode:妖精帝國
Creator:ler1211
Version:The End
Source:未来日記
Tags:yassu- Mirai Nikki Yōsei Teikoku PAX VESANIA LACA-15285 oad ova ending ed YUI 橘尭葉 Takaha Tachibana Das Feenreich japanese rock jrock j-rock
BeatmapID:3688744
BeatmapSetID:1798859

[Difficulty]
HPDrainRate:6.5
CircleSize:5
OverallDifficulty:8
ApproachRate:5
SliderMultiplier:1.4
SliderTickRate:1

[Events]
//Background and Video events
0,0,"yuno.jpg",0,0
//Break Periods
//Storyboard Layer 0 (Background)
//Storyboard Layer 1 (Fail)
//Storyboard Layer 2 (Pass)
//Storyboard Layer 3 (Foreground)
//Storyboard Layer 4 (Overlay)
//Storyboard Sound Samples

[TimingPoints]
373,214.285714285714,8,1,0,80,1,8
373,-125,4,1,0,80,0,0
2087,214.285714285714,4,1,0,80,1,0
2087,-125,4,1,0,80,0,0
8461,-111.111111111111,4,1,0,80,0,0
8569,-108.108108108108,4,1,0,80,0,0
8676,-105.263157894737,4,1,0,80,0,0
8783,-102.564102564103,4,1,0,80,0,0
8890,-100,4,1,0,100,0,0
22765,-117.647058823529,4,1,0,80,0,0
29033,-111.111111111111,4,1,0,80,0,0
29141,-108.108108108108,4,1,0,80,0,0
29248,-105.263157894737,4,1,0,80,0,0
29355,-102.564102564103,4,1,0,80,0,0
29462,-100,4,1,0,100,0,0
36479,-117.647058823529,4,1,0,80,0,0
43229,214.285714285714,5,1,0,80,1,0
43229,-117.647058823529,4,1,0,80,0,0
43336,-90.9090909090909,4,1,0,100,0,0
43547,-92.088628045627,4,1,0,90,0,0
43654,-93.2834695685842,4,1,0,90,0,0
43761,-94.4938140509761,4,1,0,90,0,0
43869,-95.7198626422828,4,1,0,90,0,0
43976,-96.9618191018805,4,1,0,90,0,0
44190,-99.4942839165532,4,1,0,90,0,0
44297,-100.785213146832,4,1,0,90,0,0
44404,-102.092892065757,4,1,0,90,0,0
44511,-103.417537999004,4,1,0,90,0,0
44619,-104.759371092032,4,1,0,90,0,0
44726,-106.118614346668,4,1,0,90,0,0
44833,-107.495493658164,4,1,0,90,0,0
44940,-108.890237852745,4,1,0,90,0,0
45047,-110.303078725634,4,1,0,90,0,0
45154,-111.734251079577,4,1,0,90,0,0
45261,-113.183992763862,4,1,0,90,0,0
45369,-114.652544713852,4,1,0,90,0,0
45476,-116.140150991024,4,1,0,90,0,0
45583,-90.9090909090909,4,1,0,90,0,0
45690,-92.088628045627,4,1,0,90,0,0
45797,-93.2834695685842,4,1,0,90,0,0
45904,-94.4938140509761,4,1,0,90,0,0
46012,-95.7198626422828,4,1,0,90,0,0
46119,-96.9618191018805,4,1,0,90,0,0
46226,-98.2198898329049,4,1,0,90,0,0
46333,-99.4942839165532,4,1,0,90,0,0
46440,-100.785213146832,4,1,0,90,0,0
46547,-102.092892065757,4,1,0,90,0,0
46654,-103.417537999004,4,1,0,90,0,0
46762,-104.759371092032,4,1,0,90,0,0
46869,-106.118614346668,4,1,0,90,0,0
46976,-107.495493658164,4,1,0,90,0,0
47083,-108.890237852745,4,1,0,90,0,0
47190,-110.303078725634,4,1,0,90,0,0
47297,-111.734251079577,4,1,0,90,0,0
47404,-113.183992763862,4,1,0,90,0,0
47512,-114.652544713852,4,1,0,90,0,0
47619,-116.140150991024,4,1,0,90,0,0
47726,-90.9090909090909,4,1,0,90,0,0
47833,-92.088628045627,4,1,0,90,0,0
47940,-93.2834695685842,4,1,0,90,0,0
48047,-94.4938140509761,4,1,0,90,0,0
48155,-95.7198626422828,4,1,0,90,0,0
48262,-96.9618191018805,4,1,0,90,0,0
48369,-98.2198898329049,4,1,0,90,0,0
48476,-99.4942839165532,4,1,0,90,0,0
48583,-100.785213146832,4,1,0,90,0,0
48690,-102.092892065757,4,1,0,90,0,0
48797,-103.417537999004,4,1,0,90,0,0
48905,-104.759371092032,4,1,0,90,0,0
49012,-106.118614346668,4,1,0,90,0,0
49119,-107.495493658164,4,1,0,90,0,0
49226,-108.890237852745,4,1,0,90,0,0
49333,-110.303078725634,4,1,0,90,0,0
49440,-111.734251079577,4,1,0,90,0,0
49547,-113.183992763862,4,1,0,90,0,0
49655,-114.652544713852,4,1,0,90,0,0
49762,-116.140150991024,4,1,0,90,0,0
49869,-90.9090909090909,4,1,0,90,0,0
49976,-92.088628045627,4,1,0,90,0,0
50083,-93.2834695685842,4,1,0,90,0,0
50190,-94.4938140509761,4,1,0,90,0,0
50298,-95.7198626422828,4,1,0,90,0,0
50405,-96.9618191018805,4,1,0,90,0,0
50512,-98.2198898329049,4,1,0,90,0,0
50619,-99.4942839165532,4,1,0,90,0,0
50726,-100.785213146832,4,1,0,90,0,0
50833,-102.092892065757,4,1,0,90,0,0
50940,-103.417537999004,4,1,0,90,0,0
51048,-104.759371092032,4,1,0,90,0,0
51155,-106.118614346668,4,1,0,90,0,0
51262,-107.495493658164,4,1,0,90,0,0
51369,-108.890237852745,4,1,0,90,0,0
51476,-110.303078725634,4,1,0,90,0,0
51583,-111.734251079577,4,1,0,90,0,0
51690,-113.183992763862,4,1,0,90,0,0
51800,214.285714285714,4,1,0,90,1,0
51800,-114.652544713852,4,1,0,90,0,0
53514,214.285714285714,4,1,0,100,1,1
53514,-100,4,1,0,100,0,1
74085,-100,4,1,0,100,0,0
87907,-117.647058823529,4,1,0,80,0,0
94550,-100,4,1,0,100,0,0
101621,-117.647058823529,4,1,0,80,0,0
108371,214.285714285714,5,1,0,80,1,0
108371,-117.647058823529,5,1,0,80,0,0
108478,-90.9090909090909,4,1,0,100,0,0
108689,-92.088628045627,4,1,0,90,0,0
108796,-93.2834695685842,4,1,0,90,0,0
108903,-94.4938140509761,4,1,0,90,0,0
109011,-95.7198626422828,4,1,0,90,0,0
109118,-96.9618191018805,4,1,0,90,0,0
109332,-99.4942839165532,4,1,0,90,0,0
109439,-100.785213146832,4,1,0,90,0,0
109546,-102.092892065757,4,1,0,90,0,0
109653,-103.417537999004,4,1,0,90,0,0
109761,-104.759371092032,4,1,0,90,0,0
109868,-106.118614346668,4,1,0,90,0,0
109975,-107.495493658164,4,1,0,90,0,0
110082,-108.890237852745,4,1,0,90,0,0
110189,-110.303078725634,4,1,0,90,0,0
110296,-111.734251079577,4,1,0,90,0,0
110403,-113.183992763862,4,1,0,90,0,0
110511,-114.652544713852,4,1,0,90,0,0
110618,-116.140150991024,4,1,0,90,0,0
110725,-90.9090909090909,4,1,0,90,0,0
110832,-92.088628045627,4,1,0,90,0,0
110939,-93.2834695685842,4,1,0,90,0,0
111046,-94.4938140509761,4,1,0,90,0,0
111154,-95.7198626422828,4,1,0,90,0,0
111261,-96.9618191018805,4,1,0,90,0,0
111368,-98.2198898329049,4,1,0,90,0,0
111475,-99.4942839165532,4,1,0,90,0,0
111582,-100.785213146832,4,1,0,90,0,0
111689,-102.092892065757,4,1,0,90,0,0
111796,-103.417537999004,4,1,0,90,0,0
111904,-104.759371092032,4,1,0,90,0,0
112011,-106.118614346668,4,1,0,90,0,0
112118,-107.495493658164,4,1,0,90,0,0
112225,-108.890237852745,4,1,0,90,0,0
112332,-110.303078725634,4,1,0,90,0,0
112439,-111.734251079577,4,1,0,90,0,0
112546,-113.183992763862,4,1,0,90,0,0
112654,-114.652544713852,4,1,0,90,0,0
112761,-116.140150991024,4,1,0,90,0,0
112868,-90.9090909090909,4,1,0,90,0,0
112975,-92.088628045627,4,1,0,90,0,0
113082,-93.2834695685842,4,1,0,90,0,0
113189,-94.4938140509761,4,1,0,90,0,0
113297,-95.7198626422828,4,1,0,90,0,0
113404,-96.9618191018805,4,1,0,90,0,0
113511,-98.2198898329049,4,1,0,90,0,0
113618,-99.4942839165532,4,1,0,90,0,0
113725,-100.785213146832,4,1,0,90,0,0
113832,-102.092892065757,4,1,0,90,0,0
113939,-103.417537999004,4,1,0,90,0,0
114047,-104.759371092032,4,1,0,90,0,0
114154,-106.118614346668,4,1,0,90,0,0
114261,-107.495493658164,4,1,0,90,0,0
114368,-108.890237852745,4,1,0,90,0,0
114475,-110.303078725634,4,1,0,90,0,0
114582,-111.734251079577,4,1,0,90,0,0
114689,-113.183992763862,4,1,0,90,0,0
114797,-114.652544713852,4,1,0,90,0,0
114904,-116.140150991024,4,1,0,90,0,0
115011,-90.9090909090909,4,1,0,90,0,0
115118,-92.088628045627,4,1,0,90,0,0
115225,-93.2834695685842,4,1,0,90,0,0
115332,-94.4938140509761,4,1,0,90,0,0
115440,-95.7198626422828,4,1,0,90,0,0
115547,-96.9618191018805,4,1,0,90,0,0
115654,-98.2198898329049,4,1,0,90,0,0
115761,-99.4942839165532,4,1,0,90,0,0
115868,-100.785213146832,4,1,0,90,0,0
115975,-102.092892065757,4,1,0,90,0,0
116082,-103.417537999004,4,1,0,90,0,0
116190,-104.759371092032,4,1,0,90,0,0
116297,-106.118614346668,4,1,0,90,0,0
116404,-107.495493658164,4,1,0,90,0,0
116511,-108.890237852745,4,1,0,90,0,0
116618,-110.303078725634,4,1,0,90,0,0
116725,-111.734251079577,4,1,0,90,0,0
116832,-113.183992763862,4,1,0,90,0,0
116942,214.285714285714,4,1,0,90,1,0
116942,-114.652544713852,4,1,0,90,0,0
118656,214.285714285714,4,1,0,100,1,1
118656,-100,4,1,0,100,0,1
139227,-100,4,1,0,100,0,0
139334,-111.111111111111,4,1,0,90,0,0
146084,-100,4,1,0,100,0,1
159798,-100,4,1,0,100,0,0
160548,-111.111111111111,4,1,0,80,0,0
161513,214.285714285714,5,1,0,80,1,0
161513,-111.111111111111,5,1,0,80,0,0
161620,-90.9090909090909,4,1,0,100,0,0
161831,-92.088628045627,4,1,0,90,0,0
161938,-93.2834695685842,4,1,0,90,0,0
162045,-94.4938140509761,4,1,0,90,0,0
162153,-95.7198626422828,4,1,0,90,0,0
162260,-96.9618191018805,4,1,0,90,0,0
162474,-99.4942839165532,4,1,0,90,0,0
162581,-100.785213146832,4,1,0,90,0,0
162688,-102.092892065757,4,1,0,90,0,0
162795,-103.417537999004,4,1,0,90,0,0
162903,-104.759371092032,4,1,0,90,0,0
163010,-106.118614346668,4,1,0,90,0,0
163117,-107.495493658164,4,1,0,90,0,0
163224,-108.890237852745,4,1,0,90,0,0
163331,-110.303078725634,4,1,0,90,0,0
163438,-111.734251079577,4,1,0,90,0,0
163545,-113.183992763862,4,1,0,90,0,0
163653,-114.652544713852,4,1,0,90,0,0
163760,-116.140150991024,4,1,0,90,0,0
163867,-90.9090909090909,4,1,0,90,0,0
163974,-92.088628045627,4,1,0,90,0,0
164081,-93.2834695685842,4,1,0,90,0,0
164188,-94.4938140509761,4,1,0,90,0,0
164296,-95.7198626422828,4,1,0,90,0,0
164403,-96.9618191018805,4,1,0,90,0,0
164510,-98.2198898329049,4,1,0,90,0,0
164617,-99.4942839165532,4,1,0,90,0,0
164724,-100.785213146832,4,1,0,90,0,0
164831,-102.092892065757,4,1,0,90,0,0
164938,-103.417537999004,4,1,0,90,0,0
165046,-104.759371092032,4,1,0,90,0,0
165153,-106.118614346668,4,1,0,90,0,0
165260,-107.495493658164,4,1,0,90,0,0
165367,-108.890237852745,4,1,0,90,0,0
165474,-110.303078725634,4,1,0,90,0,0
165581,-111.734251079577,4,1,0,90,0,0
165688,-113.183992763862,4,1,0,90,0,0
165796,-114.652544713852,4,1,0,90,0,0
165903,-116.140150991024,4,1,0,90,0,0
166010,-90.9090909090909,4,1,0,90,0,0
166117,-92.088628045627,4,1,0,90,0,0
166224,-93.2834695685842,4,1,0,90,0,0
166331,-94.4938140509761,4,1,0,90,0,0
166439,-95.7198626422828,4,1,0,90,0,0
166546,-96.9618191018805,4,1,0,90,0,0
166653,-98.2198898329049,4,1,0,90,0,0
166760,-99.4942839165532,4,1,0,90,0,0
166867,-100.785213146832,4,1,0,90,0,0
166974,-102.092892065757,4,1,0,90,0,0
167081,-103.417537999004,4,1,0,90,0,0
167189,-104.759371092032,4,1,0,90,0,0
167296,-106.118614346668,4,1,0,90,0,0
167403,-107.495493658164,4,1,0,90,0,0
167510,-108.890237852745,4,1,0,90,0,0
167617,-110.303078725634,4,1,0,90,0,0
167724,-111.734251079577,4,1,0,90,0,0
167831,-113.183992763862,4,1,0,90,0,0
167939,-114.652544713852,4,1,0,90,0,0
168046,-116.140150991024,4,1,0,90,0,0
168153,-90.9090909090909,4,1,0,90,0,0
168260,-92.088628045627,4,1,0,90,0,0
168367,-93.2834695685842,4,1,0,90,0,0
168474,-94.4938140509761,4,1,0,90,0,0
168582,-95.7198626422828,4,1,0,90,0,0
168689,-96.9618191018805,4,1,0,90,0,0
168796,-98.2198898329049,4,1,0,90,0,0
168903,-99.4942839165532,4,1,0,90,0,0
169010,-100.785213146832,4,1,0,90,0,0
169117,-102.092892065757,4,1,0,90,0,0
169224,-103.417537999004,4,1,0,90,0,0
169332,-104.759371092032,4,1,0,90,0,0
169439,-106.118614346668,4,1,0,90,0,0
169546,-107.495493658164,4,1,0,90,0,0
169653,-108.890237852745,4,1,0,90,0,0
169760,-110.303078725634,4,1,0,90,0,0
169867,-111.734251079577,4,1,0,90,0,0
169974,-113.183992763862,4,1,0,90,0,0
170084,214.285714285714,4,1,0,90,1,0
170084,-114.652544713852,4,1,0,90,0,0
171798,214.285714285714,4,1,0,90,1,0
171798,-100,4,1,0,90,0,0
172012,-125,4,1,0,80,0,0
178601,-111.111111111111,4,1,0,90,0,0
185512,-100,4,1,0,100,0,1
206083,-100,4,1,0,100,0,0

[HitObjects]
256,192,1872,5,0,0:0:0:0:
256,192,1980,1,0,0:0:0:0:
256,192,2087,1,12,0:0:0:0:
256,192,2301,1,0,0:0:0:0:
256,192,2515,1,8,0:0:0:0:
256,192,2729,1,8,0:0:0:0:
256,192,3801,1,8,0:0:0:0:
256,192,4015,1,8,0:0:0:0:
256,192,4229,1,0,0:0:0:0:
256,192,4444,1,8,0:0:0:0:
256,192,5086,1,8,0:0:0:0:
256,192,5301,1,0,0:0:0:0:
256,192,5408,1,0,0:0:0:0:
256,192,5515,1,12,0:0:0:0:
256,192,5729,1,0,0:0:0:0:
256,192,5944,1,8,0:0:0:0:
256,192,6158,1,8,0:0:0:0:
256,192,7229,1,8,0:0:0:0:
256,192,7444,1,8,0:0:0:0:
256,192,7658,1,0,0:0:0:0:
256,192,7872,1,8,0:0:0:0:
256,192,8515,1,8,0:0:0:0:
256,192,8622,1,0,0:0:0:0:
256,192,8729,1,8,0:0:0:0:
256,192,8836,1,8,0:0:0:0:
256,192,8944,1,4,0:0:0:0:
256,192,9158,1,8,0:0:0:0:
256,192,9265,1,0,0:0:0:0:
256,192,9372,1,8,0:0:0:0:
256,192,9426,1,8,0:0:0:0:
256,192,9479,1,0,0:0:0:0:
256,192,9533,1,0,0:0:0:0:
256,192,9586,1,8,0:0:0:0:
256,192,9694,1,8,0:0:0:0:
256,192,9801,1,0,0:0:0:0:
256,192,9908,1,0,0:0:0:0:
256,192,9961,1,0,0:0:0:0:
256,192,10015,1,8,0:0:0:0:
256,192,10122,1,0,0:0:0:0:
256,192,10229,1,8,0:0:0:0:
256,192,10283,1,0,0:0:0:0:
256,192,10336,1,0,0:0:0:0:
256,192,10444,1,8,0:0:0:0:
256,192,10497,1,8,0:0:0:0:
256,192,10551,1,0,0:0:0:0:
256,192,10658,1,8,0:0:0:0:
256,192,10765,1,0,0:0:0:0:
256,192,10872,1,8,0:0:0:0:
256,192,10926,1,8,0:0:0:0:
256,192,10979,1,8,0:0:0:0:
256,192,11033,1,8,0:0:0:0:
256,192,11086,1,0,0:0:0:0:
256,192,11194,1,8,0:0:0:0:
256,192,11301,1,0,0:0:0:0:
256,192,11354,1,0,0:0:0:0:
256,192,11408,1,8,0:0:0:0:
256,192,11461,1,0,0:0:0:0:
256,192,11515,1,8,0:0:0:0:
256,192,11622,1,0,0:0:0:0:
256,192,11676,1,0,0:0:0:0:
256,192,11729,1,8,0:0:0:0:
256,192,11836,1,0,0:0:0:0:
256,192,11944,1,8,0:0:0:0:
256,192,11997,1,8,0:0:0:0:
256,192,12051,1,8,0:0:0:0:
256,192,12104,1,8,0:0:0:0:
256,192,12158,1,0,0:0:0:0:
256,192,12211,1,0,0:0:0:0:
256,192,12265,1,8,0:0:0:0:
256,192,12372,1,4,0:0:0:0:
256,192,12586,1,8,0:0:0:0:
256,192,12694,1,0,0:0:0:0:
256,192,12801,1,8,0:0:0:0:
256,192,12854,1,0,0:0:0:0:
256,192,12908,1,8,0:0:0:0:
256,192,12961,1,8,0:0:0:0:
256,192,13015,1,0,0:0:0:0:
256,192,13122,1,8,0:0:0:0:
256,192,13229,1,0,0:0:0:0:
256,192,13336,1,0,0:0:0:0:
256,192,13390,1,0,0:0:0:0:
256,192,13444,1,8,0:0:0:0:
256,192,13551,1,0,0:0:0:0:
256,192,13658,1,8,0:0:0:0:
256,192,13711,1,0,0:0:0:0:
256,192,13765,1,0,0:0:0:0:
256,192,13819,1,0,0:0:0:0:
256,192,13872,1,8,0:0:0:0:
256,192,13926,1,8,0:0:0:0:
256,192,13979,1,0,0:0:0:0:
256,192,14033,1,0,0:0:0:0:
256,192,14086,1,8,0:0:0:0:
256,192,14194,1,0,0:0:0:0:
256,192,14301,1,8,0:0:0:0:
256,192,14354,1,0,0:0:0:0:
256,192,14408,1,8,0:0:0:0:
256,192,14461,1,8,0:0:0:0:
256,192,14515,1,0,0:0:0:0:
256,192,14622,1,0,0:0:0:0:
256,192,14729,1,8,0:0:0:0:
256,192,14783,1,8,0:0:0:0:
256,192,14836,1,8,0:0:0:0:
256,192,14944,1,0,0:0:0:0:
256,192,15051,1,8,0:0:0:0:
256,192,15104,1,0,0:0:0:0:
256,192,15158,1,8,0:0:0:0:
256,192,15265,1,0,0:0:0:0:
256,192,15372,1,8,0:0:0:0:
256,192,15426,1,8,0:0:0:0:
256,192,15479,1,0,0:0:0:0:
256,192,15533,1,8,0:0:0:0:
256,192,15586,1,0,0:0:0:0:
256,192,15640,1,0,0:0:0:0:
256,192,15694,1,8,0:0:0:0:
256,192,15801,1,4,0:0:0:0:
256,192,16015,1,8,0:0:0:0:
256,192,16122,1,8,0:0:0:0:
256,192,16229,1,0,0:0:0:0:
256,192,16283,1,0,0:0:0:0:
256,192,16336,1,8,0:0:0:0:
256,192,16390,1,8,0:0:0:0:
256,192,16444,1,0,0:0:0:0:
256,192,16551,1,8,0:0:0:0:
256,192,16658,1,0,0:0:0:0:
256,192,16765,1,8,0:0:0:0:
256,192,16819,1,0,0:0:0:0:
256,192,16872,1,8,0:0:0:0:
256,192,16979,1,0,0:0:0:0:
256,192,17086,1,8,0:0:0:0:
256,192,17140,1,0,0:0:0:0:
256,192,17194,1,0,0:0:0:0:
256,192,17301,1,8,0:0:0:0:
256,192,17354,1,8,0:0:0:0:
256,192,17408,1,0,0:0:0:0:
256,192,17515,1,8,0:0:0:0:
256,192,17622,1,0,0:0:0:0:
256,192,17729,1,8,0:0:0:0:
256,192,17783,1,8,0:0:0:0:
256,192,17836,1,0,0:0:0:0:
256,192,17890,1,0,0:0:0:0:
256,192,17944,1,8,0:0:0:0:
256,192,18051,1,8,0:0:0:0:
256,192,18158,1,0,0:0:0:0:
256,192,18211,1,0,0:0:0:0:
256,192,18265,1,0,0:0:0:0:
256,192,18319,1,0,0:0:0:0:
256,192,18372,1,8,0:0:0:0:
256,192,18479,1,0,0:0:0:0:
256,192,18533,1,0,0:0:0:0:
256,192,18586,1,8,0:0:0:0:
256,192,18694,1,0,0:0:0:0:
256,192,18801,1,8,0:0:0:0:
256,192,18854,1,0,0:0:0:0:
256,192,18908,1,8,0:0:0:0:
256,192,18961,1,8,0:0:0:0:
256,192,19015,1,0,0:0:0:0:
256,192,19069,1,0,0:0:0:0:
256,192,19122,1,8,0:0:0:0:
256,192,19229,1,4,0:0:0:0:
256,192,19444,1,8,0:0:0:0:
256,192,19551,1,8,0:0:0:0:
256,192,19658,1,0,0:0:0:0:
256,192,19711,1,0,0:0:0:0:
256,192,19765,1,8,0:0:0:0:
256,192,19819,1,0,0:0:0:0:
256,192,19872,1,8,0:0:0:0:
256,192,19979,1,0,0:0:0:0:
256,192,20086,1,8,0:0:0:0:
256,192,20194,1,0,0:0:0:0:
256,192,20247,1,0,0:0:0:0:
256,192,20301,1,8,0:0:0:0:
256,192,20408,1,0,0:0:0:0:
256,192,20515,1,8,0:0:0:0:
256,192,20569,1,0,0:0:0:0:
256,192,20622,1,0,0:0:0:0:
256,192,20676,1,0,0:0:0:0:
256,192,20729,1,8,0:0:0:0:
256,192,20783,1,8,0:0:0:0:
256,192,20836,1,8,0:0:0:0:
256,192,20890,1,8,0:0:0:0:
256,192,20944,1,0,0:0:0:0:
256,192,21051,1,0,0:0:0:0:
256,192,21158,1,8,0:0:0:0:
256,192,21211,1,8,0:0:0:0:
256,192,21265,1,0,0:0:0:0:
256,192,21319,1,0,0:0:0:0:
256,192,21372,1,8,0:0:0:0:
256,192,21479,1,0,0:0:0:0:
256,192,21586,1,8,0:0:0:0:
256,192,21640,1,8,0:0:0:0:
256,192,21694,1,8,0:0:0:0:
256,192,21801,1,0,0:0:0:0:
256,192,21908,1,8,0:0:0:0:
256,192,21961,1,0,0:0:0:0:
256,192,22015,1,8,0:0:0:0:
256,192,22122,1,0,0:0:0:0:
256,192,22229,1,8,0:0:0:0:
256,192,22301,1,0,0:0:0:0:
256,192,22372,1,0,0:0:0:0:
256,192,22444,1,8,0:0:0:0:
256,192,22515,1,0,0:0:0:0:
256,192,22586,1,0,0:0:0:0:
256,192,22658,1,12,0:0:0:0:
256,192,22872,1,0,0:0:0:0:
256,192,23086,1,8,0:0:0:0:
256,192,23301,1,0,0:0:0:0:
256,192,23408,1,8,0:0:0:0:
256,192,23622,1,8,0:0:0:0:
256,192,23729,1,0,0:0:0:0:
256,192,23944,1,8,0:0:0:0:
256,192,24051,1,8,0:0:0:0:
256,192,24158,1,0,0:0:0:0:
256,192,24265,1,0,0:0:0:0:
256,192,24372,1,12,0:0:0:0:
256,192,24586,1,0,0:0:0:0:
256,192,24801,1,8,0:0:0:0:
256,192,25015,1,0,0:0:0:0:
256,192,25122,1,8,0:0:0:0:
256,192,25336,1,8,0:0:0:0:
256,192,25444,1,0,0:0:0:0:
256,192,25658,1,8,0:0:0:0:
256,192,25765,1,8,0:0:0:0:
256,192,25872,1,0,0:0:0:0:
256,192,26086,1,12,0:0:0:0:
256,192,26301,1,0,0:0:0:0:
256,192,26515,1,8,0:0:0:0:
256,192,26729,1,0,0:0:0:0:
256,192,26836,1,8,0:0:0:0:
256,192,27051,1,8,0:0:0:0:
256,192,27158,1,0,0:0:0:0:
256,192,27265,1,0,0:0:0:0:
256,192,27372,1,8,0:0:0:0:
256,192,27479,1,8,0:0:0:0:
256,192,27586,1,0,0:0:0:0:
256,192,27801,1,12,0:0:0:0:
256,192,28015,1,0,0:0:0:0:
256,192,28229,1,8,0:0:0:0:
256,192,28444,1,8,0:0:0:0:
256,192,28551,1,0,0:0:0:0:
256,192,28765,1,0,0:0:0:0:
256,192,28872,1,0,0:0:0:0:
256,192,29086,1,8,0:0:0:0:
256,192,29194,1,0,0:0:0:0:
256,192,29301,1,8,0:0:0:0:
256,192,29408,1,8,0:0:0:0:
256,192,29515,1,4,0:0:0:0:
256,192,29729,1,8,0:0:0:0:
256,192,29836,1,0,0:0:0:0:
256,192,29944,1,8,0:0:0:0:
256,192,29997,1,8,0:0:0:0:
256,192,30051,1,0,0:0:0:0:
256,192,30158,1,8,0:0:0:0:
256,192,30265,1,0,0:0:0:0:
256,192,30319,1,0,0:0:0:0:
256,192,30372,1,8,0:0:0:0:
256,192,30479,1,0,0:0:0:0:
256,192,30586,1,8,0:0:0:0:
256,192,30694,1,0,0:0:0:0:
256,192,30801,1,8,0:0:0:0:
256,192,30854,1,8,0:0:0:0:
256,192,30908,1,0,0:0:0:0:
256,192,30961,1,0,0:0:0:0:
256,192,31015,1,8,0:0:0:0:
256,192,31069,1,0,0:0:0:0:
256,192,31122,1,0,0:0:0:0:
256,192,31176,1,0,0:0:0:0:
256,192,31229,1,8,0:0:0:0:
256,192,31336,1,0,0:0:0:0:
256,192,31444,1,8,0:0:0:0:
256,192,31497,1,0,0:0:0:0:
256,192,31551,1,8,0:0:0:0:
256,192,31604,1,8,0:0:0:0:
256,192,31658,1,0,0:0:0:0:
256,192,31765,1,8,0:0:0:0:
256,192,31872,1,0,0:0:0:0:
256,192,31926,1,0,0:0:0:0:
256,192,31979,1,8,0:0:0:0:
256,192,32033,1,8,0:0:0:0:
256,192,32086,1,0,0:0:0:0:
256,192,32194,1,8,0:0:0:0:
256,192,32247,1,0,0:0:0:0:
256,192,32301,1,8,0:0:0:0:
256,192,32408,1,0,0:0:0:0:
256,192,32515,1,8,0:0:0:0:
256,192,32569,1,8,0:0:0:0:
256,192,32622,1,0,0:0:0:0:
256,192,32676,1,0,0:0:0:0:
256,192,32729,1,8,0:0:0:0:
256,192,32783,1,8,0:0:0:0:
256,192,32836,1,8,0:0:0:0:
256,192,32944,1,4,0:0:0:0:
256,192,33158,1,8,0:0:0:0:
256,192,33265,1,0,0:0:0:0:
256,192,33372,1,8,0:0:0:0:
256,192,33426,1,0,0:0:0:0:
256,192,33479,1,8,0:0:0:0:
256,192,33586,1,0,0:0:0:0:
256,192,33694,1,8,0:0:0:0:
256,192,33747,1,8,0:0:0:0:
256,192,33801,1,0,0:0:0:0:
256,192,33908,1,0,0:0:0:0:
256,192,34015,1,8,0:0:0:0:
256,192,34122,1,0,0:0:0:0:
256,192,34229,1,8,0:0:0:0:
256,192,34283,1,8,0:0:0:0:
256,192,34336,1,8,0:0:0:0:
256,192,34390,1,8,0:0:0:0:
256,192,34444,1,0,0:0:0:0:
256,192,34497,1,0,0:0:0:0:
256,192,34551,1,0,0:0:0:0:
256,192,34604,1,0,0:0:0:0:
256,192,34658,1,8,0:0:0:0:
256,192,34765,1,0,0:0:0:0:
256,192,34872,1,8,0:0:0:0:
256,192,34926,1,0,0:0:0:0:
256,192,34979,1,0,0:0:0:0:
256,192,35033,1,0,0:0:0:0:
256,192,35086,1,8,0:0:0:0:
256,192,35194,1,0,0:0:0:0:
256,192,35301,1,8,0:0:0:0:
256,192,35354,1,8,0:0:0:0:
256,192,35408,1,0,0:0:0:0:
256,192,35515,1,8,0:0:0:0:
256,192,35622,1,0,0:0:0:0:
256,192,35676,1,0,0:0:0:0:
256,192,35729,1,8,0:0:0:0:
256,192,35836,1,0,0:0:0:0:
256,192,35944,1,8,0:0:0:0:
256,192,36015,1,8,0:0:0:0:
256,192,36086,1,8,0:0:0:0:
256,192,36158,1,0,0:0:0:0:
256,192,36229,1,0,0:0:0:0:
256,192,36301,1,0,0:0:0:0:
256,192,36372,1,12,0:0:0:0:
256,192,36586,1,0,0:0:0:0:
256,192,36801,1,8,0:0:0:0:
256,192,37015,1,0,0:0:0:0:
256,192,37122,1,8,0:0:0:0:
256,192,37336,1,8,0:0:0:0:
256,192,37444,1,0,0:0:0:0:
256,192,37551,1,0,0:0:0:0:
256,192,37658,1,8,0:0:0:0:
256,192,37765,1,8,0:0:0:0:
256,192,37872,1,0,0:0:0:0:
256,192,37979,1,0,0:0:0:0:
256,192,38086,1,12,0:0:0:0:
256,192,38301,1,0,0:0:0:0:
256,192,38515,1,8,0:0:0:0:
256,192,38622,1,8,0:0:0:0:
256,192,38729,1,0,0:0:0:0:
256,192,38836,1,8,0:0:0:0:
256,192,39051,1,8,0:0:0:0:
256,192,39158,1,0,0:0:0:0:
256,192,39372,1,8,0:0:0:0:
256,192,39479,1,8,0:0:0:0:
256,192,39586,1,0,0:0:0:0:
256,192,39801,1,12,0:0:0:0:
256,192,40015,1,0,0:0:0:0:
256,192,40229,1,8,0:0:0:0:
256,192,40336,1,0,0:0:0:0:
256,192,40444,1,8,0:0:0:0:
256,192,40551,1,8,0:0:0:0:
256,192,40765,1,8,0:0:0:0:
256,192,40872,1,0,0:0:0:0:
256,192,40979,1,8,0:0:0:0:
256,192,41086,1,0,0:0:0:0:
256,192,41194,1,0,0:0:0:0:
256,192,41301,1,8,0:0:0:0:
256,192,41408,1,0,0:0:0:0:
256,192,41515,1,12,0:0:0:0:
256,192,41729,1,0,0:0:0:0:
256,192,41944,1,8,0:0:0:0:
256,192,42158,1,0,0:0:0:0:
256,192,42265,1,0,0:0:0:0:
256,192,42479,1,8,0:0:0:0:
256,192,42586,1,0,0:0:0:0:
256,192,42801,1,8,0:0:0:0:
256,192,42908,1,0,0:0:0:0:
256,192,43015,1,8,0:0:0:0:
256,192,43122,1,8,0:0:0:0:
256,192,43229,1,0,0:0:0:0:
256,192,43443,1,12,0:0:0:0:
256,192,43657,1,8,0:0:0:0:
256,192,43764,1,0,0:0:0:0:
256,192,43871,1,8,0:0:0:0:
256,192,43979,1,0,0:0:0:0:
256,192,44086,1,8,0:0:0:0:
256,192,44193,1,8,0:0:0:0:
256,192,44300,1,4,0:0:0:0:
256,192,44514,1,0,0:0:0:0:
256,192,44621,1,8,0:0:0:0:
256,192,44729,1,0,0:0:0:0:
256,192,44836,1,0,0:0:0:0:
256,192,44943,1,8,0:0:0:0:
256,192,45050,1,8,0:0:0:0:
256,192,45157,1,0,0:0:0:0:
256,192,45264,1,8,0:0:0:0:
256,192,45371,1,0,0:0:0:0:
256,192,45586,1,12,0:0:0:0:
256,192,45800,1,8,0:0:0:0:
256,192,45907,1,8,0:0:0:0:
256,192,46014,1,0,0:0:0:0:
256,192,46121,1,0,0:0:0:0:
256,192,46228,1,8,0:0:0:0:
256,192,46336,1,8,0:0:0:0:
256,192,46443,1,4,0:0:0:0:
256,192,46657,1,4,0:0:0:0:
256,192,46871,1,8,0:0:0:0:
256,192,46978,1,0,0:0:0:0:
256,192,47086,1,12,0:0:0:0:
256,192,47300,1,8,0:0:0:0:
256,192,47407,1,8,0:0:0:0:
256,192,47514,1,0,0:0:0:0:
256,192,47728,1,12,0:0:0:0:
256,192,47943,1,8,0:0:0:0:
256,192,48050,1,8,0:0:0:0:
256,192,48157,1,0,0:0:0:0:
256,192,48264,1,0,0:0:0:0:
256,192,48371,1,8,0:0:0:0:
256,192,48478,1,8,0:0:0:0:
256,192,48586,1,4,0:0:0:0:
256,192,48800,1,0,0:0:0:0:
256,192,48907,1,0,0:0:0:0:
256,192,49014,1,8,0:0:0:0:
256,192,49121,1,0,0:0:0:0:
256,192,49228,1,8,0:0:0:0:
256,192,49336,1,8,0:0:0:0:
256,192,49443,1,0,0:0:0:0:
256,192,49550,1,8,0:0:0:0:
256,192,49657,1,0,0:0:0:0:
256,192,49871,1,12,0:0:0:0:
256,192,50086,1,8,0:0:0:0:
256,192,50193,1,8,0:0:0:0:
256,192,50300,1,0,0:0:0:0:
256,192,50407,1,0,0:0:0:0:
256,192,50514,1,8,0:0:0:0:
256,192,50621,1,8,0:0:0:0:
256,192,50728,1,4,0:0:0:0:
256,192,50943,1,4,0:0:0:0:
256,192,51157,1,8,0:0:0:0:
256,192,51264,1,0,0:0:0:0:
256,192,51371,1,12,0:0:0:0:
256,192,51586,1,8,0:0:0:0:
256,192,51693,1,8,0:0:0:0:
256,192,51800,1,0,0:0:0:0:
256,192,51907,1,0,0:0:0:0:
256,192,52121,1,0,0:0:0:0:
256,192,52228,1,0,0:0:0:0:
256,192,52442,1,8,0:0:0:0:
256,192,52550,1,0,0:0:0:0:
256,192,52657,1,0,0:0:0:0:
256,192,52764,1,8,0:0:0:0:
256,192,52871,1,8,0:0:0:0:
256,192,53085,1,8,0:0:0:0:
256,192,53300,1,8,0:0:0:0:
256,192,53514,1,4,0:0:0:0:
256,192,53728,1,8,0:0:0:0:
256,192,53835,1,0,0:0:0:0:
256,192,53889,1,0,0:0:0:0:
256,192,53942,1,8,0:0:0:0:
256,192,54049,1,0,0:0:0:0:
256,192,54156,1,8,0:0:0:0:
256,192,54210,1,8,0:0:0:0:
256,192,54264,1,8,0:0:0:0:
256,192,54371,1,0,0:0:0:0:
256,192,54424,1,0,0:0:0:0:
256,192,54478,1,8,0:0:0:0:
256,192,54531,1,8,0:0:0:0:
256,192,54585,1,0,0:0:0:0:
256,192,54639,1,8,0:0:0:0:
256,192,54692,1,0,0:0:0:0:
256,192,54746,1,0,0:0:0:0:
256,192,54799,1,8,0:0:0:0:
256,192,54906,1,0,0:0:0:0:
256,192,55014,1,8,0:0:0:0:
256,192,55067,1,8,0:0:0:0:
256,192,55121,1,0,0:0:0:0:
256,192,55174,1,0,0:0:0:0:
256,192,55228,1,8,0:0:0:0:
256,192,55335,1,0,0:0:0:0:
256,192,55389,1,0,0:0:0:0:
256,192,55442,1,8,0:0:0:0:
256,192,55496,1,0,0:0:0:0:
256,192,55549,1,8,0:0:0:0:
256,192,55603,1,8,0:0:0:0:
256,192,55656,1,0,0:0:0:0:
256,192,55764,1,0,0:0:0:0:
256,192,55871,1,8,0:0:0:0:
256,192,55924,1,8,0:0:0:0:
256,192,55978,1,8,0:0:0:0:
256,192,56031,1,8,0:0:0:0:
256,192,56085,1,0,0:0:0:0:
256,192,56192,1,0,0:0:0:0:
256,192,56299,1,8,0:0:0:0:
256,192,56353,1,0,0:0:0:0:
256,192,56406,1,0,0:0:0:0:
256,192,56460,1,0,0:0:0:0:
256,192,56513,1,8,0:0:0:0:
256,192,56567,1,8,0:0:0:0:
256,192,56621,1,0,0:0:0:0:
256,192,56674,1,0,0:0:0:0:
256,192,56728,1,8,0:0:0:0:
256,192,56781,1,8,0:0:0:0:
256,192,56835,1,8,0:0:0:0:
256,192,56888,1,8,0:0:0:0:
256,192,56942,1,0,0:0:0:0:
256,192,57049,1,0,0:0:0:0:
256,192,57156,1,8,0:0:0:0:
256,192,57263,1,0,0:0:0:0:
256,192,57317,1,0,0:0:0:0:
256,192,57371,1,8,0:0:0:0:
256,192,57424,1,8,0:0:0:0:
256,192,57478,1,0,0:0:0:0:
256,192,57531,1,8,0:0:0:0:
256,192,57585,1,0,0:0:0:0:
256,192,57692,1,8,0:0:0:0:
256,192,57799,1,0,0:0:0:0:
256,192,57853,1,0,0:0:0:0:
256,192,57906,1,8,0:0:0:0:
256,192,57960,1,0,0:0:0:0:
256,192,58013,1,0,0:0:0:0:
256,192,58121,1,8,0:0:0:0:
256,192,58174,1,8,0:0:0:0:
256,192,58228,1,0,0:0:0:0:
256,192,58281,1,8,0:0:0:0:
256,192,58335,1,0,0:0:0:0:
256,192,58388,1,0,0:0:0:0:
256,192,58442,1,8,0:0:0:0:
256,192,58549,1,0,0:0:0:0:
256,192,58656,1,8,0:0:0:0:
256,192,58710,1,0,0:0:0:0:
256,192,58763,1,8,0:0:0:0:
256,192,58817,1,8,0:0:0:0:
256,192,58871,1,0,0:0:0:0:
256,192,58978,1,8,0:0:0:0:
256,192,59031,1,8,0:0:0:0:
256,192,59085,1,0,0:0:0:0:
256,192,59138,1,0,0:0:0:0:
256,192,59192,1,8,0:0:0:0:
256,192,59246,1,0,0:0:0:0:
256,192,59299,1,8,0:0:0:0:
256,192,59406,1,0,0:0:0:0:
256,192,59513,1,8,0:0:0:0:
256,192,59567,1,8,0:0:0:0:
256,192,59621,1,0,0:0:0:0:
256,192,59674,1,0,0:0:0:0:
256,192,59728,1,8,0:0:0:0:
256,192,59781,1,0,0:0:0:0:
256,192,59835,1,0,0:0:0:0:
256,192,59888,1,0,0:0:0:0:
256,192,59942,1,8,0:0:0:0:
256,192,59996,1,8,0:0:0:0:
256,192,60049,1,8,0:0:0:0:
256,192,60103,1,8,0:0:0:0:
256,192,60156,1,0,0:0:0:0:
256,192,60210,1,0,0:0:0:0:
256,192,60263,1,8,0:0:0:0:
256,192,60371,1,4,0:0:0:0:
256,192,60585,1,8,0:0:0:0:
256,192,60692,1,4,0:0:0:0:
256,192,60799,1,8,0:0:0:0:
256,192,60906,1,8,0:0:0:0:
256,192,61013,1,4,0:0:0:0:
256,192,61228,1,12,0:0:0:0:
256,192,61335,1,0,0:0:0:0:
256,192,61442,1,0,0:0:0:0:
256,192,61549,1,12,0:0:0:0:
256,192,61763,1,0,0:0:0:0:
256,192,61871,1,12,0:0:0:0:
256,192,61978,1,0,0:0:0:0:
256,192,62085,1,12,0:0:0:0:
256,192,62299,1,8,0:0:0:0:
256,192,62406,1,4,0:0:0:0:
256,192,62621,1,8,0:0:0:0:
256,192,62728,1,4,0:0:0:0:
256,192,62835,1,8,0:0:0:0:
256,192,62942,1,4,0:0:0:0:
256,192,63156,1,0,0:0:0:0:
256,192,63263,1,12,0:0:0:0:
256,192,63371,1,0,0:0:0:0:
256,192,63478,1,0,0:0:0:0:
256,192,63585,1,8,0:0:0:0:
256,192,63638,1,8,0:0:0:0:
256,192,63692,1,8,0:0:0:0:
256,192,63799,1,4,0:0:0:0:
256,192,64013,1,8,0:0:0:0:
256,192,64121,1,8,0:0:0:0:
256,192,64228,1,0,0:0:0:0:
256,192,64281,1,0,0:0:0:0:
256,192,64335,1,0,0:0:0:0:
256,192,64442,1,8,0:0:0:0:
256,192,64549,1,0,0:0:0:0:
256,192,64656,1,8,0:0:0:0:
256,192,64710,1,8,0:0:0:0:
256,192,64763,1,0,0:0:0:0:
256,192,64871,1,8,0:0:0:0:
256,192,64978,1,0,0:0:0:0:
256,192,65031,1,0,0:0:0:0:
256,192,65085,1,8,0:0:0:0:
256,192,65138,1,0,0:0:0:0:
256,192,65192,1,8,0:0:0:0:
256,192,65246,1,8,0:0:0:0:
256,192,65299,1,0,0:0:0:0:
256,192,65406,1,0,0:0:0:0:
256,192,65513,1,8,0:0:0:0:
256,192,65567,1,8,0:0:0:0:
256,192,65621,1,8,0:0:0:0:
256,192,65674,1,8,0:0:0:0:
256,192,65728,1,0,0:0:0:0:
256,192,65781,1,0,0:0:0:0:
256,192,65835,1,8,0:0:0:0:
256,192,65888,1,8,0:0:0:0:
256,192,65942,1,0,0:0:0:0:
256,192,65996,1,0,0:0:0:0:
256,192,66049,1,0,0:0:0:0:
256,192,66103,1,0,0:0:0:0:
256,192,66156,1,8,0:0:0:0:
256,192,66263,1,0,0:0:0:0:
256,192,66371,1,8,0:0:0:0:
256,192,66424,1,8,0:0:0:0:
256,192,66478,1,0,0:0:0:0:
256,192,66531,1,8,0:0:0:0:
256,192,66585,1,0,0:0:0:0:
256,192,66638,1,0,0:0:0:0:
256,192,66692,1,8,0:0:0:0:
256,192,66746,1,0,0:0:0:0:
256,192,66799,1,8,0:0:0:0:
256,192,66871,1,0,0:0:0:0:
256,192,66942,1,0,0:0:0:0:
256,192,67013,1,8,0:0:0:0:
256,192,67085,1,0,0:0:0:0:
256,192,67156,1,0,0:0:0:0:
256,192,67228,1,8,0:0:0:0:
256,192,67335,1,0,0:0:0:0:
256,192,67442,1,0,0:0:0:0:
256,192,67549,1,0,0:0:0:0:
256,192,67656,1,8,0:0:0:0:
256,192,67710,1,8,0:0:0:0:
256,192,67763,1,0,0:0:0:0:
256,192,67817,1,0,0:0:0:0:
256,192,67871,1,8,0:0:0:0:
256,192,67978,1,0,0:0:0:0:
256,192,68085,1,8,0:0:0:0:
256,192,68138,1,0,0:0:0:0:
256,192,68192,1,0,0:0:0:0:
256,192,68246,1,0,0:0:0:0:
256,192,68299,1,8,0:0:0:0:
256,192,68406,1,0,0:0:0:0:
256,192,68513,1,8,0:0:0:0:
256,192,68567,1,8,0:0:0:0:
256,192,68621,1,8,0:0:0:0:
256,192,68674,1,8,0:0:0:0:
256,192,68728,1,0,0:0:0:0:
256,192,68835,1,8,0:0:0:0:
256,192,68942,1,0,0:0:0:0:
256,192,69049,1,0,0:0:0:0:
256,192,69103,1,0,0:0:0:0:
256,192,69156,1,8,0:0:0:0:
256,192,69263,1,8,0:0:0:0:
256,192,69371,1,0,0:0:0:0:
256,192,69478,1,0,0:0:0:0:
256,192,69531,1,0,0:0:0:0:
256,192,69585,1,8,0:0:0:0:
256,192,69692,1,0,0:0:0:0:
256,192,69799,1,8,0:0:0:0:
256,192,69853,1,8,0:0:0:0:
256,192,69906,1,0,0:0:0:0:
256,192,69960,1,0,0:0:0:0:
256,192,70013,1,8,0:0:0:0:
256,192,70121,1,0,0:0:0:0:
256,192,70174,1,0,0:0:0:0:
256,192,70228,1,8,0:0:0:0:
256,192,70281,1,0,0:0:0:0:
256,192,70335,1,0,0:0:0:0:
256,192,70388,1,0,0:0:0:0:
256,192,70442,1,8,0:0:0:0:
256,192,70549,1,0,0:0:0:0:
256,192,70656,1,12,0:0:0:0:
256,192,70871,1,0,0:0:0:0:
256,192,71085,1,12,0:0:0:0:
256,192,71192,1,0,0:0:0:0:
256,192,71299,1,0,0:0:0:0:
256,192,71406,1,12,0:0:0:0:
256,192,71513,1,0,0:0:0:0:
256,192,71621,1,0,0:0:0:0:
256,192,71728,1,12,0:0:0:0:
256,192,71835,1,0,0:0:0:0:
256,192,71942,1,8,0:0:0:0:
256,192,71996,1,0,0:0:0:0:
256,192,72049,1,8,0:0:0:0:
256,192,72103,1,8,0:0:0:0:
256,192,72156,1,0,0:0:0:0:
256,192,72263,1,0,0:0:0:0:
256,192,72371,1,12,0:0:0:0:
256,192,72585,1,0,0:0:0:0:
256,192,72799,1,12,0:0:0:0:
256,192,72906,1,0,0:0:0:0:
256,192,73013,1,0,0:0:0:0:
256,192,73121,1,12,0:0:0:0:
256,192,73228,1,0,0:0:0:0:
256,192,73335,1,0,0:0:0:0:
256,192,73442,1,12,0:0:0:0:
256,192,73549,1,0,0:0:0:0:
256,192,73656,1,8,0:0:0:0:
256,192,73710,1,8,0:0:0:0:
256,192,73763,1,0,0:0:0:0:
256,192,73817,1,0,0:0:0:0:
256,192,73871,1,8,0:0:0:0:
256,192,73924,1,8,0:0:0:0:
256,192,73978,1,8,0:0:0:0:
256,192,74085,1,4,0:0:0:0:
256,192,74299,1,8,0:0:0:0:
256,192,74406,1,0,0:0:0:0:
256,192,74513,1,8,0:0:0:0:
256,192,74567,1,8,0:0:0:0:
256,192,74621,1,0,0:0:0:0:
256,192,74674,1,0,0:0:0:0:
256,192,74728,1,8,0:0:0:0:
256,192,74835,1,8,0:0:0:0:
256,192,74942,1,0,0:0:0:0:
256,192,75049,1,0,0:0:0:0:
256,192,75103,1,0,0:0:0:0:
256,192,75156,1,8,0:0:0:0:
256,192,75263,1,0,0:0:0:0:
256,192,75371,1,8,0:0:0:0:
256,192,75424,1,0,0:0:0:0:
256,192,75478,1,0,0:0:0:0:
256,192,75585,1,8,0:0:0:0:
256,192,75638,1,8,0:0:0:0:
256,192,75692,1,0,0:0:0:0:
256,192,75799,1,8,0:0:0:0:
256,192,75906,1,0,0:0:0:0:
256,192,76013,1,8,0:0:0:0:
256,192,76067,1,8,0:0:0:0:
256,192,76121,1,8,0:0:0:0:
256,192,76174,1,8,0:0:0:0:
256,192,76228,1,0,0:0:0:0:
256,192,76335,1,8,0:0:0:0:
256,192,76442,1,0,0:0:0:0:
256,192,76496,1,0,0:0:0:0:
256,192,76549,1,8,0:0:0:0:
256,192,76603,1,0,0:0:0:0:
256,192,76656,1,8,0:0:0:0:
256,192,76763,1,0,0:0:0:0:
256,192,76817,1,0,0:0:0:0:
256,192,76871,1,8,0:0:0:0:
256,192,76978,1,0,0:0:0:0:
256,192,77085,1,8,0:0:0:0:
256,192,77138,1,8,0:0:0:0:
256,192,77192,1,8,0:0:0:0:
256,192,77246,1,8,0:0:0:0:
256,192,77299,1,0,0:0:0:0:
256,192,77353,1,0,0:0:0:0:
256,192,77406,1,8,0:0:0:0:
256,192,77513,1,4,0:0:0:0:
256,192,77728,1,8,0:0:0:0:
256,192,77835,1,0,0:0:0:0:
256,192,77942,1,8,0:0:0:0:
256,192,77996,1,0,0:0:0:0:
256,192,78049,1,8,0:0:0:0:
256,192,78103,1,8,0:0:0:0:
256,192,78156,1,0,0:0:0:0:
256,192,78263,1,8,0:0:0:0:
256,192,78371,1,0,0:0:0:0:
256,192,78478,1,0,0:0:0:0:
256,192,78531,1,0,0:0:0:0:
256,192,78585,1,8,0:0:0:0:
256,192,78692,1,0,0:0:0:0:
256,192,78799,1,8,0:0:0:0:
256,192,78853,1,0,0:0:0:0:
256,192,78906,1,0,0:0:0:0:
256,192,78960,1,0,0:0:0:0:
256,192,79013,1,8,0:0:0:0:
256,192,79067,1,8,0:0:0:0:
256,192,79121,1,0,0:0:0:0:
256,192,79174,1,0,0:0:0:0:
256,192,79228,1,8,0:0:0:0:
256,192,79335,1,0,0:0:0:0:
256,192,79442,1,8,0:0:0:0:
256,192,79496,1,0,0:0:0:0:
256,192,79549,1,8,0:0:0:0:
256,192,79603,1,8,0:0:0:0:
256,192,79656,1,0,0:0:0:0:
256,192,79763,1,0,0:0:0:0:
256,192,79871,1,8,0:0:0:0:
256,192,79924,1,8,0:0:0:0:
256,192,79978,1,8,0:0:0:0:
256,192,80085,1,0,0:0:0:0:
256,192,80192,1,8,0:0:0:0:
256,192,80246,1,0,0:0:0:0:
256,192,80299,1,8,0:0:0:0:
256,192,80406,1,0,0:0:0:0:
256,192,80513,1,8,0:0:0:0:
256,192,80567,1,8,0:0:0:0:
256,192,80621,1,0,0:0:0:0:
256,192,80674,1,8,0:0:0:0:
256,192,80728,1,0,0:0:0:0:
256,192,80781,1,0,0:0:0:0:
256,192,80835,1,8,0:0:0:0:
256,192,80942,1,4,0:0:0:0:
256,192,81156,1,8,0:0:0:0:
256,192,81263,1,8,0:0:0:0:
256,192,81371,1,0,0:0:0:0:
256,192,81424,1,0,0:0:0:0:
256,192,81478,1,8,0:0:0:0:
256,192,81531,1,8,0:0:0:0:
256,192,81585,1,0,0:0:0:0:
256,192,81692,1,8,0:0:0:0:
256,192,81799,1,0,0:0:0:0:
256,192,81906,1,8,0:0:0:0:
256,192,81960,1,0,0:0:0:0:
256,192,82013,1,8,0:0:0:0:
256,192,82121,1,0,0:0:0:0:
256,192,82228,1,8,0:0:0:0:
256,192,82281,1,0,0:0:0:0:
256,192,82335,1,0,0:0:0:0:
256,192,82442,1,8,0:0:0:0:
256,192,82496,1,8,0:0:0:0:
256,192,82549,1,0,0:0:0:0:
256,192,82656,1,8,0:0:0:0:
256,192,82763,1,0,0:0:0:0:
256,192,82871,1,8,0:0:0:0:
256,192,82924,1,8,0:0:0:0:
256,192,82978,1,0,0:0:0:0:
256,192,83031,1,0,0:0:0:0:
256,192,83085,1,8,0:0:0:0:
256,192,83192,1,8,0:0:0:0:
256,192,83299,1,0,0:0:0:0:
256,192,83353,1,0,0:0:0:0:
256,192,83406,1,0,0:0:0:0:
256,192,83460,1,0,0:0:0:0:
256,192,83513,1,8,0:0:0:0:
256,192,83621,1,0,0:0:0:0:
256,192,83674,1,0,0:0:0:0:
256,192,83728,1,8,0:0:0:0:
256,192,83835,1,0,0:0:0:0:
256,192,83942,1,8,0:0:0:0:
256,192,83996,1,0,0:0:0:0:
256,192,84049,1,8,0:0:0:0:
256,192,84103,1,8,0:0:0:0:
256,192,84156,1,0,0:0:0:0:
256,192,84210,1,0,0:0:0:0:
256,192,84263,1,8,0:0:0:0:
256,192,84371,1,4,0:0:0:0:
256,192,84585,1,8,0:0:0:0:
256,192,84692,1,8,0:0:0:0:
256,192,84799,1,0,0:0:0:0:
256,192,84853,1,0,0:0:0:0:
256,192,84906,1,8,0:0:0:0:
256,192,84960,1,0,0:0:0:0:
256,192,85013,1,8,0:0:0:0:
256,192,85121,1,0,0:0:0:0:
256,192,85228,1,8,0:0:0:0:
256,192,85335,1,0,0:0:0:0:
256,192,85388,1,0,0:0:0:0:
256,192,85442,1,8,0:0:0:0:
256,192,85549,1,0,0:0:0:0:
256,192,85656,1,8,0:0:0:0:
256,192,85710,1,0,0:0:0:0:
256,192,85763,1,0,0:0:0:0:
256,192,85817,1,0,0:0:0:0:
256,192,85871,1,8,0:0:0:0:
256,192,85924,1,8,0:0:0:0:
256,192,85978,1,8,0:0:0:0:
256,192,86031,1,8,0:0:0:0:
256,192,86085,1,0,0:0:0:0:
256,192,86192,1,0,0:0:0:0:
256,192,86299,1,8,0:0:0:0:
256,192,86353,1,8,0:0:0:0:
256,192,86406,1,0,0:0:0:0:
256,192,86460,1,0,0:0:0:0:
256,192,86513,1,8,0:0:0:0:
256,192,86621,1,0,0:0:0:0:
256,192,86728,1,8,0:0:0:0:
256,192,86781,1,8,0:0:0:0:
256,192,86835,1,8,0:0:0:0:
256,192,86942,1,0,0:0:0:0:
256,192,87049,1,8,0:0:0:0:
256,192,87103,1,0,0:0:0:0:
256,192,87156,1,8,0:0:0:0:
256,192,87263,1,0,0:0:0:0:
256,192,87371,1,8,0:0:0:0:
256,192,87442,1,0,0:0:0:0:
256,192,87513,1,0,0:0:0:0:
256,192,87585,1,8,0:0:0:0:
256,192,87656,1,0,0:0:0:0:
256,192,87728,1,0,0:0:0:0:
256,192,87799,1,12,0:0:0:0:
256,192,88013,1,0,0:0:0:0:
256,192,88228,1,8,0:0:0:0:
256,192,88442,1,0,0:0:0:0:
256,192,88549,1,8,0:0:0:0:
256,192,88763,1,8,0:0:0:0:
256,192,88871,1,0,0:0:0:0:
256,192,88978,1,0,0:0:0:0:
256,192,89085,1,8,0:0:0:0:
256,192,89192,1,8,0:0:0:0:
256,192,89299,1,0,0:0:0:0:
256,192,89406,1,0,0:0:0:0:
256,192,89513,1,12,0:0:0:0:
256,192,89728,1,0,0:0:0:0:
256,192,89942,1,8,0:0:0:0:
256,192,90156,1,0,0:0:0:0:
256,192,90263,1,8,0:0:0:0:
256,192,90478,1,8,0:0:0:0:
256,192,90585,1,0,0:0:0:0:
256,192,90799,1,8,0:0:0:0:
256,192,90906,1,8,0:0:0:0:
256,192,91013,1,0,0:0:0:0:
256,192,91228,1,12,0:0:0:0:
256,192,91442,1,0,0:0:0:0:
256,192,91656,1,8,0:0:0:0:
256,192,91871,1,0,0:0:0:0:
256,192,91978,1,8,0:0:0:0:
256,192,92192,1,8,0:0:0:0:
256,192,92299,1,0,0:0:0:0:
256,192,92406,1,0,0:0:0:0:
256,192,92513,1,8,0:0:0:0:
256,192,92728,1,0,0:0:0:0:
256,192,92835,1,0,0:0:0:0:
256,192,92942,1,12,0:0:0:0:
256,192,93156,1,0,0:0:0:0:
256,192,93371,1,8,0:0:0:0:
256,192,93585,1,8,0:0:0:0:
256,192,93692,1,0,0:0:0:0:
256,192,93906,1,0,0:0:0:0:
256,192,94013,1,0,0:0:0:0:
256,192,94228,1,8,0:0:0:0:
256,192,94656,1,4,0:0:0:0:
256,192,94871,1,8,0:0:0:0:
256,192,94978,1,0,0:0:0:0:
256,192,95085,1,8,0:0:0:0:
256,192,95138,1,8,0:0:0:0:
256,192,95192,1,0,0:0:0:0:
256,192,95299,1,8,0:0:0:0:
256,192,95406,1,0,0:0:0:0:
256,192,95460,1,0,0:0:0:0:
256,192,95513,1,8,0:0:0:0:
256,192,95621,1,0,0:0:0:0:
256,192,95728,1,8,0:0:0:0:
256,192,95835,1,0,0:0:0:0:
256,192,95942,1,8,0:0:0:0:
256,192,95996,1,8,0:0:0:0:
256,192,96049,1,0,0:0:0:0:
256,192,96103,1,0,0:0:0:0:
256,192,96156,1,8,0:0:0:0:
256,192,96210,1,0,0:0:0:0:
256,192,96263,1,0,0:0:0:0:
256,192,96317,1,0,0:0:0:0:
256,192,96371,1,8,0:0:0:0:
256,192,96478,1,0,0:0:0:0:
256,192,96585,1,8,0:0:0:0:
256,192,96638,1,0,0:0:0:0:
256,192,96692,1,8,0:0:0:0:
256,192,96746,1,8,0:0:0:0:
256,192,96799,1,0,0:0:0:0:
256,192,96906,1,8,0:0:0:0:
256,192,97013,1,0,0:0:0:0:
256,192,97067,1,0,0:0:0:0:
256,192,97121,1,8,0:0:0:0:
256,192,97174,1,8,0:0:0:0:
256,192,97228,1,0,0:0:0:0:
256,192,97335,1,8,0:0:0:0:
256,192,97388,1,0,0:0:0:0:
256,192,97442,1,8,0:0:0:0:
256,192,97549,1,0,0:0:0:0:
256,192,97656,1,8,0:0:0:0:
256,192,97710,1,8,0:0:0:0:
256,192,97763,1,0,0:0:0:0:
256,192,97817,1,0,0:0:0:0:
256,192,97871,1,8,0:0:0:0:
256,192,97924,1,8,0:0:0:0:
256,192,97978,1,8,0:0:0:0:
256,192,98085,1,4,0:0:0:0:
256,192,98299,1,8,0:0:0:0:
256,192,98406,1,0,0:0:0:0:
256,192,98513,1,8,0:0:0:0:
256,192,98567,1,0,0:0:0:0:
256,192,98621,1,8,0:0:0:0:
256,192,98728,1,0,0:0:0:0:
256,192,98835,1,8,0:0:0:0:
256,192,98888,1,8,0:0:0:0:
256,192,98942,1,0,0:0:0:0:
256,192,99049,1,0,0:0:0:0:
256,192,99156,1,8,0:0:0:0:
256,192,99263,1,0,0:0:0:0:
256,192,99371,1,8,0:0:0:0:
256,192,99424,1,8,0:0:0:0:
256,192,99478,1,8,0:0:0:0:
256,192,99531,1,8,0:0:0:0:
256,192,99585,1,0,0:0:0:0:
256,192,99638,1,0,0:0:0:0:
256,192,99692,1,0,0:0:0:0:
256,192,99746,1,0,0:0:0:0:
256,192,99799,1,8,0:0:0:0:
256,192,99906,1,0,0:0:0:0:
256,192,100013,1,8,0:0:0:0:
256,192,100067,1,0,0:0:0:0:
256,192,100121,1,0,0:0:0:0:
256,192,100174,1,0,0:0:0:0:
256,192,100228,1,8,0:0:0:0:
256,192,100335,1,0,0:0:0:0:
256,192,100442,1,8,0:0:0:0:
256,192,100496,1,8,0:0:0:0:
256,192,100549,1,0,0:0:0:0:
256,192,100656,1,8,0:0:0:0:
256,192,100763,1,0,0:0:0:0:
256,192,100817,1,0,0:0:0:0:
256,192,100871,1,8,0:0:0:0:
256,192,100978,1,0,0:0:0:0:
256,192,101085,1,8,0:0:0:0:
256,192,101156,1,8,0:0:0:0:
256,192,101228,1,8,0:0:0:0:
256,192,101299,1,0,0:0:0:0:
256,192,101371,1,0,0:0:0:0:
256,192,101442,1,0,0:0:0:0:
256,192,101513,1,12,0:0:0:0:
256,192,101728,1,0,0:0:0:0:
256,192,101942,1,8,0:0:0:0:
256,192,102156,1,0,0:0:0:0:
256,192,102263,1,8,0:0:0:0:
256,192,102478,1,8,0:0:0:0:
256,192,102585,1,0,0:0:0:0:
256,192,102692,1,0,0:0:0:0:
256,192,102799,1,8,0:0:0:0:
256,192,103013,1,0,0:0:0:0:
256,192,103121,1,0,0:0:0:0:
256,192,103228,1,12,0:0:0:0:
256,192,103442,1,0,0:0:0:0:
256,192,103656,1,8,0:0:0:0:
256,192,103871,1,0,0:0:0:0:
256,192,103978,1,0,0:0:0:0:
256,192,104192,1,8,0:0:0:0:
256,192,104299,1,0,0:0:0:0:
256,192,104513,1,8,0:0:0:0:
256,192,104621,1,8,0:0:0:0:
256,192,104728,1,0,0:0:0:0:
256,192,104942,1,12,0:0:0:0:
256,192,105156,1,0,0:0:0:0:
256,192,105371,1,8,0:0:0:0:
256,192,105478,1,0,0:0:0:0:
256,192,105585,1,8,0:0:0:0:
256,192,105692,1,8,0:0:0:0:
256,192,105906,1,8,0:0:0:0:
256,192,106013,1,0,0:0:0:0:
256,192,106121,1,8,0:0:0:0:
256,192,106228,1,0,0:0:0:0:
256,192,106335,1,0,0:0:0:0:
256,192,106442,1,8,0:0:0:0:
256,192,106549,1,0,0:0:0:0:
256,192,106656,1,12,0:0:0:0:
256,192,106871,1,0,0:0:0:0:
256,192,107085,1,8,0:0:0:0:
256,192,107192,1,8,0:0:0:0:
256,192,107299,1,0,0:0:0:0:
256,192,107406,1,0,0:0:0:0:
256,192,107621,1,8,0:0:0:0:
256,192,107728,1,0,0:0:0:0:
256,192,107835,1,0,0:0:0:0:
256,192,107942,1,8,0:0:0:0:
256,192,108156,1,8,0:0:0:0:
256,192,108263,1,8,0:0:0:0:
256,192,108371,1,0,0:0:0:0:
256,192,108585,1,12,0:0:0:0:
256,192,108799,1,8,0:0:0:0:
256,192,108906,1,0,0:0:0:0:
256,192,109013,1,8,0:0:0:0:
256,192,109121,1,0,0:0:0:0:
256,192,109228,1,8,0:0:0:0:
256,192,109335,1,8,0:0:0:0:
256,192,109442,1,4,0:0:0:0:
256,192,109656,1,0,0:0:0:0:
256,192,109763,1,8,0:0:0:0:
256,192,109871,1,0,0:0:0:0:
256,192,109978,1,0,0:0:0:0:
256,192,110085,1,8,0:0:0:0:
256,192,110192,1,8,0:0:0:0:
256,192,110299,1,0,0:0:0:0:
256,192,110406,1,8,0:0:0:0:
256,192,110513,1,0,0:0:0:0:
256,192,110728,1,12,0:0:0:0:
256,192,110942,1,8,0:0:0:0:
256,192,111049,1,8,0:0:0:0:
256,192,111156,1,0,0:0:0:0:
256,192,111263,1,0,0:0:0:0:
256,192,111371,1,8,0:0:0:0:
256,192,111478,1,8,0:0:0:0:
256,192,111585,1,4,0:0:0:0:
256,192,111799,1,4,0:0:0:0:
256,192,112013,1,8,0:0:0:0:
256,192,112121,1,0,0:0:0:0:
256,192,112228,1,12,0:0:0:0:
256,192,112442,1,8,0:0:0:0:
256,192,112549,1,8,0:0:0:0:
256,192,112656,1,0,0:0:0:0:
256,192,112871,1,12,0:0:0:0:
256,192,113085,1,8,0:0:0:0:
256,192,113192,1,8,0:0:0:0:
256,192,113299,1,0,0:0:0:0:
256,192,113406,1,0,0:0:0:0:
256,192,113513,1,8,0:0:0:0:
256,192,113621,1,8,0:0:0:0:
256,192,113728,1,4,0:0:0:0:
256,192,113942,1,0,0:0:0:0:
256,192,114049,1,0,0:0:0:0:
256,192,114156,1,8,0:0:0:0:
256,192,114263,1,0,0:0:0:0:
256,192,114370,1,8,0:0:0:0:
256,192,114478,1,8,0:0:0:0:
256,192,114585,1,0,0:0:0:0:
256,192,114692,1,8,0:0:0:0:
256,192,114799,1,0,0:0:0:0:
256,192,115013,1,12,0:0:0:0:
256,192,115228,1,8,0:0:0:0:
256,192,115335,1,8,0:0:0:0:
256,192,115442,1,0,0:0:0:0:
256,192,115549,1,0,0:0:0:0:
256,192,115656,1,8,0:0:0:0:
256,192,115763,1,8,0:0:0:0:
256,192,115870,1,4,0:0:0:0:
256,192,116085,1,4,0:0:0:0:
256,192,116299,1,8,0:0:0:0:
256,192,116406,1,0,0:0:0:0:
256,192,116513,1,12,0:0:0:0:
256,192,116728,1,8,0:0:0:0:
256,192,116835,1,8,0:0:0:0:
256,192,116942,1,0,0:0:0:0:
256,192,117049,1,0,0:0:0:0:
256,192,117263,1,0,0:0:0:0:
256,192,117370,1,0,0:0:0:0:
256,192,117584,1,8,0:0:0:0:
256,192,117692,1,0,0:0:0:0:
256,192,117799,1,0,0:0:0:0:
256,192,117906,1,8,0:0:0:0:
256,192,118013,1,8,0:0:0:0:
256,192,118227,1,8,0:0:0:0:
256,192,118442,1,8,0:0:0:0:
256,192,118656,1,4,0:0:0:0:
256,192,118870,1,8,0:0:0:0:
256,192,118977,1,0,0:0:0:0:
256,192,119031,1,0,0:0:0:0:
256,192,119084,1,0,0:0:0:0:
256,192,119191,1,8,0:0:0:0:
256,192,119298,1,0,0:0:0:0:
256,192,119352,1,0,0:0:0:0:
256,192,119406,1,8,0:0:0:0:
256,192,119459,1,8,0:0:0:0:
256,192,119513,1,0,0:0:0:0:
256,192,119566,1,8,0:0:0:0:
256,192,119620,1,0,0:0:0:0:
256,192,119727,1,8,0:0:0:0:
256,192,119834,1,0,0:0:0:0:
256,192,119888,1,0,0:0:0:0:
256,192,119941,1,8,0:0:0:0:
256,192,119995,1,0,0:0:0:0:
256,192,120048,1,0,0:0:0:0:
256,192,120156,1,8,0:0:0:0:
256,192,120209,1,8,0:0:0:0:
256,192,120263,1,0,0:0:0:0:
256,192,120370,1,8,0:0:0:0:
256,192,120477,1,0,0:0:0:0:
256,192,120531,1,0,0:0:0:0:
256,192,120584,1,8,0:0:0:0:
256,192,120638,1,0,0:0:0:0:
256,192,120691,1,8,0:0:0:0:
256,192,120745,1,8,0:0:0:0:
256,192,120798,1,0,0:0:0:0:
256,192,120906,1,8,0:0:0:0:
256,192,121013,1,0,0:0:0:0:
256,192,121066,1,0,0:0:0:0:
256,192,121120,1,8,0:0:0:0:
256,192,121173,1,0,0:0:0:0:
256,192,121227,1,8,0:0:0:0:
256,192,121334,1,0,0:0:0:0:
256,192,121388,1,0,0:0:0:0:
256,192,121441,1,8,0:0:0:0:
256,192,121548,1,0,0:0:0:0:
256,192,121656,1,8,0:0:0:0:
256,192,121709,1,8,0:0:0:0:
256,192,121763,1,0,0:0:0:0:
256,192,121816,1,0,0:0:0:0:
256,192,121870,1,8,0:0:0:0:
256,192,121923,1,8,0:0:0:0:
256,192,121977,1,8,0:0:0:0:
256,192,122031,1,8,0:0:0:0:
256,192,122084,1,0,0:0:0:0:
256,192,122191,1,0,0:0:0:0:
256,192,122245,1,0,0:0:0:0:
256,192,122298,1,8,0:0:0:0:
256,192,122406,1,0,0:0:0:0:
256,192,122459,1,0,0:0:0:0:
256,192,122513,1,8,0:0:0:0:
256,192,122566,1,0,0:0:0:0:
256,192,122620,1,0,0:0:0:0:
256,192,122673,1,0,0:0:0:0:
256,192,122727,1,8,0:0:0:0:
256,192,122834,1,8,0:0:0:0:
256,192,122941,1,0,0:0:0:0:
256,192,122995,1,0,0:0:0:0:
256,192,123048,1,8,0:0:0:0:
256,192,123102,1,8,0:0:0:0:
256,192,123156,1,0,0:0:0:0:
256,192,123263,1,8,0:0:0:0:
256,192,123316,1,8,0:0:0:0:
256,192,123370,1,0,0:0:0:0:
256,192,123423,1,8,0:0:0:0:
256,192,123477,1,0,0:0:0:0:
256,192,123531,1,0,0:0:0:0:
256,192,123584,1,8,0:0:0:0:
256,192,123691,1,0,0:0:0:0:
256,192,123798,1,8,0:0:0:0:
256,192,123852,1,0,0:0:0:0:
256,192,123906,1,0,0:0:0:0:
256,192,123959,1,0,0:0:0:0:
256,192,124013,1,8,0:0:0:0:
256,192,124066,1,0,0:0:0:0:
256,192,124120,1,8,0:0:0:0:
256,192,124173,1,8,0:0:0:0:
256,192,124227,1,0,0:0:0:0:
256,192,124334,1,0,0:0:0:0:
256,192,124388,1,0,0:0:0:0:
256,192,124441,1,8,0:0:0:0:
256,192,124495,1,8,0:0:0:0:
256,192,124548,1,8,0:0:0:0:
256,192,124602,1,8,0:0:0:0:
256,192,124655,1,0,0:0:0:0:
256,192,124763,1,0,0:0:0:0:
256,192,124870,1,8,0:0:0:0:
256,192,124923,1,8,0:0:0:0:
256,192,124977,1,0,0:0:0:0:
256,192,125030,1,0,0:0:0:0:
256,192,125084,1,8,0:0:0:0:
256,192,125138,1,0,0:0:0:0:
256,192,125191,1,8,0:0:0:0:
256,192,125245,1,8,0:0:0:0:
256,192,125298,1,0,0:0:0:0:
256,192,125352,1,0,0:0:0:0:
256,192,125405,1,8,0:0:0:0:
256,192,125513,1,4,0:0:0:0:
256,192,125727,1,8,0:0:0:0:
256,192,125834,1,4,0:0:0:0:
256,192,125941,1,8,0:0:0:0:
256,192,126048,1,8,0:0:0:0:
256,192,126155,1,4,0:0:0:0:
256,192,126370,1,12,0:0:0:0:
256,192,126477,1,0,0:0:0:0:
256,192,126584,1,0,0:0:0:0:
256,192,126691,1,12,0:0:0:0:
256,192,126905,1,0,0:0:0:0:
256,192,127013,1,12,0:0:0:0:
256,192,127120,1,0,0:0:0:0:
256,192,127227,1,12,0:0:0:0:
256,192,127441,1,8,0:0:0:0:
256,192,127548,1,4,0:0:0:0:
256,192,127763,1,8,0:0:0:0:
256,192,127870,1,4,0:0:0:0:
256,192,127977,1,8,0:0:0:0:
256,192,128084,1,4,0:0:0:0:
256,192,128298,1,0,0:0:0:0:
256,192,128405,1,12,0:0:0:0:
256,192,128513,1,0,0:0:0:0:
256,192,128620,1,0,0:0:0:0:
256,192,128727,1,8,0:0:0:0:
256,192,128780,1,8,0:0:0:0:
256,192,128834,1,8,0:0:0:0:
256,192,128941,1,4,0:0:0:0:
256,192,129155,1,8,0:0:0:0:
256,192,129263,1,8,0:0:0:0:
256,192,129370,1,0,0:0:0:0:
256,192,129423,1,0,0:0:0:0:
256,192,129477,1,0,0:0:0:0:
256,192,129584,1,8,0:0:0:0:
256,192,129691,1,8,0:0:0:0:
256,192,129798,1,0,0:0:0:0:
256,192,129852,1,8,0:0:0:0:
256,192,129905,1,0,0:0:0:0:
256,192,129959,1,0,0:0:0:0:
256,192,130013,1,8,0:0:0:0:
256,192,130120,1,0,0:0:0:0:
256,192,130173,1,0,0:0:0:0:
256,192,130227,1,8,0:0:0:0:
256,192,130334,1,8,0:0:0:0:
256,192,130441,1,0,0:0:0:0:
256,192,130495,1,0,0:0:0:0:
256,192,130548,1,0,0:0:0:0:
256,192,130655,1,8,0:0:0:0:
256,192,130709,1,8,0:0:0:0:
256,192,130763,1,0,0:0:0:0:
256,192,130816,1,8,0:0:0:0:
256,192,130870,1,0,0:0:0:0:
256,192,130923,1,0,0:0:0:0:
256,192,130977,1,8,0:0:0:0:
256,192,131030,1,8,0:0:0:0:
256,192,131084,1,8,0:0:0:0:
256,192,131138,1,8,0:0:0:0:
256,192,131191,1,0,0:0:0:0:
256,192,131245,1,0,0:0:0:0:
256,192,131298,1,8,0:0:0:0:
256,192,131405,1,0,0:0:0:0:
256,192,131513,1,8,0:0:0:0:
256,192,131566,1,0,0:0:0:0:
256,192,131620,1,8,0:0:0:0:
256,192,131673,1,8,0:0:0:0:
256,192,131727,1,0,0:0:0:0:
256,192,131780,1,8,0:0:0:0:
256,192,131834,1,0,0:0:0:0:
256,192,131888,1,0,0:0:0:0:
256,192,131941,1,8,0:0:0:0:
256,192,132013,1,8,0:0:0:0:
256,192,132084,1,8,0:0:0:0:
256,192,132155,1,0,0:0:0:0:
256,192,132227,1,0,0:0:0:0:
256,192,132298,1,0,0:0:0:0:
256,192,132370,1,8,0:0:0:0:
256,192,132584,1,0,0:0:0:0:
256,192,132691,1,0,0:0:0:0:
256,192,132798,1,8,0:0:0:0:
256,192,132852,1,0,0:0:0:0:
256,192,132905,1,0,0:0:0:0:
256,192,132959,1,0,0:0:0:0:
256,192,133013,1,8,0:0:0:0:
256,192,133120,1,8,0:0:0:0:
256,192,133227,1,0,0:0:0:0:
256,192,133280,1,8,0:0:0:0:
256,192,133334,1,0,0:0:0:0:
256,192,133388,1,0,0:0:0:0:
256,192,133441,1,8,0:0:0:0:
256,192,133548,1,0,0:0:0:0:
256,192,133655,1,8,0:0:0:0:
256,192,133709,1,8,0:0:0:0:
256,192,133763,1,0,0:0:0:0:
256,192,133816,1,0,0:0:0:0:
256,192,133870,1,8,0:0:0:0:
256,192,133923,1,0,0:0:0:0:
256,192,133977,1,8,0:0:0:0:
256,192,134030,1,8,0:0:0:0:
256,192,134084,1,0,0:0:0:0:
256,192,134191,1,0,0:0:0:0:
256,192,134245,1,0,0:0:0:0:
256,192,134298,1,8,0:0:0:0:
256,192,134405,1,8,0:0:0:0:
256,192,134513,1,0,0:0:0:0:
256,192,134620,1,0,0:0:0:0:
256,192,134673,1,0,0:0:0:0:
256,192,134727,1,8,0:0:0:0:
256,192,134834,1,0,0:0:0:0:
256,192,134941,1,8,0:0:0:0:
256,192,134995,1,0,0:0:0:0:
256,192,135048,1,8,0:0:0:0:
256,192,135102,1,8,0:0:0:0:
256,192,135155,1,0,0:0:0:0:
256,192,135263,1,0,0:0:0:0:
256,192,135316,1,0,0:0:0:0:
256,192,135370,1,8,0:0:0:0:
256,192,135423,1,8,0:0:0:0:
256,192,135477,1,0,0:0:0:0:
256,192,135530,1,0,0:0:0:0:
256,192,135584,1,8,0:0:0:0:
256,192,135691,1,0,0:0:0:0:
256,192,135798,1,12,0:0:0:0:
256,192,136013,1,0,0:0:0:0:
256,192,136227,1,12,0:0:0:0:
256,192,136334,1,0,0:0:0:0:
256,192,136441,1,0,0:0:0:0:
256,192,136548,1,12,0:0:0:0:
256,192,136655,1,0,0:0:0:0:
256,192,136763,1,0,0:0:0:0:
256,192,136870,1,12,0:0:0:0:
256,192,136977,1,0,0:0:0:0:
256,192,137084,1,8,0:0:0:0:
256,192,137138,1,0,0:0:0:0:
256,192,137191,1,8,0:0:0:0:
256,192,137245,1,8,0:0:0:0:
256,192,137298,1,0,0:0:0:0:
256,192,137405,1,0,0:0:0:0:
256,192,137513,1,12,0:0:0:0:
256,192,137727,1,0,0:0:0:0:
256,192,137941,1,12,0:0:0:0:
256,192,138048,1,0,0:0:0:0:
256,192,138155,1,0,0:0:0:0:
256,192,138263,1,12,0:0:0:0:
256,192,138370,1,0,0:0:0:0:
256,192,138477,1,0,0:0:0:0:
256,192,138584,1,12,0:0:0:0:
256,192,138691,1,0,0:0:0:0:
256,192,138798,1,8,0:0:0:0:
256,192,138852,1,8,0:0:0:0:
256,192,138905,1,0,0:0:0:0:
256,192,138959,1,8,0:0:0:0:
256,192,139013,1,0,0:0:0:0:
256,192,139066,1,0,0:0:0:0:
256,192,139120,1,8,0:0:0:0:
256,192,139227,1,4,0:0:0:0:
256,192,139441,1,8,0:0:0:0:
256,192,139655,1,0,0:0:0:0:
256,192,139763,1,0,0:0:0:0:
256,192,139870,1,8,0:0:0:0:
256,192,139977,1,0,0:0:0:0:
256,192,140191,1,0,0:0:0:0:
256,192,140298,1,8,0:0:0:0:
256,192,140513,1,0,0:0:0:0:
256,192,140620,1,0,0:0:0:0:
256,192,140727,1,8,0:0:0:0:
256,192,140941,1,4,0:0:0:0:
256,192,141155,1,8,0:0:0:0:
256,192,141263,1,0,0:0:0:0:
256,192,141370,1,0,0:0:0:0:
256,192,141584,1,8,0:0:0:0:
256,192,141691,1,0,0:0:0:0:
256,192,141905,1,0,0:0:0:0:
256,192,142013,1,8,0:0:0:0:
256,192,142227,1,0,0:0:0:0:
256,192,142334,1,0,0:0:0:0:
256,192,142441,1,8,0:0:0:0:
256,192,142548,1,8,0:0:0:0:
256,192,142655,1,4,0:0:0:0:
256,192,142870,1,8,0:0:0:0:
256,192,143084,1,0,0:0:0:0:
256,192,143298,1,8,0:0:0:0:
256,192,143405,1,0,0:0:0:0:
256,192,143620,1,0,0:0:0:0:
256,192,143727,1,8,0:0:0:0:
256,192,143834,1,0,0:0:0:0:
256,192,143941,1,0,0:0:0:0:
256,192,144155,1,8,0:0:0:0:
256,192,144370,1,4,0:0:0:0:
256,192,144584,1,8,0:0:0:0:
256,192,144691,1,0,0:0:0:0:
256,192,144798,1,8,0:0:0:0:
256,192,144905,1,0,0:0:0:0:
256,192,145013,1,8,0:0:0:0:
256,192,145120,1,0,0:0:0:0:
256,192,145227,1,8,0:0:0:0:
256,192,145334,1,0,0:0:0:0:
256,192,145441,1,8,0:0:0:0:
256,192,145548,1,8,0:0:0:0:
256,192,145655,1,0,0:0:0:0:
256,192,145709,1,0,0:0:0:0:
256,192,145763,1,8,0:0:0:0:
256,192,145816,1,0,0:0:0:0:
256,192,145870,1,8,0:0:0:0:
256,192,145923,1,8,0:0:0:0:
256,192,145977,1,8,0:0:0:0:
256,192,146084,1,4,0:0:0:0:
256,192,146298,1,8,0:0:0:0:
256,192,146405,1,8,0:0:0:0:
256,192,146513,1,0,0:0:0:0:
256,192,146620,1,0,0:0:0:0:
256,192,146727,1,8,0:0:0:0:
256,192,146798,1,0,0:0:0:0:
256,192,146870,1,0,0:0:0:0:
256,192,146941,1,8,0:0:0:0:
256,192,147048,1,0,0:0:0:0:
256,192,147155,1,8,0:0:0:0:
256,192,147263,1,0,0:0:0:0:
256,192,147316,1,0,0:0:0:0:
256,192,147370,1,8,0:0:0:0:
256,192,147477,1,0,0:0:0:0:
256,192,147584,1,8,0:0:0:0:
256,192,147655,1,8,0:0:0:0:
256,192,147727,1,8,0:0:0:0:
256,192,147798,1,0,0:0:0:0:
256,192,147870,1,0,0:0:0:0:
256,192,147941,1,0,0:0:0:0:
256,192,148013,1,8,0:0:0:0:
256,192,148066,1,8,0:0:0:0:
256,192,148120,1,8,0:0:0:0:
256,192,148173,1,8,0:0:0:0:
256,192,148227,1,0,0:0:0:0:
256,192,148334,1,0,0:0:0:0:
256,192,148441,1,8,0:0:0:0:
256,192,148513,1,0,0:0:0:0:
256,192,148584,1,0,0:0:0:0:
256,192,148655,1,8,0:0:0:0:
256,192,148727,1,8,0:0:0:0:
256,192,148798,1,0,0:0:0:0:
256,192,148870,1,8,0:0:0:0:
256,192,148977,1,0,0:0:0:0:
256,192,149084,1,8,0:0:0:0:
256,192,149138,1,8,0:0:0:0:
256,192,149191,1,0,0:0:0:0:
256,192,149245,1,0,0:0:0:0:
256,192,149298,1,8,0:0:0:0:
256,192,149352,1,0,0:0:0:0:
256,192,149405,1,8,0:0:0:0:
256,192,149459,1,8,0:0:0:0:
256,192,149513,1,0,0:0:0:0:
256,192,149584,1,0,0:0:0:0:
256,192,149655,1,0,0:0:0:0:
256,192,149727,1,8,0:0:0:0:
256,192,149834,1,0,0:0:0:0:
256,192,149941,1,8,0:0:0:0:
256,192,149995,1,0,0:0:0:0:
256,192,150048,1,8,0:0:0:0:
256,192,150102,1,8,0:0:0:0:
256,192,150155,1,0,0:0:0:0:
256,192,150263,1,0,0:0:0:0:
256,192,150370,1,8,0:0:0:0:
256,192,150441,1,8,0:0:0:0:
256,192,150513,1,8,0:0:0:0:
256,192,150584,1,0,0:0:0:0:
256,192,150691,1,8,0:0:0:0:
256,192,150745,1,8,0:0:0:0:
256,192,150798,1,0,0:0:0:0:
256,192,150905,1,8,0:0:0:0:
256,192,151013,1,0,0:0:0:0:
256,192,151066,1,0,0:0:0:0:
256,192,151120,1,8,0:0:0:0:
256,192,151173,1,8,0:0:0:0:
256,192,151227,1,0,0:0:0:0:
256,192,151298,1,0,0:0:0:0:
256,192,151370,1,0,0:0:0:0:
256,192,151441,1,8,0:0:0:0:
256,192,151548,1,0,0:0:0:0:
256,192,151602,1,0,0:0:0:0:
256,192,151655,1,8,0:0:0:0:
256,192,151763,1,0,0:0:0:0:
256,192,151870,1,8,0:0:0:0:
256,192,151923,1,8,0:0:0:0:
256,192,151977,1,0,0:0:0:0:
256,192,152030,1,0,0:0:0:0:
256,192,152084,1,8,0:0:0:0:
256,192,152155,1,0,0:0:0:0:
256,192,152227,1,0,0:0:0:0:
256,192,152298,1,8,0:0:0:0:
256,192,152370,1,0,0:0:0:0:
256,192,152441,1,0,0:0:0:0:
256,192,152513,1,8,0:0:0:0:
256,192,152584,1,0,0:0:0:0:
256,192,152655,1,0,0:0:0:0:
256,192,152727,1,8,0:0:0:0:
256,192,152834,1,0,0:0:0:0:
256,192,152941,1,8,0:0:0:0:
256,192,153013,1,8,0:0:0:0:
256,192,153084,1,8,0:0:0:0:
256,192,153155,1,0,0:0:0:0:
256,192,153263,1,8,0:0:0:0:
256,192,153316,1,8,0:0:0:0:
256,192,153370,1,0,0:0:0:0:
256,192,153423,1,8,0:0:0:0:
256,192,153477,1,0,0:0:0:0:
256,192,153530,1,0,0:0:0:0:
256,192,153584,1,8,0:0:0:0:
256,192,153655,1,0,0:0:0:0:
256,192,153727,1,0,0:0:0:0:
256,192,153798,1,8,0:0:0:0:
256,192,153870,1,8,0:0:0:0:
256,192,153941,1,8,0:0:0:0:
256,192,154013,1,0,0:0:0:0:
256,192,154120,1,8,0:0:0:0:
256,192,154173,1,8,0:0:0:0:
256,192,154227,1,0,0:0:0:0:
256,192,154334,1,0,0:0:0:0:
256,192,154441,1,8,0:0:0:0:
256,192,154513,1,8,0:0:0:0:
256,192,154584,1,8,0:0:0:0:
256,192,154655,1,0,0:0:0:0:
256,192,154727,1,0,0:0:0:0:
256,192,154798,1,0,0:0:0:0:
256,192,154870,1,8,0:0:0:0:
256,192,154923,1,8,0:0:0:0:
256,192,154977,1,0,0:0:0:0:
256,192,155030,1,8,0:0:0:0:
256,192,155084,1,0,0:0:0:0:
256,192,155138,1,0,0:0:0:0:
256,192,155191,1,8,0:0:0:0:
256,192,155245,1,0,0:0:0:0:
256,192,155298,1,8,0:0:0:0:
256,192,155370,1,0,0:0:0:0:
256,192,155441,1,0,0:0:0:0:
256,192,155513,1,8,0:0:0:0:
256,192,155584,1,8,0:0:0:0:
256,192,155655,1,8,0:0:0:0:
256,192,155727,1,0,0:0:0:0:
256,192,155834,1,8,0:0:0:0:
256,192,155888,1,8,0:0:0:0:
256,192,155941,1,0,0:0:0:0:
256,192,155995,1,0,0:0:0:0:
256,192,156048,1,0,0:0:0:0:
256,192,156102,1,0,0:0:0:0:
256,192,156155,1,8,0:0:0:0:
256,192,156227,1,8,0:0:0:0:
256,192,156298,1,8,0:0:0:0:
256,192,156370,1,0,0:0:0:0:
256,192,156441,1,0,0:0:0:0:
256,192,156513,1,0,0:0:0:0:
256,192,156584,1,8,0:0:0:0:
256,192,156691,1,0,0:0:0:0:
256,192,156745,1,0,0:0:0:0:
256,192,156798,1,8,0:0:0:0:
256,192,156905,1,0,0:0:0:0:
256,192,157013,1,8,0:0:0:0:
256,192,157120,1,0,0:0:0:0:
256,192,157227,1,8,0:0:0:0:
256,192,157298,1,0,0:0:0:0:
256,192,157370,1,0,0:0:0:0:
256,192,157441,1,8,0:0:0:0:
256,192,157548,1,0,0:0:0:0:
256,192,157602,1,0,0:0:0:0:
256,192,157655,1,8,0:0:0:0:
256,192,157709,1,0,0:0:0:0:
256,192,157763,1,8,0:0:0:0:
256,192,157816,1,8,0:0:0:0:
256,192,157870,1,0,0:0:0:0:
256,192,157941,1,0,0:0:0:0:
256,192,158013,1,0,0:0:0:0:
256,192,158084,1,8,0:0:0:0:
256,192,158191,1,0,0:0:0:0:
256,192,158298,1,8,0:0:0:0:
256,192,158405,1,0,0:0:0:0:
256,192,158513,1,8,0:0:0:0:
256,192,158620,1,0,0:0:0:0:
256,192,158727,1,8,0:0:0:0:
256,192,158834,1,0,0:0:0:0:
256,192,158941,1,8,0:0:0:0:
256,192,158995,1,8,0:0:0:0:
256,192,159048,1,0,0:0:0:0:
256,192,159102,1,0,0:0:0:0:
256,192,159155,1,8,0:0:0:0:
256,192,159209,1,8,0:0:0:0:
256,192,159263,1,0,0:0:0:0:
256,192,159316,1,0,0:0:0:0:
256,192,159370,1,8,0:0:0:0:
256,192,159441,1,8,0:0:0:0:
256,192,159513,1,8,0:0:0:0:
256,192,159584,1,0,0:0:0:0:
256,192,159655,1,0,0:0:0:0:
256,192,159727,1,0,0:0:0:0:
256,192,159798,1,8,0:0:0:0:
256,192,160655,1,8,0:0:0:0:
256,192,160870,1,8,0:0:0:0:
256,192,161084,1,0,0:0:0:0:
256,192,161298,1,8,0:0:0:0:
256,192,161405,1,8,0:0:0:0:
256,192,161513,1,0,0:0:0:0:
256,192,161727,1,12,0:0:0:0:
256,192,161941,1,8,0:0:0:0:
256,192,162048,1,0,0:0:0:0:
256,192,162155,1,8,0:0:0:0:
256,192,162263,1,0,0:0:0:0:
256,192,162370,1,8,0:0:0:0:
256,192,162477,1,8,0:0:0:0:
256,192,162584,1,4,0:0:0:0:
256,192,162798,1,0,0:0:0:0:
256,192,162905,1,8,0:0:0:0:
256,192,163013,1,0,0:0:0:0:
256,192,163120,1,0,0:0:0:0:
256,192,163227,1,8,0:0:0:0:
256,192,163334,1,8,0:0:0:0:
256,192,163441,1,0,0:0:0:0:
256,192,163548,1,8,0:0:0:0:
256,192,163655,1,0,0:0:0:0:
256,192,163870,1,12,0:0:0:0:
256,192,164084,1,8,0:0:0:0:
256,192,164191,1,8,0:0:0:0:
256,192,164298,1,0,0:0:0:0:
256,192,164405,1,0,0:0:0:0:
256,192,164513,1,8,0:0:0:0:
256,192,164620,1,8,0:0:0:0:
256,192,164727,1,4,0:0:0:0:
256,192,164941,1,4,0:0:0:0:
256,192,165155,1,8,0:0:0:0:
256,192,165263,1,0,0:0:0:0:
256,192,165370,1,12,0:0:0:0:
256,192,165584,1,8,0:0:0:0:
256,192,165691,1,8,0:0:0:0:
256,192,165798,1,0,0:0:0:0:
256,192,166013,1,12,0:0:0:0:
256,192,166227,1,8,0:0:0:0:
256,192,166334,1,8,0:0:0:0:
256,192,166441,1,0,0:0:0:0:
256,192,166548,1,0,0:0:0:0:
256,192,166655,1,8,0:0:0:0:
256,192,166763,1,8,0:0:0:0:
256,192,166870,1,4,0:0:0:0:
256,192,167084,1,0,0:0:0:0:
256,192,167191,1,0,0:0:0:0:
256,192,167298,1,8,0:0:0:0:
256,192,167405,1,0,0:0:0:0:
256,192,167513,1,8,0:0:0:0:
256,192,167620,1,8,0:0:0:0:
256,192,167727,1,0,0:0:0:0:
256,192,167834,1,8,0:0:0:0:
256,192,167941,1,0,0:0:0:0:
256,192,168155,1,12,0:0:0:0:
256,192,168370,1,8,0:0:0:0:
256,192,168477,1,8,0:0:0:0:
256,192,168584,1,0,0:0:0:0:
256,192,168691,1,0,0:0:0:0:
256,192,168798,1,8,0:0:0:0:
256,192,168905,1,8,0:0:0:0:
256,192,169013,1,4,0:0:0:0:
256,192,169227,1,4,0:0:0:0:
256,192,169441,1,8,0:0:0:0:
256,192,169548,1,0,0:0:0:0:
256,192,169655,1,12,0:0:0:0:
256,192,169870,1,8,0:0:0:0:
256,192,169977,1,8,0:0:0:0:
256,192,170084,1,0,0:0:0:0:
256,192,170191,1,0,0:0:0:0:
256,192,170405,1,0,0:0:0:0:
256,192,170512,1,0,0:0:0:0:
256,192,170726,1,8,0:0:0:0:
256,192,170834,1,0,0:0:0:0:
256,192,170941,1,0,0:0:0:0:
256,192,171048,1,8,0:0:0:0:
256,192,171155,1,8,0:0:0:0:
256,192,171369,1,8,0:0:0:0:
256,192,171584,1,8,0:0:0:0:
256,192,171798,1,4,0:0:0:0:
256,192,172226,1,8,0:0:0:0:
256,192,172655,1,0,0:0:0:0:
256,192,173083,1,8,0:0:0:0:
256,192,173512,1,4,0:0:0:0:
256,192,173940,1,8,0:0:0:0:
256,192,174369,1,0,0:0:0:0:
256,192,174798,1,8,0:0:0:0:
256,192,175226,1,4,0:0:0:0:
256,192,175655,1,8,0:0:0:0:
256,192,176083,1,0,0:0:0:0:
256,192,176298,1,0,0:0:0:0:
256,192,176512,1,8,0:0:0:0:
256,192,176940,1,4,0:0:0:0:
256,192,177369,1,8,0:0:0:0:
256,192,177798,1,0,0:0:0:0:
256,192,178012,1,0,0:0:0:0:
256,192,178226,1,8,0:0:0:0:
256,192,178333,1,0,0:0:0:0:
256,192,178440,1,8,0:0:0:0:
256,192,178548,1,8,0:0:0:0:
256,192,178655,1,4,0:0:0:0:
256,192,178869,1,8,0:0:0:0:
256,192,178976,1,4,0:0:0:0:
256,192,179190,1,8,0:0:0:0:
256,192,179298,1,4,0:0:0:0:
256,192,179512,1,12,0:0:0:0:
256,192,179726,1,0,0:0:0:0:
256,192,179833,1,12,0:0:0:0:
256,192,180048,1,0,0:0:0:0:
256,192,180155,1,12,0:0:0:0:
256,192,180262,1,0,0:0:0:0:
256,192,180369,1,12,0:0:0:0:
256,192,180583,1,8,0:0:0:0:
256,192,180690,1,4,0:0:0:0:
256,192,180905,1,8,0:0:0:0:
256,192,181012,1,4,0:0:0:0:
256,192,181119,1,8,0:0:0:0:
256,192,181226,1,4,0:0:0:0:
256,192,181440,1,0,0:0:0:0:
256,192,181548,1,12,0:0:0:0:
256,192,181762,1,0,0:0:0:0:
256,192,181869,1,8,0:0:0:0:
256,192,181976,1,8,0:0:0:0:
256,192,182083,1,4,0:0:0:0:
256,192,182298,1,8,0:0:0:0:
256,192,182405,1,8,0:0:0:0:
256,192,182512,1,0,0:0:0:0:
256,192,182619,1,0,0:0:0:0:
256,192,182726,1,8,0:0:0:0:
256,192,182940,1,0,0:0:0:0:
256,192,183048,1,0,0:0:0:0:
256,192,183155,1,8,0:0:0:0:
256,192,183262,1,0,0:0:0:0:
256,192,183315,1,0,0:0:0:0:
256,192,183369,1,8,0:0:0:0:
256,192,183476,1,8,0:0:0:0:
256,192,183583,1,0,0:0:0:0:
256,192,183690,1,0,0:0:0:0:
256,192,183797,1,8,0:0:0:0:
256,192,183851,1,8,0:0:0:0:
256,192,183905,1,0,0:0:0:0:
256,192,184012,1,0,0:0:0:0:
256,192,184119,1,8,0:0:0:0:
256,192,184172,1,8,0:0:0:0:
256,192,184226,1,0,0:0:0:0:
256,192,184333,1,0,0:0:0:0:
256,192,184440,1,8,0:0:0:0:
256,192,184494,1,0,0:0:0:0:
256,192,184547,1,0,0:0:0:0:
256,192,184601,1,0,0:0:0:0:
256,192,184655,1,8,0:0:0:0:
256,192,184708,1,8,0:0:0:0:
256,192,184762,1,0,0:0:0:0:
256,192,184815,1,0,0:0:0:0:
256,192,184869,1,8,0:0:0:0:
256,192,184976,1,8,0:0:0:0:
256,192,185083,1,0,0:0:0:0:
256,192,185155,1,0,0:0:0:0:
256,192,185226,1,0,0:0:0:0:
256,192,185297,1,8,0:0:0:0:
256,192,185369,1,8,0:0:0:0:
256,192,185440,1,8,0:0:0:0:
256,192,185512,1,4,0:0:0:0:
256,192,185726,1,8,0:0:0:0:
256,192,185833,1,0,0:0:0:0:
256,192,185887,1,0,0:0:0:0:
256,192,185940,1,8,0:0:0:0:
256,192,186047,1,0,0:0:0:0:
256,192,186155,1,8,0:0:0:0:
256,192,186208,1,8,0:0:0:0:
256,192,186262,1,8,0:0:0:0:
256,192,186369,1,0,0:0:0:0:
256,192,186422,1,0,0:0:0:0:
256,192,186476,1,8,0:0:0:0:
256,192,186530,1,8,0:0:0:0:
256,192,186583,1,0,0:0:0:0:
256,192,186637,1,8,0:0:0:0:
256,192,186690,1,0,0:0:0:0:
256,192,186744,1,0,0:0:0:0:
256,192,186797,1,8,0:0:0:0:
256,192,186905,1,0,0:0:0:0:
256,192,187012,1,8,0:0:0:0:
256,192,187065,1,8,0:0:0:0:
256,192,187119,1,0,0:0:0:0:
256,192,187172,1,0,0:0:0:0:
256,192,187226,1,8,0:0:0:0:
256,192,187333,1,0,0:0:0:0:
256,192,187387,1,0,0:0:0:0:
256,192,187440,1,0,0:0:0:0:
256,192,187547,1,8,0:0:0:0:
256,192,187601,1,8,0:0:0:0:
256,192,187655,1,0,0:0:0:0:
256,192,187708,1,8,0:0:0:0:
256,192,187762,1,0,0:0:0:0:
256,192,187815,1,0,0:0:0:0:
256,192,187869,1,8,0:0:0:0:
256,192,187976,1,8,0:0:0:0:
256,192,188030,1,8,0:0:0:0:
256,192,188083,1,0,0:0:0:0:
256,192,188190,1,0,0:0:0:0:
256,192,188297,1,8,0:0:0:0:
256,192,188351,1,0,0:0:0:0:
256,192,188405,1,0,0:0:0:0:
256,192,188458,1,0,0:0:0:0:
256,192,188512,1,8,0:0:0:0:
256,192,188565,1,8,0:0:0:0:
256,192,188619,1,0,0:0:0:0:
256,192,188672,1,0,0:0:0:0:
256,192,188726,1,8,0:0:0:0:
256,192,188780,1,8,0:0:0:0:
256,192,188833,1,8,0:0:0:0:
256,192,188887,1,8,0:0:0:0:
256,192,188940,1,0,0:0:0:0:
256,192,189047,1,0,0:0:0:0:
256,192,189155,1,8,0:0:0:0:
256,192,189262,1,0,0:0:0:0:
256,192,189315,1,0,0:0:0:0:
256,192,189369,1,8,0:0:0:0:
256,192,189422,1,0,0:0:0:0:
256,192,189476,1,8,0:0:0:0:
256,192,189583,1,0,0:0:0:0:
256,192,189637,1,0,0:0:0:0:
256,192,189690,1,0,0:0:0:0:
256,192,189797,1,8,0:0:0:0:
256,192,189851,1,8,0:0:0:0:
256,192,189905,1,0,0:0:0:0:
256,192,189958,1,0,0:0:0:0:
256,192,190012,1,8,0:0:0:0:
256,192,190065,1,0,0:0:0:0:
256,192,190119,1,0,0:0:0:0:
256,192,190172,1,0,0:0:0:0:
256,192,190226,1,8,0:0:0:0:
256,192,190333,1,8,0:0:0:0:
256,192,190440,1,0,0:0:0:0:
256,192,190494,1,8,0:0:0:0:
256,192,190547,1,0,0:0:0:0:
256,192,190601,1,0,0:0:0:0:
256,192,190655,1,8,0:0:0:0:
256,192,190762,1,8,0:0:0:0:
256,192,190815,1,8,0:0:0:0:
256,192,190869,1,0,0:0:0:0:
256,192,190976,1,8,0:0:0:0:
256,192,191030,1,8,0:0:0:0:
256,192,191083,1,0,0:0:0:0:
256,192,191137,1,0,0:0:0:0:
256,192,191190,1,8,0:0:0:0:
256,192,191244,1,0,0:0:0:0:
256,192,191297,1,8,0:0:0:0:
256,192,191405,1,0,0:0:0:0:
256,192,191512,1,8,0:0:0:0:
256,192,191565,1,8,0:0:0:0:
256,192,191619,1,0,0:0:0:0:
256,192,191672,1,0,0:0:0:0:
256,192,191726,1,8,0:0:0:0:
256,192,191780,1,0,0:0:0:0:
256,192,191833,1,0,0:0:0:0:
256,192,191887,1,0,0:0:0:0:
256,192,191940,1,8,0:0:0:0:
256,192,191994,1,8,0:0:0:0:
256,192,192047,1,8,0:0:0:0:
256,192,192101,1,8,0:0:0:0:
256,192,192155,1,0,0:0:0:0:
256,192,192208,1,0,0:0:0:0:
256,192,192262,1,8,0:0:0:0:
256,192,192369,1,4,0:0:0:0:
256,192,192583,1,8,0:0:0:0:
256,192,192690,1,4,0:0:0:0:
256,192,192797,1,8,0:0:0:0:
256,192,192905,1,8,0:0:0:0:
256,192,193012,1,4,0:0:0:0:
256,192,193226,1,12,0:0:0:0:
256,192,193333,1,0,0:0:0:0:
256,192,193440,1,0,0:0:0:0:
256,192,193547,1,12,0:0:0:0:
256,192,193762,1,0,0:0:0:0:
256,192,193869,1,12,0:0:0:0:
256,192,193976,1,0,0:0:0:0:
256,192,194083,1,12,0:0:0:0:
256,192,194297,1,8,0:0:0:0:
256,192,194405,1,4,0:0:0:0:
256,192,194619,1,8,0:0:0:0:
256,192,194726,1,4,0:0:0:0:
256,192,194833,1,8,0:0:0:0:
256,192,194940,1,4,0:0:0:0:
256,192,195155,1,0,0:0:0:0:
256,192,195262,1,12,0:0:0:0:
256,192,195369,1,0,0:0:0:0:
256,192,195476,1,0,0:0:0:0:
256,192,195583,1,8,0:0:0:0:
256,192,195637,1,8,0:0:0:0:
256,192,195690,1,8,0:0:0:0:
256,192,195797,1,4,0:0:0:0:
256,192,196012,1,8,0:0:0:0:
256,192,196119,1,8,0:0:0:0:
256,192,196226,1,0,0:0:0:0:
256,192,196280,1,0,0:0:0:0:
256,192,196333,1,0,0:0:0:0:
256,192,196440,1,8,0:0:0:0:
256,192,196547,1,0,0:0:0:0:
256,192,196655,1,8,0:0:0:0:
256,192,196708,1,8,0:0:0:0:
256,192,196762,1,0,0:0:0:0:
256,192,196869,1,8,0:0:0:0:
256,192,196976,1,0,0:0:0:0:
256,192,197030,1,0,0:0:0:0:
256,192,197083,1,8,0:0:0:0:
256,192,197137,1,0,0:0:0:0:
256,192,197190,1,8,0:0:0:0:
256,192,197244,1,8,0:0:0:0:
256,192,197297,1,0,0:0:0:0:
256,192,197405,1,0,0:0:0:0:
256,192,197512,1,8,0:0:0:0:
256,192,197565,1,8,0:0:0:0:
256,192,197619,1,8,0:0:0:0:
256,192,197672,1,8,0:0:0:0:
256,192,197726,1,0,0:0:0:0:
256,192,197780,1,0,0:0:0:0:
256,192,197833,1,8,0:0:0:0:
256,192,197887,1,8,0:0:0:0:
256,192,197940,1,0,0:0:0:0:
256,192,197994,1,0,0:0:0:0:
256,192,198047,1,0,0:0:0:0:
256,192,198101,1,0,0:0:0:0:
256,192,198155,1,8,0:0:0:0:
256,192,198262,1,0,0:0:0:0:
256,192,198369,1,8,0:0:0:0:
256,192,198422,1,8,0:0:0:0:
256,192,198476,1,0,0:0:0:0:
256,192,198530,1,8,0:0:0:0:
256,192,198583,1,0,0:0:0:0:
256,192,198637,1,0,0:0:0:0:
256,192,198690,1,8,0:0:0:0:
256,192,198744,1,0,0:0:0:0:
256,192,198797,1,8,0:0:0:0:
256,192,198869,1,0,0:0:0:0:
256,192,198940,1,0,0:0:0:0:
256,192,199012,1,8,0:0:0:0:
256,192,199083,1,0,0:0:0:0:
256,192,199155,1,0,0:0:0:0:
256,192,199226,1,8,0:0:0:0:
256,192,199333,1,0,0:0:0:0:
256,192,199440,1,0,0:0:0:0:
256,192,199547,1,0,0:0:0:0:
256,192,199655,1,8,0:0:0:0:
256,192,199708,1,8,0:0:0:0:
256,192,199762,1,0,0:0:0:0:
256,192,199815,1,0,0:0:0:0:
256,192,199869,1,8,0:0:0:0:
256,192,199976,1,0,0:0:0:0:
256,192,200083,1,8,0:0:0:0:
256,192,200137,1,0,0:0:0:0:
256,192,200190,1,0,0:0:0:0:
256,192,200244,1,0,0:0:0:0:
256,192,200297,1,8,0:0:0:0:
256,192,200405,1,0,0:0:0:0:
256,192,200512,1,8,0:0:0:0:
256,192,200565,1,8,0:0:0:0:
256,192,200619,1,8,0:0:0:0:
256,192,200672,1,8,0:0:0:0:
256,192,200726,1,0,0:0:0:0:
256,192,200833,1,8,0:0:0:0:
256,192,200940,1,0,0:0:0:0:
256,192,201047,1,0,0:0:0:0:
256,192,201101,1,0,0:0:0:0:
256,192,201155,1,8,0:0:0:0:
256,192,201262,1,8,0:0:0:0:
256,192,201369,1,0,0:0:0:0:
256,192,201476,1,0,0:0:0:0:
256,192,201530,1,0,0:0:0:0:
256,192,201583,1,8,0:0:0:0:
256,192,201690,1,0,0:0:0:0:
256,192,201797,1,8,0:0:0:0:
256,192,201851,1,8,0:0:0:0:
256,192,201905,1,0,0:0:0:0:
256,192,201958,1,0,0:0:0:0:
256,192,202012,1,8,0:0:0:0:
256,192,202119,1,0,0:0:0:0:
256,192,202172,1,0,0:0:0:0:
256,192,202226,1,8,0:0:0:0:
256,192,202280,1,0,0:0:0:0:
256,192,202333,1,0,0:0:0:0:
256,192,202387,1,0,0:0:0:0:
256,192,202440,1,8,0:0:0:0:
256,192,202547,1,0,0:0:0:0:
256,192,202655,1,12,0:0:0:0:
256,192,202869,1,0,0:0:0:0:
256,192,203083,1,12,0:0:0:0:
256,192,203190,1,0,0:0:0:0:
256,192,203297,1,0,0:0:0:0:
256,192,203405,1,12,0:0:0:0:
256,192,203512,1,0,0:0:0:0:
256,192,203619,1,0,0:0:0:0:
256,192,203726,1,12,0:0:0:0:
256,192,203833,1,0,0:0:0:0:
256,192,203940,1,8,0:0:0:0:
256,192,203994,1,0,0:0:0:0:
256,192,204047,1,8,0:0:0:0:
256,192,204101,1,8,0:0:0:0:
256,192,204155,1,0,0:0:0:0:
256,192,204262,1,0,0:0:0:0:
256,192,204369,1,12,0:0:0:0:
256,192,204583,1,0,0:0:0:0:
256,192,204797,1,12,0:0:0:0:
256,192,204905,1,0,0:0:0:0:
256,192,205012,1,0,0:0:0:0:
256,192,205119,1,12,0:0:0:0:
256,192,205226,1,0,0:0:0:0:
256,192,205333,1,0,0:0:0:0:
256,192,205440,1,12,0:0:0:0:
256,192,205547,1,0,0:0:0:0:
256,192,205655,1,8,0:0:0:0:
256,192,205708,1,8,0:0:0:0:
256,192,205762,1,0,0:0:0:0:
256,192,205815,1,0,0:0:0:0:
256,192,205869,1,8,0:0:0:0:
256,192,205922,1,8,0:0:0:0:
256,192,205976,1,8,0:0:0:0:
256,192,206083,1,4,0:0:0:0:
256,192,206297,1,8,0:0:0:0:
256,192,206405,1,8,0:0:0:0:
256,192,206512,1,0,0:0:0:0:
256,192,206565,1,0,0:0:0:0:
256,192,206619,1,8,0:0:0:0:
256,192,206672,1,8,0:0:0:0:
256,192,206726,1,0,0:0:0:0:
256,192,206833,1,8,0:0:0:0:
256,192,206887,1,0,0:0:0:0:
256,192,206940,1,8,0:0:0:0:
256,192,206994,1,8,0:0:0:0:
256,192,207047,1,0,0:0:0:0:
256,192,207101,1,0,0:0:0:0:
256,192,207155,1,8,0:0:0:0:
256,192,207262,1,0,0:0:0:0:
256,192,207369,1,8,0:0:0:0:
256,192,207422,1,8,0:0:0:0:
256,192,207476,1,8,0:0:0:0:
256,192,207583,1,0,0:0:0:0:
256,192,207637,1,0,0:0:0:0:
256,192,207690,1,8,0:0:0:0:
256,192,207744,1,0,0:0:0:0:
256,192,207797,1,8,0:0:0:0:
256,192,207905,1,0,0:0:0:0:
256,192,208012,1,8,0:0:0:0:
256,192,208065,1,8,0:0:0:0:
256,192,208119,1,0,0:0:0:0:
256,192,208172,1,8,0:0:0:0:
256,192,208226,1,0,0:0:0:0:
256,192,208280,1,0,0:0:0:0:
256,192,208333,1,8,0:0:0:0:
256,192,208440,1,8,0:0:0:0:
256,192,208494,1,8,0:0:0:0:
256,192,208547,1,0,0:0:0:0:
256,192,208601,1,0,0:0:0:0:
256,192,208655,1,8,0:0:0:0:
256,192,208762,1,0,0:0:0:0:
256,192,208869,1,8,0:0:0:0:
256,192,208922,1,0,0:0:0:0:
256,192,208976,1,0,0:0:0:0:
256,192,209030,1,0,0:0:0:0:
256,192,209083,1,8,0:0:0:0:
256,192,209137,1,8,0:0:0:0:
256,192,209190,1,0,0:0:0:0:
256,192,209244,1,0,0:0:0:0:
256,192,209297,1,8,0:0:0:0:
256,192,209405,1,8,0:0:0:0:
256,192,209512,1,4,0:0:0:0:
256,192,209726,1,8,0:0:0:0:
256,192,209833,1,0,0:0:0:0:
256,192,209940,1,8,0:0:0:0:
256,192,209994,1,8,0:0:0:0:
256,192,210047,1,8,0:0:0:0:
256,192,210155,1,0,0:0:0:0:
256,192,210208,1,0,0:0:0:0:
256,192,210262,1,8,0:0:0:0:
256,192,210315,1,8,0:0:0:0:
256,192,210369,1,0,0:0:0:0:
256,192,210476,1,0,0:0:0:0:
256,192,210530,1,0,0:0:0:0:
256,192,210583,1,8,0:0:0:0:
256,192,210690,1,0,0:0:0:0:
256,192,210797,1,8,0:0:0:0:
256,192,210851,1,8,0:0:0:0:
256,192,210905,1,0,0:0:0:0:
256,192,210958,1,8,0:0:0:0:
256,192,211012,1,0,0:0:0:0:
256,192,211065,1,0,0:0:0:0:
256,192,211119,1,8,0:0:0:0:
256,192,211172,1,0,0:0:0:0:
256,192,211226,1,8,0:0:0:0:
256,192,211333,1,0,0:0:0:0:
256,192,211440,1,8,0:0:0:0:
256,192,211494,1,8,0:0:0:0:
256,192,211547,1,0,0:0:0:0:
256,192,211655,1,8,0:0:0:0:
256,192,211708,1,8,0:0:0:0:
256,192,211762,1,0,0:0:0:0:
256,192,211869,1,8,0:0:0:0:
256,192,211922,1,0,0:0:0:0:
256,192,211976,1,8,0:0:0:0:
256,192,212030,1,8,0:0:0:0:
256,192,212083,1,0,0:0:0:0:
256,192,212190,1,8,0:0:0:0:
256,192,212297,1,0,0:0:0:0:
256,192,212351,1,0,0:0:0:0:
256,192,212405,1,8,0:0:0:0:
256,192,212458,1,8,0:0:0:0:
256,192,212512,1,0,0:0:0:0:
256,192,212565,1,8,0:0:0:0:
256,192,212619,1,0,0:0:0:0:
256,192,212672,1,0,0:0:0:0:
256,192,212726,1,8,0:0:0:0:
256,192,212833,1,8,0:0:0:0:
256,192,212940,1,4,0:0:0:0:
256,192,213155,1,8,0:0:0:0:
256,192,213262,1,0,0:0:0:0:
256,192,213369,1,8,0:0:0:0:
256,192,213422,1,8,0:0:0:0:
256,192,213476,1,0,0:0:0:0:
256,192,213583,1,8,0:0:0:0:
256,192,213690,1,0,0:0:0:0:
256,192,213744,1,0,0:0:0:0:
256,192,213797,1,8,0:0:0:0:
256,192,213851,1,0,0:0:0:0:
256,192,213905,1,8,0:0:0:0:
256,192,213958,1,8,0:0:0:0:
256,192,214012,1,0,0:0:0:0:
256,192,214065,1,8,0:0:0:0:
256,192,214119,1,0,0:0:0:0:
256,192,214226,1,8,0:0:0:0:
256,192,214280,1,8,0:0:0:0:
256,192,214333,1,0,0:0:0:0:
256,192,214387,1,0,0:0:0:0:
256,192,214440,1,8,0:0:0:0:
256,192,214547,1,8,0:0:0:0:
256,192,214655,1,0,0:0:0:0:
256,192,214708,1,0,0:0:0:0:
256,192,214762,1,8,0:0:0:0:
256,192,214815,1,8,0:0:0:0:
256,192,214869,1,0,0:0:0:0:
256,192,214976,1,0,0:0:0:0:
256,192,215083,1,8,0:0:0:0:
256,192,215137,1,8,0:0:0:0:
256,192,215190,1,0,0:0:0:0:
256,192,215297,1,8,0:0:0:0:
256,192,215351,1,0,0:0:0:0:
256,192,215405,1,0,0:0:0:0:
256,192,215458,1,0,0:0:0:0:
256,192,215512,1,8,0:0:0:0:
256,192,215565,1,8,0:0:0:0:
256,192,215619,1,0,0:0:0:0:
256,192,215672,1,8,0:0:0:0:
256,192,215726,1,0,0:0:0:0:
256,192,215833,1,8,0:0:0:0:
256,192,215940,1,0,0:0:0:0:
256,192,215994,1,0,0:0:0:0:
256,192,216047,1,0,0:0:0:0:
256,192,216101,1,0,0:0:0:0:
256,192,216155,1,8,0:0:0:0:
256,192,216262,1,8,0:0:0:0:
256,192,216369,1,4,0:0:0:0:
256,192,216583,1,8,0:0:0:0:
256,192,216690,1,0,0:0:0:0:
256,192,216797,1,8,0:0:0:0:
256,192,216851,1,8,0:0:0:0:
256,192,216905,1,8,0:0:0:0:
256,192,217012,1,0,0:0:0:0:
256,192,217065,1,0,0:0:0:0:
256,192,217119,1,8,0:0:0:0:
256,192,217172,1,0,0:0:0:0:
256,192,217226,1,8,0:0:0:0:
256,192,217333,1,0,0:0:0:0:
256,192,217440,1,8,0:0:0:0:
256,192,217494,1,8,0:0:0:0:
256,192,217547,1,0,0:0:0:0:
256,192,217601,1,8,0:0:0:0:
256,192,217655,1,0,0:0:0:0:
256,192,217708,1,0,0:0:0:0:
256,192,217762,1,8,0:0:0:0:
256,192,217815,1,8,0:0:0:0:
256,192,217869,1,0,0:0:0:0:
256,192,217976,1,8,0:0:0:0:
256,192,218030,1,8,0:0:0:0:
256,192,218083,1,0,0:0:0:0:
256,192,218190,1,0,0:0:0:0:
256,192,218297,1,8,0:0:0:0:
256,192,218351,1,0,0:0:0:0:
256,192,218405,1,0,0:0:0:0:
256,192,218458,1,0,0:0:0:0:
256,192,218512,1,8,0:0:0:0:
256,192,218619,1,8,0:0:0:0:
256,192,218726,1,0,0:0:0:0:
256,192,218780,1,0,0:0:0:0:
256,192,218833,1,8,0:0:0:0:
256,192,218887,1,0,0:0:0:0:
256,192,218940,1,8,0:0:0:0:
256,192,218994,1,8,0:0:0:0:
256,192,219047,1,0,0:0:0:0:
256,192,219101,1,0,0:0:0:0:
256,192,219155,1,8,0:0:0:0:
256,192,219208,1,8,0:0:0:0:
256,192,219262,1,8,0:0:0:0:
256,192,219315,1,8,0:0:0:0:
256,192,219369,1,0,0:0:0:0:
256,192,219440,1,0,0:0:0:0:
256,192,219512,1,0,0:0:0:0:
256,192,219583,1,8,0:0:0:0:
256,192,219655,1,8,0:0:0:0:
256,192,219726,1,8,0:0:0:0:
256,192,219798,1,4,0:0:0:0:
